osu file format v14

[General]
AudioFilename: audio.mp3
AudioLeadIn: 0
PreviewTime: 122183
Countdown: 1
SampleSet: None
StackLeniency: 0.7
Mode: 0
LetterboxInBreaks: 0
WidescreenStoryboard: 0

[Editor]
DistanceSpacing: 1
BeatDivisor: 4
GridSize: 8
TimelineZoom: 2.2

[Metadata]
Title:Imaginary Places
TitleUnicode:Imaginary Places
Artist:Busdriver
ArtistUnicode:Busdriver
Creator:DJKratos
Version:I have bhop scripts
Source:
Tags:
BeatmapID:1700087
BeatmapSetID:810290

[Difficulty]
HPDrainRate:3
CircleSize:4
OverallDifficulty:9
ApproachRate:10
SliderMultiplier:2.4
SliderTickRate:1

[Events]
//Background and Video events
0,0,"surreal-world-1080P-wallpaper.jpg",0,0
//Break Periods
2,76601,80071
2,114423,121641
//Storyboard Layer 0 (Background)
//Storyboard Layer 1 (Fail)
//Storyboard Layer 2 (Pass)
//Storyboard Layer 3 (Foreground)
//Storyboard Sound Samples

[TimingPoints]
497,379.525845710093,4,3,0,60,1,0
79699,411.444676258992,4,3,0,60,1,0
83093,-100,4,3,0,20,0,0
83299,-100,4,3,0,60,0,0
88109,411.444676258992,4,3,0,60,1,0
104760,411.444676258992,4,3,0,60,1,0
122091,369.230769230769,4,3,0,60,1,0
122091,-100,4,3,0,90,0,1
145721,-100,4,3,0,60,0,0
146688,379.525845710093,4,3,0,30,1,0
147243,379.525845710093,4,3,0,30,1,0
148785,-100,4,3,0,60,0,0
149981,379.525845710093,4,3,0,60,1,0
150456,379.525845710093,4,3,0,60,1,0

[HitObjects]
57,49,497,5,0,0:0:0:0:
194,147,686,2,0,L|153:197,1,60
88,272,876,1,0,0:0:0:0:
232,344,1066,6,0,L|288:288,1,60
376,200,1256,1,0,0:0:0:0:
216,72,1445,6,0,L|272:40,1,60
448,40,1635,1,0,0:0:0:0:
256,192,1825,5,0,0:0:0:0:
168,296,1920,1,0,0:0:0:0:
152,168,2015,1,0,0:0:0:0:
304,320,2204,6,0,L|368:288,1,60
368,104,2394,1,0,0:0:0:0:
216,224,2584,5,0,0:0:0:0:
208,64,2679,1,0,0:0:0:0:
80,144,2774,1,0,0:0:0:0:
136,296,2963,6,0,L|200:328,1,60
168,136,3153,1,0,0:0:0:0:
384,208,3343,5,0,0:0:0:0:
320,24,3438,2,0,L|248:56,1,60
200,224,3722,5,0,0:0:0:0:
56,104,3817,2,0,P|56:72|72:32,1,60
152,280,4007,2,0,P|152:312|136:352,1,60
56,200,4197,1,0,0:0:0:0:
200,128,4292,5,0,0:0:0:0:
392,128,4387,2,0,L|360:200,1,60
264,32,4576,1,0,0:0:0:0:
456,0,4671,2,0,B|488:32|488:32|488:152,1,120
432,272,5051,6,0,L|352:312,1,60
272,72,5241,2,0,L|352:112,1,60
104,192,5430,2,0,L|64:112,1,60
272,304,5620,2,0,L|232:384,1,60
168,144,5810,5,0,0:0:0:0:
80,328,5905,1,0,0:0:0:0:
256,208,6000,1,0,0:0:0:0:
128,64,6095,1,0,0:0:0:0:
149,225,6189,2,0,P|85:169|77:113,1,120
344,72,6569,5,0,0:0:0:0:
480,200,6759,2,0,L|400:256,1,60
256,184,6948,2,0,L|336:128,1,60
352,304,7138,1,0,0:0:0:0:
192,264,7233,1,0,0:0:0:0:
224,104,7328,6,0,B|264:80|264:80|304:16,1,120
152,24,7613,1,0,0:0:0:0:
136,176,7707,2,0,B|112:216|112:216|49:254,1,120
296,312,8087,6,0,L|352:224,1,60
280,64,8277,2,0,L|224:152,1,60
464,56,8467,2,0,L|376:0,1,60
328,176,8656,2,0,L|378:208,1,60
360,80,8846,5,0,0:0:0:0:
240,192,8941,1,0,0:0:0:0:
416,128,9036,1,0,0:0:0:0:
288,248,9131,1,0,0:0:0:0:
280,96,9226,2,0,B|224:80|224:80|144:88,1,120
48,272,9605,5,0,0:0:0:0:
24,80,9795,2,0,L|88:104,1,60
232,160,9985,1,0,0:0:0:0:
152,296,10080,2,0,L|128:224,1,60
152,136,10269,1,0,0:0:0:0:
240,80,10364,6,0,B|304:64|304:64|368:64,1,120
376,224,10649,1,0,0:0:0:0:
224,198,10744,2,0,B|224:143|224:143|240:79,1,120
104,312,11123,6,0,L|56:224,1,60
104,64,11313,2,0,L|152:152,1,60
256,328,11503,2,0,L|227:275,1,60
376,184,11693,2,0,L|404:236,1,60
248,128,11882,5,0,0:0:0:0:
400,64,11977,1,0,0:0:0:0:
304,224,12072,1,0,0:0:0:0:
312,72,12167,1,0,0:0:0:0:
448,160,12262,2,0,B|480:224|480:224|480:280,1,120
96,320,12641,5,0,0:0:0:0:
40,96,12831,2,0,L|120:64,1,60
200,224,13021,2,0,L|120:200,1,60
200,64,13211,2,0,L|280:88,1,60
416,120,13400,6,0,B|376:88|376:88|336:24,1,120
352,192,13685,1,0,0:0:0:0:
208,264,13780,2,0,B|240:304|240:304|298:340,1,120
440,272,14159,6,0,L|472:208,1,60
296,64,14349,2,0,L|264:128,1,60
80,264,14539,2,0,L|112:200,1,60
280,280,14729,2,0,L|248:344,1,60
176,160,14918,5,0,0:0:0:0:
376,160,15013,1,0,0:0:0:0:
176,256,15108,1,0,0:0:0:0:
240,48,15203,1,0,0:0:0:0:
392,248,15298,2,0,P|392:288|336:352,1,120
128,128,15678,5,0,0:0:0:0:
0,216,15867,1,0,0:0:0:0:
112,40,16057,5,0,0:0:0:0:
240,128,16246,1,0,0:0:0:0:
144,272,16437,5,0,0:0:0:0:
320,192,16626,1,0,0:0:0:0:
168,368,16816,5,0,0:0:0:0:
248,192,17005,1,0,0:0:0:0:
416,336,17196,5,0,0:0:0:0:
480,128,17385,1,0,0:0:0:0:
192,32,17575,5,0,0:0:0:0:
400,96,17764,1,0,0:0:0:0:
264,0,17955,5,0,0:0:0:0:
200,208,18144,1,0,0:0:0:0:
376,288,18334,5,0,0:0:0:0:
288,104,18524,1,0,0:0:0:0:
104,256,18714,6,0,L|56:168,1,60
152,40,18904,2,0,L|200:128,1,60
248,240,19093,1,0,0:0:0:0:
256,80,19188,1,0,0:0:0:0:
168,224,19283,2,0,L|184:281,1,60
376,240,19473,5,0,0:0:0:0:
264,352,19568,1,0,0:0:0:0:
312,168,19663,2,0,L|376:144,1,60
456,336,19852,2,0,L|392:312,1,60
256,248,20042,1,0,0:0:0:0:
296,96,20137,1,0,0:0:0:0:
144,40,20232,6,0,L|72:88,1,60
40,256,20422,1,0,0:0:0:0:
176,144,20516,1,0,0:0:0:0:
8,120,20611,2,0,L|-8:184,1,60
128,336,20801,2,0,L|144:272,1,60
288,128,20991,5,0,0:0:0:0:
240,312,21086,1,0,0:0:0:0:
376,224,21181,1,0,0:0:0:0:
216,208,21276,1,0,0:0:0:0:
368,328,21370,1,0,0:0:0:0:
472,208,21465,1,0,0:0:0:0:
312,280,21560,1,0,0:0:0:0:
424,152,21655,1,0,0:0:0:0:
280,80,21750,2,0,B|192:80|192:80|144:96,1,120
80,264,22035,5,0,0:0:0:0:
48,112,22129,2,0,L|16:40,1,60
176,216,22319,2,0,L|208:144,1,60
16,192,22509,2,0,B|80:192|80:192|144:136,1,120
256,80,22794,1,0,0:0:0:0:
256,232,22889,2,0,B|256:296|256:296|200:360,1,120
192,152,23268,6,0,L|304:152,1,60
328,16,23458,1,0,0:0:0:0:
176,72,23553,1,0,0:0:0:0:
360,104,23648,2,0,L|432:56,1,60
336,216,23837,2,0,L|408:264,1,60
296,368,24027,5,0,0:0:0:0:
144,184,24122,1,0,0:0:0:0:
384,328,24217,1,0,0:0:0:0:
128,312,24312,1,0,0:0:0:0:
256,120,24407,2,0,B|232:88|232:88|112:88,1,120
400,32,24786,5,0,0:0:0:0:
480,208,24976,2,0,L|432:264,1,60
336,384,25166,1,0,0:0:0:0:
248,208,25261,1,0,0:0:0:0:
368,304,25355,2,0,L|432:352,1,60
352,152,25545,6,0,B|328:120|328:120|240:120,1,120
184,264,25830,1,0,0:0:0:0:
48,344,25925,2,0,B|16:320|16:320|16:232,1,120
128,48,26304,5,0,0:0:0:0:
248,200,26399,1,0,0:0:0:0:
304,56,26494,2,0,L|362:20,1,60
328,240,26684,2,0,L|269:275,1,60
120,160,26874,2,0,L|178:124,1,60
176,320,27063,5,0,0:0:0:0:
24,208,27158,1,0,0:0:0:0:
176,320,27253,1,0,0:0:0:0:
24,208,27348,1,0,0:0:0:0:
64,352,27443,2,0,L|136:232,1,120
320,320,27822,5,0,0:0:0:0:
472,192,28012,1,0,0:0:0:0:
392,96,28107,1,0,0:0:0:0:
328,200,28202,2,0,L|248:224,1,60
208,80,28392,2,0,L|288:104,1,60
144,200,28581,6,0,B|104:184|104:184|48:120,1,120
40,280,28866,1,0,0:0:0:0:
176,352,28961,2,0,L|304:352,1,120
304,64,29340,5,0,0:0:0:0:
432,216,29435,1,0,0:0:0:0:
368,64,29530,1,0,0:0:0:0:
368,216,29625,1,0,0:0:0:0:
432,64,29720,1,0,0:0:0:0:
304,216,29815,2,0,L|256:280,1,60
184,160,30005,1,0,0:0:0:0:
80,280,30100,5,0,0:0:0:0:
80,96,30194,1,0,0:0:0:0:
152,280,30289,1,0,0:0:0:0:
152,96,30383,1,0,0:0:0:0:
224,280,30479,2,0,B|272:344|272:344|368:360,1,120
456,96,30859,5,0,0:0:0:0:
240,48,31048,2,0,L|224:112,1,60
200,256,31238,1,0,0:0:0:0:
88,144,31333,1,0,0:0:0:0:
88,304,31428,2,0,L|144:360,1,60
280,288,31618,6,0,B|368:288|368:288|424:328,1,120
368,144,31902,1,0,0:0:0:0:
208,144,31997,2,0,B|184:64|184:64|216:16,1,120
56,232,32377,5,0,0:0:0:0:
216,352,32472,1,0,0:0:0:0:
128,184,32566,2,0,L|208:232,1,60
392,280,32756,1,0,0:0:0:0:
232,160,32851,1,0,0:0:0:0:
384,184,32946,2,0,L|432:120,1,60
216,64,33136,5,0,0:0:0:0:
312,264,33231,1,0,0:0:0:0:
304,80,33325,1,0,0:0:0:0:
168,264,33420,1,0,0:0:0:0:
96,56,33515,2,0,B|24:112|24:112|0:168,1,120
88,304,33895,5,0,0:0:0:0:
88,304,34085,1,0,0:0:0:0:
192,128,34274,1,0,0:0:0:0:
192,128,34464,1,0,0:0:0:0:
392,336,34654,5,0,0:0:0:0:
264,336,34844,1,0,0:0:0:0:
392,264,35033,1,0,0:0:0:0:
264,264,35223,1,0,0:0:0:0:
112,64,35413,5,0,0:0:0:0:
160,216,35603,1,0,0:0:0:0:
232,72,35792,1,0,0:0:0:0:
304,216,35982,1,0,0:0:0:0:
144,312,36172,5,0,0:0:0:0:
64,192,36362,1,0,0:0:0:0:
216,200,36551,1,0,0:0:0:0:
136,80,36741,1,0,0:0:0:0:
352,136,36931,6,0,P|384:120|408:80,1,60
320,296,37121,2,0,P|336:328|376:352,1,60
152,264,37311,2,0,P|120:280|96:320,1,60
184,96,37500,2,0,P|168:64|128:40,1,60
224,232,37690,5,0,0:0:0:0:
288,72,37785,1,0,0:0:0:0:
416,216,37880,2,0,P|400:248|360:272,1,60
240,344,38070,1,0,0:0:0:0:
280,184,38164,1,0,0:0:0:0:
144,288,38259,2,0,P|108:290|67:267,1,60
136,48,38449,5,0,0:0:0:0:
216,184,38544,1,0,0:0:0:0:
72,128,38639,1,0,0:0:0:0:
256,64,38734,1,0,0:0:0:0:
240,256,38829,5,0,0:0:0:0:
152,128,38923,1,0,0:0:0:0:
336,168,39018,1,0,0:0:0:0:
256,336,39113,1,0,0:0:0:0:
216,184,39208,1,0,0:0:0:0:
400,256,39303,1,0,0:0:0:0:
440,72,39398,6,0,L|360:40,1,60
200,64,39588,1,0,0:0:0:0:
304,232,39683,1,0,0:0:0:0:
120,192,39777,2,0,L|48:160,1,60
208,336,39967,6,0,B|288:328|288:328|344:344,1,120
408,192,40252,1,0,0:0:0:0:
248,136,40347,2,0,L|208:192,1,60
32,304,40536,2,0,L|66:255,1,60
152,80,40726,6,0,B|216:48|216:48|280:48,1,120
408,120,41011,1,0,0:0:0:0:
432,280,41106,2,0,B|368:320|368:320|344:368,1,120
120,256,41485,6,0,L|176:176,1,60
176,48,41675,1,0,0:0:0:0:
48,200,41770,1,0,0:0:0:0:
232,120,41865,2,0,L|288:72,1,60
336,248,42055,2,0,L|256:264,1,60
360,120,42244,5,0,0:0:0:0:
448,304,42339,1,0,0:0:0:0:
264,344,42434,1,0,0:0:0:0:
432,160,42529,1,0,0:0:0:0:
354,345,42624,2,0,B|320:284|320:284|258:249,1,120
64,224,43003,5,0,0:0:0:0:
128,40,43193,1,0,0:0:0:0:
272,96,43288,1,0,0:0:0:0:
128,144,43383,2,0,L|64:112,1,60
176,312,43573,2,0,L|240:344,1,60
448,272,43762,6,0,B|472:192|472:192|520:128,1,120
336,56,44047,1,0,0:0:0:0:
240,208,44142,2,0,B|224:136|224:136|184:88,1,120
128,344,44521,5,0,0:0:0:0:
112,88,44616,1,0,0:0:0:0:
240,304,44711,1,0,0:0:0:0:
72,160,44806,1,0,0:0:0:0:
336,280,44901,1,0,0:0:0:0:
264,56,44996,1,0,0:0:0:0:
448,176,45091,2,0,L|480:240,1,60
296,168,45281,5,0,0:0:0:0:
128,256,45375,1,0,0:0:0:0:
184,72,45470,2,0,L|232:128,1,60
40,152,45660,2,0,B|40:72|40:72|8:32,1,120
184,344,46040,5,0,0:0:0:0:
344,176,46229,2,0,L|408:248,1,60
168,208,46419,2,0,L|104:136,1,60
240,16,46609,1,0,0:0:0:0:
272,200,46704,1,0,0:0:0:0:
368,40,46799,6,0,B|448:64|448:64|512:112,1,120
480,216,47083,1,0,0:0:0:0:
384,304,47178,2,0,B|320:288|320:288|248:304,1,120
120,120,47558,6,0,L|80:64,1,60
288,152,47747,2,0,L|336:216,1,60
160,312,47937,2,0,L|176:232,1,60
408,88,48127,2,0,L|384:160,1,60
192,64,48317,5,0,0:0:0:0:
40,216,48412,1,0,0:0:0:0:
200,72,48507,5,0,0:0:0:0:
92,258,48602,1,0,0:0:0:0:
72,96,48696,2,0,B|40:40|40:40|-8:8,1,120
300,47,49076,5,0,0:0:0:0:
480,176,49266,1,0,0:0:0:0:
312,216,49360,1,0,0:0:0:0:
432,72,49455,2,0,L|480:24,1,60
424,288,49645,1,0,0:0:0:0:
352,144,49740,1,0,0:0:0:0:
296,304,49835,6,0,B|216:296|216:296|160:304,1,120
80,208,50120,1,0,0:0:0:0:
136,88,50214,2,0,B|64:112|64:112|80:64,1,120
376,112,50594,5,0,0:0:0:0:
496,224,50689,1,0,0:0:0:0:
320,240,50784,2,0,L|264:184,1,60
96,320,50973,2,0,L|152:376,1,60
160,128,51163,2,0,L|104:72,1,60
48,232,51353,5,0,0:0:0:0:
240,136,51448,1,0,0:0:0:0:
224,352,51543,1,0,0:0:0:0:
96,160,51638,1,0,0:0:0:0:
296,272,51732,2,0,B|352:248|352:248|424:248,1,120
32,216,52112,5,0,0:0:0:0:
32,131,52302,1,0,0:0:0:0:
81,64,52492,1,0,0:0:0:0:
161,38,52681,1,0,0:0:0:0:
336,360,52871,5,0,0:0:0:0:
416,334,53060,1,0,0:0:0:0:
465,267,53250,1,0,0:0:0:0:
465,182,53440,1,0,0:0:0:0:
161,346,53630,5,0,0:0:0:0:
81,320,53819,1,0,0:0:0:0:
32,253,54009,1,0,0:0:0:0:
32,168,54199,1,0,0:0:0:0:
480,216,54389,5,0,0:0:0:0:
480,131,54579,1,0,0:0:0:0:
431,64,54769,1,0,0:0:0:0:
351,38,54958,1,0,0:0:0:0:
120,192,55148,5,0,0:0:0:0:
56,48,55243,1,0,0:0:0:0:
16,200,55338,2,0,L|64:272,1,60
264,336,55528,1,0,0:0:0:0:
200,192,55623,1,0,0:0:0:0:
128,368,55718,1,0,0:0:0:0:
312,248,55812,1,0,0:0:0:0:
208,88,55907,6,0,L|264:24,1,60
424,112,56097,1,0,0:0:0:0:
272,144,56192,1,0,0:0:0:0:
448,208,56287,2,0,L|384:256,1,60
216,320,56477,1,0,0:0:0:0:
400,352,56572,1,0,0:0:0:0:
264,224,56666,6,0,L|192:240,1,60
72,328,56856,1,0,0:0:0:0:
144,144,56951,1,0,0:0:0:0:
216,320,57046,1,0,0:0:0:0:
34,240,57141,1,0,0:0:0:0:
224,32,57236,1,0,0:0:0:0:
144,234,57331,1,0,0:0:0:0:
328,136,57425,5,0,0:0:0:0:
126,56,57520,1,0,0:0:0:0:
280,264,57615,1,0,0:0:0:0:
78,184,57710,1,0,0:0:0:0:
336,128,57805,5,0,0:0:0:0:
134,48,57900,1,0,0:0:0:0:
288,256,57995,1,0,0:0:0:0:
86,176,58090,1,0,0:0:0:0:
176,352,58184,6,0,B|280:344|280:344|320:368,1,120
432,264,58469,1,0,0:0:0:0:
328,144,58564,2,0,L|408:104,1,60
264,272,58754,1,0,0:0:0:0:
192,104,58849,1,0,0:0:0:0:
112,272,58943,6,0,B|72:176|72:176|32:144,1,120
128,64,59228,1,0,0:0:0:0:
264,40,59323,2,0,B|336:48|336:48|384:32,1,120
400,248,59703,5,0,0:0:0:0:
224,328,59797,1,0,0:0:0:0:
368,184,59892,1,0,0:0:0:0:
192,264,59987,1,0,0:0:0:0:
328,128,60082,2,0,L|256:96,1,60
72,240,60272,2,0,L|144:272,1,60
144,64,60462,5,0,0:0:0:0:
288,232,60556,1,0,0:0:0:0:
80,136,60651,1,0,0:0:0:0:
272,104,60746,1,0,0:0:0:0:
216,304,60841,2,0,B|144:344|144:344|120:384,1,120
400,232,61221,5,0,0:0:0:0:
448,80,61410,2,0,L|408:24,2,60
272,160,61695,1,0,0:0:0:0:
160,48,61790,2,0,L|64:96,1,60
200,240,61980,6,0,B|128:264|128:264|64:320,1,120
256,328,62264,1,0,0:0:0:0:
271,159,62359,2,0,B|301:193|301:193|325:265,1,120
151,254,62739,6,0,P|109:233|80:184,1,60
193,87,62929,2,0,P|209:51|238:25,1,60
360,129,63118,2,0,P|396:145|422:174,1,60
318,296,63308,2,0,P|302:332|273:358,1,60
160,168,63498,5,0,0:0:0:0:
192,352,63593,1,0,0:0:0:0:
264,216,63688,1,0,0:0:0:0:
80,344,63782,1,0,0:0:0:0:
40,160,63877,2,0,B|64:88|64:88|40:32,1,120
224,112,64257,5,0,0:0:0:0:
440,184,64447,2,0,L|416:256,1,60
232,352,64636,1,0,0:0:0:0:
328,184,64731,1,0,0:0:0:0:
128,216,64826,2,0,L|80:272,1,60
72,72,65016,6,0,B|112:56|112:56|192:-8,1,120
240,152,65301,1,0,0:0:0:0:
328,24,65395,2,0,B|400:48|400:48|472:40,1,120
416,328,65775,5,0,0:0:0:0:
352,144,65870,1,0,0:0:0:0:
320,336,65965,2,0,L|280:272,1,60
152,136,66154,2,0,L|192:200,1,60
104,360,66344,1,0,0:0:0:0:
40,176,66439,1,0,0:0:0:0:
200,288,66534,5,0,0:0:0:0:
256,80,66629,1,0,0:0:0:0:
112,224,66724,1,0,0:0:0:0:
336,160,66819,1,0,0:0:0:0:
160,32,66914,2,0,B|80:40|80:40|24:32,1,120
40,288,67293,5,0,0:0:0:0:
224,352,67483,1,0,0:0:0:0:
224,192,67578,1,0,0:0:0:0:
72,128,67673,2,0,L|16:184,1,60
240,280,67862,2,0,L|296:224,1,60
464,360,68052,6,0,B|504:264|504:264|496:200,1,120
384,120,68337,1,0,0:0:0:0:
504,16,68432,2,0,B|416:32|416:32|336:16,1,120
168,88,68811,6,0,P|144:112|128:152,1,60
200,344,69001,2,0,P|224:320|240:280,1,60
48,304,69191,1,0,0:0:0:0:
208,176,69286,1,0,0:0:0:0:
368,288,69380,2,0,P|344:312|304:328,1,60
416,96,69570,5,0,0:0:0:0:
280,224,69665,1,0,0:0:0:0:
488,176,69760,1,0,0:0:0:0:
280,80,69855,1,0,0:0:0:0:
496,16,69950,2,0,B|384:48|384:48|344:24,1,120
128,80,70329,5,0,0:0:0:0:
216,160,70519,1,0,0:0:0:0:
208,280,70709,1,0,0:0:0:0:
104,344,70899,1,0,0:0:0:0:
512,248,71088,5,0,0:0:0:0:
432,336,71278,1,0,0:0:0:0:
312,328,71468,1,0,0:0:0:0:
248,224,71658,1,0,0:0:0:0:
32,56,71847,5,0,0:0:0:0:
112,144,72037,1,0,0:0:0:0:
232,136,72227,1,0,0:0:0:0:
296,32,72417,1,0,0:0:0:0:
48,344,72606,5,0,0:0:0:0:
112,240,72796,1,0,0:0:0:0:
232,232,72986,1,0,0:0:0:0:
312,320,73176,1,0,0:0:0:0:
368,72,73365,6,0,L|448:120,1,60
176,136,73555,2,0,L|96:88,1,60
360,240,73745,2,0,L|440:288,1,60
168,304,73935,2,0,L|88:256,1,60
296,80,74125,5,0,0:0:0:0:
368,336,74219,1,0,0:0:0:0:
200,232,74314,1,0,0:0:0:0:
472,320,74409,1,0,0:0:0:0:
224,368,74504,5,0,0:0:0:0:
352,176,74599,1,0,0:0:0:0:
116,273,74694,1,0,0:0:0:0:
256,144,74789,1,0,0:0:0:0:
128,368,74884,5,0,0:0:0:0:
40,168,74978,1,0,0:0:0:0:
288,296,75073,1,0,0:0:0:0:
200,96,75167,1,0,0:0:0:0:
152,360,75263,5,0,0:0:0:0:
64,160,75358,1,0,0:0:0:0:
312,288,75453,1,0,0:0:0:0:
224,88,75548,1,0,0:0:0:0:
400,160,75643,6,0,L|448:80,1,60
240,200,75832,1,0,0:0:0:0:
416,296,75927,1,0,0:0:0:0:
224,336,76022,2,0,B|208:272|136:304|136:304|48:256|160:176,1,240
64,104,80521,6,0,B|136:104|160:40|160:40|256:32|216:136,1,240
112,224,81139,1,0,0:0:0:0:
248,312,81344,2,0,B|312:360|336:280|336:280|384:256|408:296|408:296|488:264,1,240
416,120,81961,1,0,0:0:0:0:
400,112,82167,1,0,0:0:0:0:
384,104,82373,1,0,0:0:0:0:
256,48,82579,6,0,B|272:96|208:104|208:104|104:64|80:160|80:160,1,240
184,224,83196,1,0,0:0:0:0:
112,336,83402,2,0,B|152:352|208:312|208:312|296:368|296:368|368:360,1,240
448,256,84019,1,0,0:0:0:0:
304,72,84636,5,0,0:0:0:0:
80,120,85253,1,0,0:0:0:0:
72,144,85459,1,0,0:0:0:0:
64,168,85664,2,0,B|104:232|32:272|32:272|96:360|192:288|192:288|160:232|160:232,1,360
424,176,87105,6,0,B|424:232|360:240|360:240|304:192|376:96|376:96|304:32|240:104|240:104|192:72|136:80,1,480
64,208,88315,1,0,0:0:0:0:
64,256,88521,1,0,0:0:0:0:
112,232,88726,1,0,0:0:0:0:
112,288,88932,1,0,0:0:0:0:
160,256,89138,2,0,B|328:256|216:336|400:336,1,240
216,112,90372,6,0,B|328:128|352:32|352:32|216:48|112:16|112:16,1,360
64,104,91195,1,0,0:0:0:0:
112,272,91812,1,0,0:0:0:0:
232,248,92018,1,0,0:0:0:0:
352,304,92224,1,0,0:0:0:0:
472,256,92429,2,0,B|448:176|448:176|368:176|368:176|304:96,1,240
48,112,93252,5,0,0:0:0:0:
264,48,93664,1,0,0:0:0:0:
200,176,93869,2,0,B|168:216|128:208|128:208|96:240|96:304|96:304|152:320|200:288|200:288|256:288|304:344,1,360
432,144,95104,5,0,0:0:0:0:
360,80,95309,1,0,0:0:0:0:
264,48,95515,2,0,B|272:136|192:136|192:136|24:112|16:248|16:248,1,360
336,336,96955,2,0,B|216:168|376:160|432:264|280:320|208:256|208:256|144:296|80:272,1,480
312,336,98190,1,0,0:0:0:0:
328,240,98395,1,0,0:0:0:0:
408,296,98601,1,0,0:0:0:0:
416,192,98807,1,0,0:0:0:0:
320,144,99012,2,0,P|232:112|320:56,1,240
112,312,100247,6,0,B|104:256|64:208|64:208|184:240|184:240|160:192|192:176|192:176|128:112,1,360
72,48,101070,1,0,0:0:0:0:
400,80,101687,1,0,0:0:0:0:
384,104,101893,1,0,0:0:0:0:
360,136,102098,1,0,0:0:0:0:
336,160,102304,2,0,B|336:232|432:272|480:224|480:224|464:296,1,240
128,336,103127,1,0,0:0:0:0:
96,208,103538,1,0,0:0:0:0:
200,224,103744,2,0,B|208:144|120:88|24:136|24:136|16:64|88:24,1,360
392,64,104966,5,0,0:0:0:0:
360,192,105172,1,0,0:0:0:0:
480,232,105378,2,0,B|448:304|344:288|344:288|272:352|176:280|176:280|160:264,1,360
120,72,106818,2,0,B|176:64|248:64|264:104|184:160|128:96|184:32|248:32|248:32|312:32|344:80|312:136|248:96|240:64|296:40|344:32,1,480
80,264,108052,5,0,0:0:0:0:
88,272,108258,1,0,0:0:0:0:
96,280,108464,1,0,0:0:0:0:
104,288,108669,1,0,0:0:0:0:
112,296,108875,2,0,B|192:344|192:344|288:288|376:304,1,240
432,96,110109,6,0,B|216:112|154:67|154:67|72:120|72:120,1,360
32,256,110931,1,0,0:0:0:0:
320,336,111548,1,0,0:0:0:0:
456,240,111754,1,0,0:0:0:0:
296,240,111960,1,0,0:0:0:0:
456,152,112166,1,0,0:0:0:0:
288,152,112371,1,0,0:0:0:0:
440,64,112577,2,0,P|328:24|192:48,1,240
64,208,113400,5,0,0:0:0:0:
16,328,113606,2,0,B|96:304|168:360|168:360|280:320|280:320|376:360,1,360
152,304,122091,5,0,3:3:0:0:
392,304,122275,2,0,L|456:256,1,60,0|0,3:3|3:3,3:3:0:0:
208,152,122460,2,0,L|128:163,1,60,0|0,3:3|3:3,3:3:0:0:
384,40,122644,2,0,L|395:119,1,60,0|0,3:3|3:3,3:3:0:0:
152,304,122829,2,0,L|140:224,1,60,0|0,3:3|3:3,3:3:0:0:
80,48,123014,2,0,L|159:36,1,60,0|0,3:3|3:3,3:3:0:0:
256,112,123198,5,0,3:3:0:0:
104,152,123291,1,0,3:3:0:0:
264,200,123383,1,0,3:3:0:0:
400,120,123475,1,0,3:3:0:0:
384,280,123567,2,0,L|424:336,1,60,0|0,3:3|3:3,3:3:0:0:
138,200,123752,2,0,L|98:144,1,60,0|0,3:3|3:3,3:3:0:0:
320,56,123937,6,0,P|232:48|208:56,1,60,0|0,3:3|3:3,3:3:0:0:
141,284,124121,2,0,P|170:293|200:296,1,60,0|0,3:3|3:3,3:3:0:0:
408,224,124306,2,0,P|405:194|396:165,1,60,0|0,3:3|3:3,3:3:0:0:
296,328,124491,1,0,3:3:0:0:
280,136,124583,1,0,3:3:0:0:
144,288,124675,5,0,3:3:0:0:
320,216,124767,1,0,3:3:0:0:
136,144,124860,1,0,3:3:0:0:
56,320,124952,1,0,3:3:0:0:
16,136,125044,2,0,L|64:56,1,60,0|0,3:3|3:3,3:3:0:0:
248,264,125229,2,0,L|200:344,1,60,0|0,3:3|3:3,3:3:0:0:
224,120,125414,5,0,3:3:0:0:
416,192,125506,1,0,3:3:0:0:
248,48,125598,1,0,3:3:0:0:
448,120,125691,1,0,3:3:0:0:
352,280,125783,2,0,L|304:336,1,60,0|0,3:3|3:3,3:3:0:0:
184,165,125967,2,0,L|232:109,1,60,0|0,3:3|3:3,3:3:0:0:
128,320,126152,5,0,3:3:0:0:
80,136,126244,1,0,3:3:0:0:
240,256,126337,1,0,3:3:0:0:
24,208,126429,1,0,3:3:0:0:
88,32,126521,2,0,L|168:64,1,60,0|0,3:3|3:3,3:3:0:0:
240,256,126706,2,0,L|320:288,1,60,0|0,3:3|3:3,3:3:0:0:
472,88,126891,6,0,L|388:66,1,60,0|0,3:3|3:3,3:3:0:0:
217,179,127076,2,0,L|133:157,1,60,0|0,3:3|3:3,3:3:0:0:
288,72,127260,1,0,3:3:0:0:
96,80,127352,1,0,3:3:0:0:
288,216,127444,1,0,3:3:0:0:
96,224,127536,1,0,3:3:0:0:
240,352,127629,6,0,L|312:320,1,60,0|0,3:3|3:3,3:3:0:0:
288,72,127814,2,0,L|216:104,1,60,0|0,3:3|3:3,3:3:0:0:
128,328,127998,1,0,3:3:0:0:
344,144,128091,1,0,3:3:0:0:
152,120,128183,2,0,L|72:136,1,60,0|0,3:3|3:3,3:3:0:0:
294,327,128367,6,0,L|374:311,1,60,0|0,3:3|3:3,3:3:0:0:
456,144,128552,1,0,3:3:0:0:
288,232,128644,1,0,3:3:0:0:
456,256,128737,1,0,3:3:0:0:
360,72,128829,1,0,3:3:0:0:
208,192,128921,2,0,P|176:200|136:184,1,60,0|0,3:3|3:3,3:3:0:0:
224,56,129106,5,0,0:0:0:0:
56,144,129198,1,0,0:0:0:0:
160,296,129291,1,0,0:0:0:0:
160,112,129383,1,0,0:0:0:0:
48,264,129475,1,0,0:0:0:0:
208,360,129567,1,0,0:0:0:0:
328,208,129660,2,0,L|408:248,1,60
336,80,129844,6,0,L|416:120,1,60
192,200,130029,2,0,L|272:240,1,60
176,56,130214,1,0,0:0:0:0:
32,224,130306,1,0,0:0:0:0:
232,304,130398,1,0,0:0:0:0:
96,128,130491,1,0,0:0:0:0:
56,312,130583,5,0,0:0:0:0:
192,200,130675,1,0,0:0:0:0:
152,352,130767,1,0,0:0:0:0:
112,200,130860,1,0,0:0:0:0:
328,152,130952,2,0,L|376:200,1,60
256,304,131137,2,0,L|304:352,1,60
464,184,131321,5,0,0:0:0:0:
248,184,131414,1,0,0:0:0:0:
451,232,131506,5,0,0:0:0:0:
264,124,131599,1,0,0:0:0:0:
416,267,131691,5,0,0:0:0:0:
308,80,131784,1,0,0:0:0:0:
368,280,131875,5,0,0:0:0:0:
368,64,131968,1,0,0:0:0:0:
320,267,132060,5,0,0:0:0:0:
428,80,132153,1,0,0:0:0:0:
284,231,132244,5,0,0:0:0:0:
471,124,132337,1,0,0:0:0:0:
264,136,132429,2,0,L|176:176,1,60
112,328,132614,2,0,L|200:288,1,60
120,120,132798,5,0,0:0:0:0:
16,296,132891,1,0,0:0:0:0:
200,232,132983,1,0,0:0:0:0:
48,80,133075,1,0,0:0:0:0:
112,256,133167,1,0,0:0:0:0:
224,64,133260,1,0,0:0:0:0:
288,256,133352,2,0,L|344:304,1,60
400,96,133537,6,0,L|344:48,1,60
192,304,133721,1,0,0:0:0:0:
408,176,133814,1,0,0:0:0:0:
136,136,133906,1,0,0:0:0:0:
304,360,133998,1,0,0:0:0:0:
328,176,134091,2,0,L|256:216,1,60
83,165,134275,6,0,L|155:125,1,60
112,328,134460,2,0,L|59:357,1,60
275,205,134644,2,0,L|222:175,1,60
304,360,134829,2,0,L|251:330,1,60
448,272,135014,1,0,0:0:0:0:
336,112,135106,1,0,0:0:0:0:
360,296,135198,1,0,0:0:0:0:
464,136,135291,1,0,0:0:0:0:
264,104,135383,2,0,L|208:64,1,60
96,288,135567,5,0,0:0:0:0:
240,192,135660,1,0,0:0:0:0:
112,96,135752,2,0,P|80:80|40:80,1,60
96,288,135937,2,0,P|128:304|168:304,1,60
295,210,136121,2,0,P|263:194|223:194,1,60
336,352,136306,1,0,0:0:0:0:
400,176,136398,1,0,0:0:0:0:
248,296,136491,5,0,0:0:0:0:
440,264,136583,1,0,0:0:0:0:
288,144,136675,1,0,0:0:0:0:
368,288,136767,1,0,0:0:0:0:
456,112,136860,2,0,L|416:56,1,60
168,176,137044,2,0,L|133:127,1,60
128,320,137229,6,0,P|144:336|208:352,1,60
256,312,137414,2,0,P|240:296|176:280,1,60
328,384,137598,1,0,0:0:0:0:
392,240,137691,1,0,0:0:0:0:
272,128,137783,2,0,P|283:100|303:78,1,60
144,168,137967,5,0,0:0:0:0:
320,248,138060,1,0,0:0:0:0:
72,296,138152,1,0,0:0:0:0:
248,376,138245,1,0,0:0:0:0:
152,160,138337,5,0,0:0:0:0:
328,240,138430,1,0,0:0:0:0:
80,288,138522,1,0,0:0:0:0:
256,368,138615,1,0,0:0:0:0:
272,120,138706,6,0,L|296:48,1,60
208,280,138891,2,0,L|184:352,1,60
328,152,139075,6,0,L|395:118,1,60
169,219,139260,2,0,L|101:252,1,60
335,214,139444,6,0,L|407:238,1,60
175,149,139629,2,0,L|103:125,1,60
144,320,139814,1,0,0:0:0:0:
32,168,139906,1,0,0:0:0:0:
152,24,139998,2,0,L|224:8,1,60
368,155,140183,6,0,L|424:112,1,60
292,304,140367,2,0,L|336:360,1,60
143,228,140552,2,0,L|88:272,1,60
219,79,140737,2,0,L|176:24,1,60
40,104,140921,5,0,0:0:0:0:
272,160,141014,1,0,0:0:0:0:
128,80,141106,1,0,0:0:0:0:
144,232,141198,1,0,0:0:0:0:
224,80,141291,2,0,P|256:64|304:64,1,60
320,264,141475,2,0,P|288:280|240:280,1,60
184,152,141660,5,0,0:0:0:0:
248,360,141752,1,0,0:0:0:0:
288,192,141844,1,0,0:0:0:0:
176,312,141937,1,0,0:0:0:0:
392,272,142029,1,0,0:0:0:0:
256,88,142121,1,0,0:0:0:0:
392,160,142214,2,0,L|344:232,1,60
160,232,142398,6,0,P|136:208|120:144,1,60
220,40,142583,2,0,P|244:64|260:128,1,60
240,336,142767,2,0,P|216:312|200:248,1,60
358,209,142952,2,0,P|382:233|398:297,1,60
224,176,143137,5,0,0:0:0:0:
408,96,143229,1,0,0:0:0:0:
312,272,143321,1,0,0:0:0:0:
328,112,143414,1,0,0:0:0:0:
472,240,143506,1,0,0:0:0:0:
296,176,143598,1,0,0:0:0:0:
240,352,143691,2,0,L|176:320,1,60
104,144,143875,5,0,0:0:0:0:
96,304,143967,1,0,0:0:0:0:
208,112,144060,1,0,0:0:0:0:
88,216,144152,1,0,0:0:0:0:
216,200,144244,1,0,0:0:0:0:
88,24,144337,1,0,0:0:0:0:
280,56,144429,2,0,L|336:96,1,60
376,376,144614,5,0,0:0:0:0:
376,152,144706,1,0,0:0:0:0:
296,376,144798,1,0,0:0:0:0:
296,152,144890,1,0,0:0:0:0:
216,376,144983,1,0,0:0:0:0:
216,152,145075,1,0,0:0:0:0:
136,376,145167,1,0,0:0:0:0:
136,152,145259,1,0,0:0:0:0:
280,280,145352,6,0,L|368:240,1,60
80,232,145537,1,0,0:0:0:0:
248,48,145629,1,0,0:0:0:0:
192,296,145721,1,0,0:0:0:0:
128,320,146688,5,0,0:0:0:0:
64,104,146877,2,0,P|96:88|136:88,1,60
304,104,147067,1,0,0:0:0:0:
336,328,147243,5,0,0:0:0:0:
336,200,147338,1,0,0:0:0:0:
432,288,147433,1,0,0:0:0:0:
176,280,147622,2,0,L|112:304,2,60
280,112,148002,5,0,0:0:0:0:
160,176,148097,1,0,0:0:0:0:
136,64,148192,1,0,0:0:0:0:
392,80,148381,2,0,P|408:112|416:168,1,60
336,320,148571,1,0,0:0:0:0:
112,296,148761,6,0,P|72:224|80:168,1,120
224,72,149140,1,0,0:0:0:0:
208,240,149235,1,0,0:0:0:0:
128,96,149330,2,0,L|176:40,1,60
312,136,149520,2,0,L|272:181,1,60
104,200,149709,6,0,B|72:272|72:272|80:344,1,120
192,368,149982,1,0,0:0:0:0:
296,304,150077,2,0,B|360:272|360:272|464:272,1,120
128,72,150456,6,0,L|184:136,1,60
216,296,150646,2,0,L|160:232,1,60
336,152,150835,1,0,0:0:0:0:
376,336,150930,1,0,0:0:0:0:
496,176,151025,2,0,L|456:112,1,60
312,256,151215,5,0,0:0:0:0:
240,80,151309,1,0,0:0:0:0:
216,296,151404,1,0,0:0:0:0:
264,144,151499,1,0,0:0:0:0:
112,288,151594,2,0,B|88:344|88:344|24:368,1,120
112,64,151974,5,0,0:0:0:0:
336,96,152163,1,0,0:0:0:0:
464,200,152258,1,0,0:0:0:0:
312,240,152353,2,0,L|256:176,1,60
360,360,152543,1,0,0:0:0:0:
392,176,152638,1,0,0:0:0:0:
232,256,152733,6,0,P|152:224|128:176,1,120
72,88,153017,1,0,0:0:0:0:
200,56,153112,2,0,B|280:16|280:16|360:24,1,120
400,224,153492,5,0,0:0:0:0:
296,344,153587,1,0,0:0:0:0:
288,120,153681,2,0,L|352:160,1,60
176,296,153871,2,0,L|112:256,1,60
88,80,154061,2,0,L|152:120,1,60
64,320,154251,5,0,0:0:0:0:
208,192,154346,1,0,0:0:0:0:
144,368,154441,1,0,0:0:0:0:
112,184,154535,1,0,0:0:0:0:
288,248,154630,2,0,B|328:304|328:304|400:328,1,120
400,48,155010,5,0,0:0:0:0:
136,112,155200,2,0,L|72:80,1,60
48,272,155389,1,0,0:0:0:0:
192,208,155484,1,0,0:0:0:0:
144,368,155579,2,0,L|216:352,1,60
272,192,155769,6,0,B|288:104|288:104|264:48,1,120
408,96,156054,1,0,0:0:0:0:
464,216,156148,2,0,B|464:280|464:280|512:320,1,120
128,320,156528,5,0,0:0:0:0:
304,176,156623,1,0,0:0:0:0:
264,328,156718,1,0,0:0:0:0:
208,80,156813,1,0,0:0:0:0:
376,264,156907,1,0,0:0:0:0:
96,168,157002,1,0,0:0:0:0:
360,64,157097,1,0,0:0:0:0:
200,280,157192,1,0,0:0:0:0:
104,40,157287,5,0,0:0:0:0:
248,224,157382,1,0,0:0:0:0:
24,240,157477,1,0,0:0:0:0:
216,88,157572,1,0,0:0:0:0:
136,336,157666,2,0,B|100:345|100:345|16:320,1,120
400,128,158046,5,0,0:0:0:0:
496,296,158236,2,0,L|440:336,1,60
248,328,158426,1,0,0:0:0:0:
400,208,158520,1,0,0:0:0:0:
344,352,158615,1,0,0:0:0:0:
288,152,158710,1,0,0:0:0:0:
168,296,158805,6,0,B|104:320|104:320|64:368,1,120
48,208,159090,1,0,0:0:0:0:
200,168,159185,2,0,B|176:96|176:96|112:56,1,120
248,320,159564,5,0,0:0:0:0:
392,120,159659,1,0,0:0:0:0:
400,352,159754,1,0,0:0:0:0:
272,88,159849,1,0,0:0:0:0:
504,248,159944,1,0,0:0:0:0:
200,168,160039,1,0,0:0:0:0:
456,48,160133,1,0,0:0:0:0:
336,304,160228,1,0,0:0:0:0:
192,64,160323,6,0,L|120:112,1,60
144,336,160513,1,0,0:0:0:0:
312,152,160608,1,0,0:0:0:0:
128,200,160703,2,0,P|64:224|128:176,1,240
