osu file format v14

[General]
AudioFilename: audio.mp3
AudioLeadIn: 0
PreviewTime: 3258
Countdown: 1
SampleSet: Normal
StackLeniency: 0.7
Mode: 0
LetterboxInBreaks: 0
WidescreenStoryboard: 0

[Editor]
DistanceSpacing: 0.8
BeatDivisor: 4
GridSize: 4
TimelineZoom: 1

[Metadata]
Title:Imaginary Places
TitleUnicode:Imaginary Places
Artist:Busdriver
ArtistUnicode:Busdriver
Creator:- Dave -
Version:Insane
Source:
Tags:
BeatmapID:1360473
BeatmapSetID:641618

[Difficulty]
HPDrainRate:5.5
CircleSize:4.5
OverallDifficulty:8.2
ApproachRate:9.3
SliderMultiplier:1.4
SliderTickRate:1

[Events]
//Background and Video events
0,0,"BG.jpg",0,0
//Break Periods
//Storyboard Layer 0 (Background)
//Storyboard Layer 1 (Fail)
//Storyboard Layer 2 (Pass)
//Storyboard Layer 3 (Foreground)
//Storyboard Sound Samples

[TimingPoints]
505,379.746835443038,4,1,0,100,1,0
12846,-66.6666666666667,4,1,0,100,0,0
14175,-100,4,1,0,100,0,0
20631,-66.6666666666667,4,1,0,100,0,0
21486,-100,4,1,0,100,0,0
25758,-66.6666666666667,4,1,0,100,0,0
27846,-100,4,1,0,100,0,0
38574,-50,4,1,0,100,0,0
39334,-100,4,1,0,100,0,0
46264,-66.6666666666667,4,1,0,100,0,0
47213,-100,4,1,0,100,0,0
61454,-66.6666666666667,4,1,0,100,0,0
62403,-100,4,1,0,100,0,0
67530,-66.6666666666667,4,1,0,100,0,0
68384,-100,4,1,0,100,0,0
76074,-50,4,1,0,100,0,0
76454,-100,4,1,0,100,0,0
79682,821.917808219178,4,1,0,100,1,0

[HitObjects]
331,123,505,6,0,P|341:176|301:141,1,140
180,124,1264,2,0,P|200:176|208:136,1,140
332,124,2023,2,0,P|312:176|304:136,1,140
180,124,2783,2,0,P|200:176|208:136,1,140
320,168,3542,5,0,0:0:0:0:
440,264,3922,1,0,0:0:0:0:
384,264,4017,1,0,0:0:0:0:
328,264,4112,1,0,0:0:0:0:
272,264,4207,1,0,0:0:0:0:
260,124,4682,2,0,L|260:160,2,35
264,180,5061,5,0,0:0:0:0:
264,180,5156,1,0,0:0:0:0:
264,180,5251,1,0,0:0:0:0:
264,180,5346,1,0,0:0:0:0:
264,180,5441,5,0,0:0:0:0:
264,180,5536,1,0,0:0:0:0:
264,180,5631,1,0,0:0:0:0:
264,180,5726,1,0,0:0:0:0:
264,180,5821,1,0,0:0:0:0:
272,208,5916,5,0,0:0:0:0:
264,236,6011,1,0,0:0:0:0:
244,256,6106,1,0,0:0:0:0:
216,260,6201,1,0,0:0:0:0:
188,264,6296,5,0,0:0:0:0:
160,272,6391,1,0,0:0:0:0:
112,328,6580,1,0,0:0:0:0:
192,352,6770,1,0,0:0:0:0:
296,352,6960,1,0,0:0:0:0:
396,332,7150,1,0,0:0:0:0:
384,220,7340,5,0,0:0:0:0:
384,192,7435,1,0,0:0:0:0:
384,164,7530,1,0,0:0:0:0:
384,136,7625,1,0,0:0:0:0:
64,164,8099,5,0,0:0:0:0:
84,148,8194,1,0,0:0:0:0:
108,136,8289,1,0,0:0:0:0:
136,128,8384,1,0,0:0:0:0:
164,124,8479,5,0,0:0:0:0:
192,120,8574,1,0,0:0:0:0:
220,120,8669,1,0,0:0:0:0:
248,124,8764,1,0,0:0:0:0:
276,132,8859,5,0,0:0:0:0:
304,140,8954,1,0,0:0:0:0:
332,148,9049,1,0,0:0:0:0:
356,160,9144,1,0,0:0:0:0:
376,176,9239,5,0,0:0:0:0:
400,196,9334,1,0,0:0:0:0:
420,216,9429,1,0,0:0:0:0:
436,240,9523,1,0,0:0:0:0:
452,264,9618,1,0,0:0:0:0:
348,260,9808,5,0,0:0:0:0:
348,116,9998,1,0,0:0:0:0:
180,112,10188,1,0,0:0:0:0:
180,256,10378,1,0,0:0:0:0:
256,172,10568,2,0,L|256:212,2,35
116,304,11137,5,0,0:0:0:0:
92,292,11232,1,0,0:0:0:0:
72,272,11327,1,0,0:0:0:0:
60,248,11422,1,0,0:0:0:0:
60,220,11517,5,0,0:0:0:0:
68,192,11612,1,0,0:0:0:0:
84,168,11707,1,0,0:0:0:0:
108,152,11802,1,0,0:0:0:0:
136,144,11897,5,0,0:0:0:0:
164,140,11992,1,0,0:0:0:0:
192,140,12087,1,0,0:0:0:0:
220,140,12182,1,0,0:0:0:0:
248,140,12277,5,0,0:0:0:0:
276,140,12372,1,0,0:0:0:0:
304,140,12467,1,0,0:0:0:0:
332,140,12561,1,0,0:0:0:0:
360,140,12656,5,0,0:0:0:0:
388,248,12846,2,0,L|388:320,2,70
356,204,13226,2,0,L|356:274,2,70
304,184,13606,2,0,L|304:254,1,70
432,96,14175,5,0,0:0:0:0:
404,96,14270,1,0,0:0:0:0:
376,96,14365,1,0,0:0:0:0:
348,96,14460,1,0,0:0:0:0:
320,96,14555,5,0,0:0:0:0:
292,96,14650,1,0,0:0:0:0:
264,96,14745,1,0,0:0:0:0:
236,100,14840,1,0,0:0:0:0:
208,96,14935,5,0,0:0:0:0:
180,96,15030,1,0,0:0:0:0:
152,96,15125,1,0,0:0:0:0:
124,96,15220,1,0,0:0:0:0:
96,96,15315,5,0,0:0:0:0:
80,120,15410,1,0,0:0:0:0:
76,148,15505,1,0,0:0:0:0:
76,176,15599,1,0,0:0:0:0:
80,204,15694,1,0,0:0:0:0:
148,288,15884,5,0,0:0:0:0:
248,80,16074,1,0,0:0:0:0:
316,284,16264,1,0,0:0:0:0:
104,136,16454,1,0,0:0:0:0:
340,188,16644,5,0,0:0:0:0:
344,192,16834,1,0,0:0:0:0:
344,196,17023,1,0,0:0:0:0:
136,164,17213,5,0,0:0:0:0:
300,288,17403,1,0,0:0:0:0:
264,88,17593,1,0,0:0:0:0:
168,280,17783,1,0,0:0:0:0:
172,284,17973,5,0,0:0:0:0:
176,288,18163,1,0,0:0:0:0:
180,296,18353,1,0,0:0:0:0:
180,296,18542,1,0,0:0:0:0:
280,348,18732,1,0,0:0:0:0:
296,328,18827,5,0,0:0:0:0:
312,304,18922,1,0,0:0:0:0:
316,276,19017,1,0,0:0:0:0:
320,248,19112,5,0,0:0:0:0:
320,220,19207,1,0,0:0:0:0:
320,192,19302,1,0,0:0:0:0:
320,164,19397,1,0,0:0:0:0:
312,136,19492,5,0,0:0:0:0:
304,108,19587,1,0,0:0:0:0:
284,88,19682,1,0,0:0:0:0:
260,72,19777,1,0,0:0:0:0:
236,60,19872,5,0,0:0:0:0:
208,52,19967,1,0,0:0:0:0:
180,48,20061,1,0,0:0:0:0:
152,44,20156,1,0,0:0:0:0:
124,44,20251,5,0,0:0:0:0:
84,60,20346,1,0,0:0:0:0:
76,100,20441,1,0,0:0:0:0:
72,140,20536,1,0,0:0:0:0:
144,76,20631,6,0,L|144:168,2,52.5000020027161
184,92,21011,2,0,L|184:172,2,52.5000020027161
220,112,21296,2,0,L|220:184,1,70
368,144,21770,1,0,0:0:0:0:
304,300,22150,5,0,0:0:0:0:
112,280,22530,1,0,0:0:0:0:
112,216,22625,1,0,0:0:0:0:
112,152,22720,1,0,0:0:0:0:
112,92,22815,1,0,0:0:0:0:
136,76,22910,5,0,0:0:0:0:
160,64,23005,1,0,0:0:0:0:
188,60,23099,1,0,0:0:0:0:
216,60,23194,1,0,0:0:0:0:
244,60,23289,5,0,0:0:0:0:
272,64,23384,1,0,0:0:0:0:
300,72,23479,1,0,0:0:0:0:
324,84,23574,1,0,0:0:0:0:
348,100,23669,5,0,0:0:0:0:
368,120,23764,1,0,0:0:0:0:
384,144,23859,1,0,0:0:0:0:
400,168,23954,1,0,0:0:0:0:
400,196,24049,5,0,0:0:0:0:
396,224,24144,1,0,0:0:0:0:
388,252,24239,1,0,0:0:0:0:
376,276,24334,1,0,0:0:0:0:
364,300,24429,5,0,0:0:0:0:
340,316,24523,1,0,0:0:0:0:
312,324,24618,1,0,0:0:0:0:
284,328,24713,1,0,0:0:0:0:
256,328,24808,5,0,0:0:0:0:
148,304,24998,1,0,0:0:0:0:
92,208,25188,1,0,0:0:0:0:
144,108,25378,1,0,0:0:0:0:
248,68,25568,5,0,0:0:0:0:
256,180,25758,2,0,L|256:260,2,70
128,236,26327,5,0,0:0:0:0:
92,260,26422,1,0,0:0:0:0:
84,300,26517,1,0,0:0:0:0:
112,332,26612,1,0,0:0:0:0:
152,340,26707,5,0,0:0:0:0:
192,344,26802,1,0,0:0:0:0:
236,344,26897,1,0,0:0:0:0:
276,340,26992,1,0,0:0:0:0:
316,332,27087,5,0,0:0:0:0:
352,312,27182,1,0,0:0:0:0:
380,280,27277,1,0,0:0:0:0:
400,244,27372,1,0,0:0:0:0:
416,204,27467,5,0,0:0:0:0:
432,164,27561,1,0,0:0:0:0:
440,124,27656,1,0,0:0:0:0:
444,84,27751,1,0,0:0:0:0:
444,44,27846,5,0,0:0:0:0:
352,96,28036,1,0,0:0:0:0:
160,288,28226,1,0,0:0:0:0:
256,96,28416,1,0,0:0:0:0:
256,288,28606,5,0,0:0:0:0:
160,96,28796,1,0,0:0:0:0:
352,288,28986,1,0,0:0:0:0:
256,192,29175,1,0,0:0:0:0:
280,140,29365,5,0,0:0:0:0:
308,132,29460,1,0,0:0:0:0:
336,124,29555,1,0,0:0:0:0:
364,120,29650,1,0,0:0:0:0:
392,116,29745,5,0,0:0:0:0:
364,108,29840,1,0,0:0:0:0:
336,100,29935,1,0,0:0:0:0:
308,96,30030,1,0,0:0:0:0:
280,92,30125,5,0,0:0:0:0:
252,88,30220,1,0,0:0:0:0:
224,88,30315,1,0,0:0:0:0:
196,88,30410,1,0,0:0:0:0:
168,88,30505,5,0,0:0:0:0:
144,116,30599,1,0,0:0:0:0:
136,144,30694,1,0,0:0:0:0:
136,176,30789,1,0,0:0:0:0:
140,212,30884,5,0,0:0:0:0:
152,272,31074,1,0,0:0:0:0:
168,296,31169,1,0,0:0:0:0:
184,320,31264,1,0,0:0:0:0:
240,324,31454,5,0,0:0:0:0:
268,324,31549,1,0,0:0:0:0:
296,324,31644,1,0,0:0:0:0:
328,276,31834,1,0,0:0:0:0:
340,252,31929,5,0,0:0:0:0:
352,228,32023,1,0,0:0:0:0:
448,288,32403,5,0,0:0:0:0:
424,300,32498,1,0,0:0:0:0:
396,312,32593,1,0,0:0:0:0:
368,320,32688,1,0,0:0:0:0:
340,328,32783,5,0,0:0:0:0:
312,332,32878,1,0,0:0:0:0:
284,332,32973,1,0,0:0:0:0:
256,332,33068,1,0,0:0:0:0:
228,328,33163,5,0,0:0:0:0:
200,320,33258,1,0,0:0:0:0:
172,312,33353,1,0,0:0:0:0:
148,300,33448,1,0,0:0:0:0:
124,284,33542,5,0,0:0:0:0:
96,248,33637,1,0,0:0:0:0:
80,208,33732,1,0,0:0:0:0:
256,64,33922,5,0,0:0:0:0:
128,192,34112,1,0,0:0:0:0:
256,320,34302,1,0,0:0:0:0:
384,192,34492,1,0,0:0:0:0:
256,64,34682,5,0,0:0:0:0:
256,64,34871,1,0,0:0:0:0:
256,64,35061,1,0,0:0:0:0:
256,64,35251,1,0,0:0:0:0:
384,192,35441,5,0,0:0:0:0:
256,320,35631,1,0,0:0:0:0:
128,192,35821,1,0,0:0:0:0:
128,192,36011,1,0,0:0:0:0:
128,192,36201,5,0,0:0:0:0:
128,192,36391,1,0,0:0:0:0:
128,192,36580,1,0,0:0:0:0:
128,192,36770,1,0,0:0:0:0:
256,32,36960,5,0,0:0:0:0:
256,48,37055,1,0,0:0:0:0:
256,64,37150,1,0,0:0:0:0:
256,80,37245,1,0,0:0:0:0:
256,96,37340,5,0,0:0:0:0:
256,112,37435,1,0,0:0:0:0:
256,128,37530,1,0,0:0:0:0:
256,144,37625,1,0,0:0:0:0:
256,160,37720,5,0,0:0:0:0:
256,176,37815,1,0,0:0:0:0:
256,192,37910,1,0,0:0:0:0:
256,208,38005,1,0,0:0:0:0:
256,224,38099,5,0,0:0:0:0:
256,240,38194,1,0,0:0:0:0:
256,256,38289,1,0,0:0:0:0:
256,272,38384,1,0,0:0:0:0:
256,288,38479,5,0,0:0:0:0:
304,320,38574,1,0,0:0:0:0:
352,304,38669,1,0,0:0:0:0:
368,256,38764,1,0,0:0:0:0:
352,208,38859,5,0,0:0:0:0:
320,160,38954,1,0,0:0:0:0:
336,112,39049,1,0,0:0:0:0:
368,64,39144,1,0,0:0:0:0:
416,64,39239,5,0,0:0:0:0:
416,80,39334,1,0,0:0:0:0:
416,96,39429,1,0,0:0:0:0:
416,112,39523,1,0,0:0:0:0:
416,128,39618,5,0,0:0:0:0:
416,144,39713,1,0,0:0:0:0:
416,160,39808,1,0,0:0:0:0:
416,176,39903,1,0,0:0:0:0:
416,192,39998,5,0,0:0:0:0:
352,288,40378,1,0,0:0:0:0:
352,160,40758,1,0,0:0:0:0:
288,160,40853,1,0,0:0:0:0:
224,160,40948,1,0,0:0:0:0:
160,160,41042,1,0,0:0:0:0:
96,160,41137,5,0,0:0:0:0:
96,64,41517,1,0,0:0:0:0:
120,52,41612,1,0,0:0:0:0:
148,48,41707,1,0,0:0:0:0:
176,48,41802,1,0,0:0:0:0:
204,48,41897,5,0,0:0:0:0:
232,56,41992,1,0,0:0:0:0:
260,64,42087,1,0,0:0:0:0:
284,76,42182,1,0,0:0:0:0:
308,92,42277,5,0,0:0:0:0:
332,108,42372,1,0,0:0:0:0:
352,128,42467,1,0,0:0:0:0:
368,152,42561,1,0,0:0:0:0:
380,176,42656,5,0,0:0:0:0:
392,200,42751,1,0,0:0:0:0:
400,228,42846,1,0,0:0:0:0:
404,256,42941,1,0,0:0:0:0:
404,284,43036,1,0,0:0:0:0:
356,312,43226,5,0,0:0:0:0:
332,296,43321,1,0,0:0:0:0:
312,276,43416,1,0,0:0:0:0:
140,264,43606,5,0,0:0:0:0:
156,240,43701,1,0,0:0:0:0:
184,228,43796,1,0,0:0:0:0:
360,196,43986,5,0,0:0:0:0:
344,172,44081,1,0,0:0:0:0:
316,160,44176,1,0,0:0:0:0:
400,84,44555,5,0,0:0:0:0:
376,68,44650,1,0,0:0:0:0:
348,56,44745,1,0,0:0:0:0:
320,48,44840,1,0,0:0:0:0:
292,48,44935,5,0,0:0:0:0:
264,48,45030,1,0,0:0:0:0:
236,52,45125,1,0,0:0:0:0:
208,52,45220,1,0,0:0:0:0:
180,64,45315,5,0,0:0:0:0:
336,68,45505,1,0,0:0:0:0:
180,64,45694,1,0,0:0:0:0:
336,68,45884,1,0,0:0:0:0:
180,64,46074,1,0,0:0:0:0:
192,192,46264,6,0,L|192:128,2,35
256,192,46644,2,0,L|256:128,2,35
320,192,47023,2,0,L|320:128,2,52.5000020027161
372,92,47593,5,0,0:0:0:0:
372,92,47688,1,0,0:0:0:0:
372,92,47783,1,0,0:0:0:0:
372,92,47878,1,0,0:0:0:0:
372,92,47973,5,0,0:0:0:0:
372,92,48068,1,0,0:0:0:0:
372,92,48163,1,0,0:0:0:0:
372,92,48258,1,0,0:0:0:0:
372,92,48353,5,0,0:0:0:0:
388,116,48448,1,0,0:0:0:0:
400,140,48542,1,0,0:0:0:0:
412,164,48637,1,0,0:0:0:0:
420,192,48732,5,0,0:0:0:0:
424,220,48827,1,0,0:0:0:0:
428,248,48922,1,0,0:0:0:0:
432,276,49017,1,0,0:0:0:0:
432,304,49112,1,0,0:0:0:0:
352,320,49302,5,0,0:0:0:0:
96,288,49492,1,0,0:0:0:0:
128,32,49682,1,0,0:0:0:0:
384,64,49872,5,0,0:0:0:0:
352,320,50061,1,0,0:0:0:0:
384,64,50251,1,0,0:0:0:0:
128,32,50441,1,0,0:0:0:0:
116,88,50631,5,0,0:0:0:0:
140,100,50726,1,0,0:0:0:0:
168,108,50821,1,0,0:0:0:0:
196,112,50916,1,0,0:0:0:0:
224,124,51011,5,0,0:0:0:0:
248,136,51106,1,0,0:0:0:0:
272,152,51201,1,0,0:0:0:0:
296,164,51296,1,0,0:0:0:0:
324,172,51391,5,0,0:0:0:0:
348,188,51486,1,0,0:0:0:0:
368,204,51580,1,0,0:0:0:0:
384,224,51675,1,0,0:0:0:0:
408,236,51770,5,0,0:0:0:0:
428,252,51865,1,0,0:0:0:0:
444,272,51960,1,0,0:0:0:0:
456,296,52055,1,0,0:0:0:0:
472,320,52150,1,0,0:0:0:0:
416,320,52340,5,0,0:0:0:0:
96,320,52530,1,0,0:0:0:0:
416,320,52720,1,0,0:0:0:0:
96,320,52910,5,0,0:0:0:0:
416,320,53099,1,0,0:0:0:0:
96,320,53289,1,0,0:0:0:0:
416,64,53479,5,0,0:0:0:0:
96,64,53669,1,0,0:0:0:0:
416,64,53859,1,0,0:0:0:0:
96,64,54049,5,0,0:0:0:0:
416,64,54239,1,0,0:0:0:0:
96,64,54429,1,0,0:0:0:0:
416,64,54618,5,0,0:0:0:0:
96,64,54808,1,0,0:0:0:0:
416,64,54998,1,0,0:0:0:0:
424,120,55188,5,0,0:0:0:0:
424,120,55283,1,0,0:0:0:0:
424,120,55378,1,0,0:0:0:0:
424,120,55473,1,0,0:0:0:0:
424,120,55568,5,0,0:0:0:0:
424,120,55663,1,0,0:0:0:0:
424,120,55758,1,0,0:0:0:0:
424,120,55853,1,0,0:0:0:0:
440,144,55948,5,0,0:0:0:0:
448,172,56042,1,0,0:0:0:0:
448,200,56137,1,0,0:0:0:0:
448,228,56232,1,0,0:0:0:0:
444,256,56327,5,0,0:0:0:0:
432,280,56422,1,0,0:0:0:0:
412,300,56517,1,0,0:0:0:0:
388,316,56612,1,0,0:0:0:0:
164,248,56707,5,0,0:0:0:0:
164,248,56802,1,0,0:0:0:0:
164,248,56897,2,0,L|204:192,1,35
316,220,57087,5,0,0:0:0:0:
316,220,57182,1,0,0:0:0:0:
316,220,57277,2,0,L|272:168,1,35
176,132,57467,5,0,0:0:0:0:
176,132,57561,1,0,0:0:0:0:
176,132,57656,2,0,L|208:80,1,35
308,96,57846,5,0,0:0:0:0:
308,96,57941,1,0,0:0:0:0:
308,96,58036,2,0,L|284:56,1,35
256,32,58226,5,0,0:0:0:0:
256,352,58606,1,0,0:0:0:0:
384,192,58986,5,0,0:0:0:0:
320,192,59080,1,0,0:0:0:0:
256,192,59175,1,0,0:0:0:0:
192,192,59270,5,0,0:0:0:0:
128,192,59365,1,0,0:0:0:0:
168,88,59745,5,0,0:0:0:0:
168,88,59840,1,0,0:0:0:0:
168,88,59935,1,0,0:0:0:0:
168,88,60030,1,0,0:0:0:0:
168,88,60125,5,0,0:0:0:0:
168,88,60220,1,0,0:0:0:0:
168,88,60315,1,0,0:0:0:0:
168,88,60410,1,0,0:0:0:0:
168,88,60505,5,0,0:0:0:0:
168,88,60599,1,0,0:0:0:0:
168,88,60694,1,0,0:0:0:0:
168,88,60789,1,0,0:0:0:0:
168,88,60884,5,0,0:0:0:0:
168,88,60979,1,0,0:0:0:0:
168,88,61074,1,0,0:0:0:0:
168,88,61169,1,0,0:0:0:0:
168,88,61264,5,0,0:0:0:0:
192,192,61454,6,0,L|192:227,2,35
256,192,61834,2,0,L|256:227,2,35
320,192,62213,2,0,L|320:244,2,52.5000020027161
384,320,62783,5,0,0:0:0:0:
352,320,62878,1,0,0:0:0:0:
320,320,62973,1,0,0:0:0:0:
320,288,63068,1,0,0:0:0:0:
320,256,63163,5,0,0:0:0:0:
352,256,63258,1,0,0:0:0:0:
384,256,63353,1,0,0:0:0:0:
384,224,63448,1,0,0:0:0:0:
384,192,63542,5,0,0:0:0:0:
352,192,63637,1,0,0:0:0:0:
320,192,63732,1,0,0:0:0:0:
320,160,63827,1,0,0:0:0:0:
320,128,63922,5,0,0:0:0:0:
352,128,64017,1,0,0:0:0:0:
384,128,64112,1,0,0:0:0:0:
384,128,64207,1,0,0:0:0:0:
384,128,64302,1,0,0:0:0:0:
404,240,64492,5,0,0:0:0:0:
356,268,64682,1,0,0:0:0:0:
304,284,64871,1,0,0:0:0:0:
248,284,65061,1,0,0:0:0:0:
192,272,65251,1,0,0:0:0:0:
140,248,65441,1,0,0:0:0:0:
352,256,65821,5,0,0:0:0:0:
352,256,65916,1,0,0:0:0:0:
352,256,66011,2,0,L|288:256,1,35
160,192,66201,5,0,0:0:0:0:
160,192,66296,1,0,0:0:0:0:
160,192,66391,2,0,L|224:192,1,35
352,128,66580,5,0,0:0:0:0:
352,128,66675,1,0,0:0:0:0:
352,128,66770,2,0,L|288:128,1,35
160,192,66960,5,0,0:0:0:0:
160,192,67055,1,0,0:0:0:0:
160,192,67150,2,0,L|224:192,1,35
352,192,67340,5,0,0:0:0:0:
192,128,67530,2,0,L|192:208,2,70
224,144,67910,2,0,L|224:224,2,70
260,160,68289,2,0,L|260:260,1,52.5000020027161
440,264,68859,5,0,0:0:0:0:
420,284,68954,1,0,0:0:0:0:
392,292,69049,1,0,0:0:0:0:
364,296,69144,1,0,0:0:0:0:
336,296,69239,5,0,0:0:0:0:
308,300,69334,1,0,0:0:0:0:
280,300,69429,1,0,0:0:0:0:
252,300,69523,1,0,0:0:0:0:
224,296,69618,5,0,0:0:0:0:
196,288,69713,1,0,0:0:0:0:
172,276,69808,1,0,0:0:0:0:
148,260,69903,1,0,0:0:0:0:
132,236,69998,5,0,0:0:0:0:
120,212,70093,1,0,0:0:0:0:
116,184,70188,1,0,0:0:0:0:
192,96,70378,5,0,0:0:0:0:
192,96,70568,1,0,0:0:0:0:
192,96,70758,1,0,0:0:0:0:
288,128,70948,1,0,0:0:0:0:
384,160,71137,5,0,0:0:0:0:
384,160,71327,1,0,0:0:0:0:
384,160,71517,1,0,0:0:0:0:
320,256,71707,1,0,0:0:0:0:
192,352,71897,5,0,0:0:0:0:
192,352,72087,1,0,0:0:0:0:
192,352,72277,1,0,0:0:0:0:
256,352,72467,1,0,0:0:0:0:
320,352,72656,5,0,0:0:0:0:
320,352,72846,1,0,0:0:0:0:
320,352,73036,1,0,0:0:0:0:
416,288,73226,1,0,0:0:0:0:
428,232,73416,5,0,0:0:0:0:
436,204,73511,1,0,0:0:0:0:
436,176,73606,1,0,0:0:0:0:
424,152,73701,1,0,0:0:0:0:
404,132,73796,5,0,0:0:0:0:
380,120,73891,1,0,0:0:0:0:
352,116,73986,1,0,0:0:0:0:
324,116,74080,1,0,0:0:0:0:
296,112,74175,5,0,0:0:0:0:
268,112,74270,1,0,0:0:0:0:
240,112,74365,1,0,0:0:0:0:
212,116,74460,1,0,0:0:0:0:
184,124,74555,5,0,0:0:0:0:
160,136,74650,1,0,0:0:0:0:
140,156,74745,1,0,0:0:0:0:
124,180,74840,1,0,0:0:0:0:
112,204,74935,5,0,0:0:0:0:
108,232,75030,1,0,0:0:0:0:
104,260,75125,1,0,0:0:0:0:
104,288,75220,1,0,0:0:0:0:
112,316,75315,1,0,0:0:0:0:
256,320,75504,5,0,0:0:0:0:
256,256,75599,1,0,0:0:0:0:
256,192,75694,1,0,0:0:0:0:
256,128,75789,1,0,0:0:0:0:
312,100,76074,2,0,P|407:199|424:335,1,280
420,268,79682,6,0,L|376:216,4,35
428,240,80709,2,0,L|448:176,1,35
412,196,81120,2,0,L|392:144,1,35
