osu file format v14

[General]
AudioFilename: audio.mp3
AudioLeadIn: 0
PreviewTime: 80769
Countdown: 0
SampleSet: Normal
StackLeniency: 0.7
Mode: 1
LetterboxInBreaks: 0
WidescreenStoryboard: 0

[Editor]
Bookmarks: 1332,6993,30077,53946,128487,152338,176170,223893,253746,337414,367018,414743,469803,510216
DistanceSpacing: 0.3
BeatDivisor: 4
GridSize: 32
TimelineZoom: 3.700005

[Metadata]
Title:Jesu Doed
TitleUnicode:Jesu Død
Artist:Burzum
ArtistUnicode:Burzum
Creator:vrnl
Version:Filosofem
Source:
Tags:atmospheric black metal norwegian varg vikernes jesus' jesus tod
BeatmapID:3582381
BeatmapSetID:1751057

[Difficulty]
HPDrainRate:4
CircleSize:5
OverallDifficulty:5.5
ApproachRate:5
SliderMultiplier:1.4
SliderTickRate:1

[Events]
//Background and Video events
0,0,"bbbbb.jpg",0,50
//Break Periods
//Storyboard Layer 0 (Background)
//Storyboard Layer 1 (Fail)
//Storyboard Layer 2 (Pass)
//Storyboard Layer 3 (Foreground)
//Storyboard Layer 4 (Overlay)
//Storyboard Sound Samples

[TimingPoints]
268,372.670807453416,4,1,0,15,1,0
268,-200,4,1,0,15,0,0
6214,372.670807453416,4,1,0,35,1,0
6214,-200,4,1,0,35,0,0
56897,372.670807453416,4,1,0,35,1,8
56913,372.670807453416,4,1,0,35,1,0
56913,-200,4,1,0,35,0,0
73310,-285.714285714286,4,1,0,35,0,0
80758,372.670807453416,4,1,0,35,1,8
80769,372.670807453416,4,1,0,70,1,0
80769,-100,4,1,0,70,0,0
92694,372.670807453416,4,1,0,70,1,8
92714,357.142857142857,4,1,0,70,1,0
92714,-104.347826086957,4,1,0,70,0,0
93063,372.43947858473,4,1,0,70,1,8
93063,-100.062111801242,4,1,0,70,0,8
94180,372.43947858473,4,1,0,70,1,0
94180,-100.062111801242,4,1,0,70,0,0
116526,372.670807453416,4,1,0,70,1,0
116526,-100,4,1,0,70,0,0
128451,373.134328358209,4,1,0,70,1,0
128451,-99.8757763975155,4,1,0,70,0,0
152506,373.134328358209,4,1,0,70,1,8
152506,-99.8757763975156,4,1,0,70,0,0
153811,373.134328358209,4,1,0,70,1,0
153811,-99.8757763975156,4,1,0,70,0,0
166875,357.142857142857,4,1,0,70,1,8
166875,-104.347826086957,4,1,0,70,0,8
167232,357.142857142857,4,1,0,70,1,0
167232,-104.347826086957,4,1,0,70,0,0
167591,372.670807453416,4,1,0,70,1,8
168709,372.670807453416,4,1,0,70,1,0
170199,372.670807453416,4,1,0,70,1,8
170216,373.134328358209,4,1,0,70,1,0
170293,-99.8757763975155,4,1,0,70,0,0
176170,373.134328358209,4,1,0,70,1,8
176170,-99.8757763975155,4,1,0,70,0,8
176192,372.670807453416,4,1,0,70,1,0
176192,-100,4,1,0,70,0,0
216440,374.064837905237,4,1,0,70,1,0
216440,-99.6273291925466,4,1,0,70,0,0
224286,372.670807453416,4,1,0,70,1,8
224286,-100,4,1,0,70,0,0
225404,372.670807453416,4,1,0,70,1,0
225404,-100,4,1,0,70,0,0
247764,-100,4,1,0,70,0,1
252049,-100,4,1,0,70,0,0
271615,372.670807453416,4,1,0,70,1,8
271615,-100,4,1,0,70,0,8
271647,372.670807453416,4,1,0,70,1,0
271647,-100,4,1,0,70,0,0
272003,372.670807453416,4,1,0,70,1,8
272003,-100,4,1,0,70,0,8
273121,372.670807453416,4,1,0,70,1,0
273121,-100,4,1,0,70,0,0
349145,372.670807453416,4,1,0,70,1,8
349145,-100,4,1,0,70,0,8
349165,372.670807453416,4,1,0,70,1,0
349165,-100,4,1,0,70,0,0
367053,372.670807453416,4,1,0,70,1,8
367053,-100,4,1,0,70,0,8
367067,372.670807453416,4,1,0,70,1,0
367067,-100,4,1,0,70,0,0
387191,357.142857142857,4,1,0,70,1,8
387191,-104.347826086957,4,1,0,70,0,0
387548,372.670807453416,4,1,0,70,1,8
387548,-100,4,1,0,70,0,0
387920,372.670807453416,4,1,0,70,1,0
387920,-100,4,1,0,70,0,0
390901,372.670807453416,4,1,0,70,1,8
390912,372.670807453416,4,1,0,70,1,0
391086,372.670807453416,4,1,0,70,1,8
392390,372.670807453416,4,1,0,70,1,0
414740,372.670807453416,4,1,0,70,1,8
414766,373.134328358209,4,1,0,70,1,0
414766,-99.8757763975156,4,1,0,70,0,0
426694,372.670807453416,4,1,0,70,1,8
426694,-100,4,1,0,70,0,8
426724,372.670807453416,4,1,0,70,1,0
426724,-100,4,1,0,70,0,0
426894,372.670807453416,4,1,0,70,1,8
428198,372.670807453416,4,1,0,70,1,0
468446,372.670807453416,4,1,0,70,1,8
468446,-100,4,1,0,70,0,8
468481,372.670807453416,4,1,0,70,1,0
468481,-100,4,1,0,70,0,0
481058,357.142857142857,4,1,0,70,1,8
481058,-104.347826086957,4,1,0,70,0,0
481504,372.670807453416,4,1,0,70,1,8
481876,372.670807453416,4,1,0,70,1,0
492303,372.670807453416,4,1,0,70,1,8
492345,372.670807453416,4,1,0,70,1,0
492523,372.670807453416,4,1,0,70,1,8
493827,372.670807453416,4,1,0,70,1,0

[HitObjects]
256,192,1385,12,0,5484,0:0:0:0:
193,173,6585,5,0,0:0:0:0:
193,173,6958,1,0,0:0:0:0:
193,173,7331,1,0,0:0:0:0:
193,173,7703,1,8,0:0:0:0:
193,173,8262,1,0,0:0:0:0:
193,173,8635,1,8,0:0:0:0:
193,173,9194,1,8,0:0:0:0:
193,173,9753,1,0,0:0:0:0:
193,173,10685,1,8,0:0:0:0:
193,173,11244,1,0,0:0:0:0:
193,173,11616,1,0,0:0:0:0:
193,173,12548,1,0,0:0:0:0:
193,173,12921,1,0,0:0:0:0:
193,173,13293,1,0,0:0:0:0:
193,173,13666,1,8,0:0:0:0:
193,173,14225,1,0,0:0:0:0:
193,173,14598,1,0,0:0:0:0:
193,173,15157,1,8,0:0:0:0:
193,173,15716,1,0,0:0:0:0:
193,173,16647,1,8,0:0:0:0:
193,173,17206,1,8,0:0:0:0:
193,173,17579,1,0,0:0:0:0:
193,173,18511,1,0,0:0:0:0:
193,173,18883,1,0,0:0:0:0:
193,173,19256,1,0,0:0:0:0:
193,173,19629,1,8,0:0:0:0:
193,173,20188,1,0,0:0:0:0:
193,173,20560,1,8,0:0:0:0:
193,173,21119,1,8,0:0:0:0:
193,173,21678,1,0,0:0:0:0:
193,173,22610,1,8,0:0:0:0:
193,173,23169,1,8,0:0:0:0:
193,173,23542,1,0,0:0:0:0:
193,173,24473,1,0,0:0:0:0:
193,173,24846,1,0,0:0:0:0:
193,173,25219,1,0,0:0:0:0:
193,173,25591,1,8,0:0:0:0:
193,173,26150,1,0,0:0:0:0:
193,173,26523,1,8,0:0:0:0:
193,173,27082,1,8,0:0:0:0:
193,173,27641,1,0,0:0:0:0:
193,173,28573,1,8,0:0:0:0:
193,173,29132,1,0,0:0:0:0:
193,173,29504,1,0,0:0:0:0:
193,173,30063,1,0,0:0:0:0:
193,173,31554,1,8,0:0:0:0:
193,173,33045,1,0,0:0:0:0:
193,173,34535,1,8,0:0:0:0:
193,173,35281,1,8,0:0:0:0:
193,173,36026,1,0,0:0:0:0:
193,173,37517,1,8,0:0:0:0:
193,173,39008,1,0,0:0:0:0:
193,173,40498,1,8,0:0:0:0:
193,173,41244,1,8,0:0:0:0:
193,173,41989,1,0,0:0:0:0:
193,173,43480,1,8,0:0:0:0:
193,173,44970,1,0,0:0:0:0:
193,173,46461,1,8,0:0:0:0:
193,173,47206,1,8,0:0:0:0:
193,173,47952,1,0,0:0:0:0:
193,173,49442,1,8,0:0:0:0:
193,173,50933,1,0,0:0:0:0:
193,173,52424,1,8,0:0:0:0:
193,173,53169,1,8,0:0:0:0:
193,173,53914,1,0,0:0:0:0:
193,173,56913,1,8,0:0:0:0:
193,173,59148,1,8,0:0:0:0:
193,173,59520,1,8,0:0:0:0:
193,173,59893,1,0,0:0:0:0:
193,173,60266,1,8,0:0:0:0:
193,173,61756,1,0,0:0:0:0:
200,149,62129,1,0,0:0:0:0:
193,173,62874,1,0,0:0:0:0:
193,173,63247,1,8,0:0:0:0:
193,173,65110,1,8,0:0:0:0:
193,173,65483,1,8,0:0:0:0:
193,173,65856,1,0,0:0:0:0:
193,173,66228,1,8,0:0:0:0:
193,173,67719,1,0,0:0:0:0:
202,170,68092,1,0,0:0:0:0:
193,173,68837,1,0,0:0:0:0:
193,173,69210,1,8,0:0:0:0:
193,173,71073,1,8,0:0:0:0:
193,173,71446,1,8,0:0:0:0:
193,173,71819,1,0,0:0:0:0:
193,173,72191,1,8,0:0:0:0:
193,173,73682,1,0,0:0:0:0:
193,173,74800,1,0,0:0:0:0:
193,173,75173,1,8,0:0:0:0:
193,173,77036,1,8,0:0:0:0:
193,173,77409,1,8,0:0:0:0:
193,173,77781,1,0,0:0:0:0:
193,173,78154,1,8,0:0:0:0:
193,173,79645,1,0,0:0:0:0:
132,95,80769,1,4,0:0:0:0:
283,160,80954,1,0,0:0:0:0:
283,160,81047,1,0,0:0:0:0:
283,160,81140,1,8,0:0:0:0:
283,160,81233,1,8,0:0:0:0:
283,160,81327,1,8,0:0:0:0:
283,160,81420,1,8,0:0:0:0:
258,88,81513,1,0,0:0:0:0:
258,88,81606,1,0,0:0:0:0:
258,88,81699,1,0,0:0:0:0:
258,88,81792,1,0,0:0:0:0:
258,88,81886,1,8,0:0:0:0:
258,88,81979,1,8,0:0:0:0:
258,88,82072,1,8,0:0:0:0:
258,88,82165,1,8,0:0:0:0:
258,88,82258,1,0,0:0:0:0:
258,88,82351,1,0,0:0:0:0:
258,88,82445,1,0,0:0:0:0:
258,88,82538,1,0,0:0:0:0:
258,88,82631,1,8,0:0:0:0:
258,88,82724,1,0,0:0:0:0:
258,88,82817,1,0,0:0:0:0:
258,88,82910,1,0,0:0:0:0:
258,88,83004,1,8,0:0:0:0:
258,88,83097,1,0,0:0:0:0:
258,88,83190,1,8,0:0:0:0:
258,88,83283,1,8,0:0:0:0:
258,88,83376,1,0,0:0:0:0:
258,88,83469,1,0,0:0:0:0:
258,88,83563,1,8,0:0:0:0:
258,88,83656,1,8,0:0:0:0:
258,88,83749,1,0,0:0:0:0:
258,88,83842,1,0,0:0:0:0:
178,128,83935,1,0,0:0:0:0:
178,128,84028,1,0,0:0:0:0:
240,112,84122,1,8,0:0:0:0:
240,112,84215,1,8,0:0:0:0:
240,112,84308,1,8,0:0:0:0:
240,112,84401,1,8,0:0:0:0:
240,112,84494,1,0,0:0:0:0:
240,112,84587,1,0,0:0:0:0:
240,112,84681,1,0,0:0:0:0:
240,112,84774,1,0,0:0:0:0:
240,112,84867,1,8,0:0:0:0:
240,112,84960,1,8,0:0:0:0:
240,112,85053,1,8,0:0:0:0:
240,112,85146,1,8,0:0:0:0:
240,112,85240,1,0,0:0:0:0:
240,112,85333,1,0,0:0:0:0:
240,112,85426,1,0,0:0:0:0:
240,112,85519,1,0,0:0:0:0:
233,120,85612,1,8,0:0:0:0:
233,120,85705,1,8,0:0:0:0:
233,120,85799,1,0,0:0:0:0:
233,120,85892,1,0,0:0:0:0:
233,120,85985,1,8,0:0:0:0:
233,120,86078,1,0,0:0:0:0:
233,120,86171,1,0,0:0:0:0:
233,120,86264,1,0,0:0:0:0:
233,120,86358,1,8,0:0:0:0:
233,120,86451,1,8,0:0:0:0:
233,120,86544,1,0,0:0:0:0:
233,120,86637,1,8,0:0:0:0:
233,120,86730,1,0,0:0:0:0:
115,142,86823,1,0,0:0:0:0:
115,142,86917,1,0,0:0:0:0:
283,160,87010,1,0,0:0:0:0:
283,160,87103,1,8,0:0:0:0:
283,160,87196,1,8,0:0:0:0:
283,160,87289,1,8,0:0:0:0:
283,160,87382,1,8,0:0:0:0:
258,88,87476,1,0,0:0:0:0:
258,88,87569,1,0,0:0:0:0:
258,88,87662,1,0,0:0:0:0:
258,88,87755,1,0,0:0:0:0:
258,88,87848,1,8,0:0:0:0:
258,88,87941,1,8,0:0:0:0:
258,88,88035,1,8,0:0:0:0:
258,88,88128,1,8,0:0:0:0:
258,88,88221,1,0,0:0:0:0:
258,88,88314,1,0,0:0:0:0:
258,88,88407,1,0,0:0:0:0:
258,88,88500,1,0,0:0:0:0:
258,88,88594,1,8,0:0:0:0:
258,88,88687,1,0,0:0:0:0:
258,88,88780,1,0,0:0:0:0:
258,88,88873,1,0,0:0:0:0:
258,88,88966,1,8,0:0:0:0:
258,88,89059,1,0,0:0:0:0:
258,88,89153,1,8,0:0:0:0:
258,88,89246,1,8,0:0:0:0:
258,88,89339,1,0,0:0:0:0:
258,88,89432,1,0,0:0:0:0:
258,88,89525,1,8,0:0:0:0:
258,88,89618,1,8,0:0:0:0:
258,88,89712,1,0,0:0:0:0:
258,88,89805,1,0,0:0:0:0:
178,128,89898,1,0,0:0:0:0:
178,128,89991,1,0,0:0:0:0:
240,112,90084,1,8,0:0:0:0:
240,112,90177,1,8,0:0:0:0:
240,112,90271,1,8,0:0:0:0:
240,112,90364,1,8,0:0:0:0:
240,112,90457,1,0,0:0:0:0:
240,112,90550,1,0,0:0:0:0:
240,112,90643,1,0,0:0:0:0:
240,112,90736,1,0,0:0:0:0:
240,112,90830,1,8,0:0:0:0:
240,112,90923,1,8,0:0:0:0:
240,112,91016,1,8,0:0:0:0:
240,112,91109,1,8,0:0:0:0:
240,112,91202,1,0,0:0:0:0:
240,112,91295,1,0,0:0:0:0:
240,112,91389,1,0,0:0:0:0:
240,112,91482,1,0,0:0:0:0:
233,120,91575,1,8,0:0:0:0:
233,120,91668,1,8,0:0:0:0:
233,120,91761,1,0,0:0:0:0:
233,120,91854,1,0,0:0:0:0:
233,120,91948,1,8,0:0:0:0:
233,120,92041,1,0,0:0:0:0:
233,120,92134,1,0,0:0:0:0:
233,120,92227,1,0,0:0:0:0:
233,120,92320,1,8,0:0:0:0:
233,120,92413,1,8,0:0:0:0:
233,120,92507,1,0,0:0:0:0:
233,120,92714,1,12,0:0:0:0:
283,160,92891,1,0,0:0:0:0:
283,160,92980,1,0,0:0:0:0:
283,160,93063,1,8,0:0:0:0:
283,160,93155,1,8,0:0:0:0:
283,160,93248,1,8,0:0:0:0:
283,160,93341,1,8,0:0:0:0:
258,88,93434,1,0,0:0:0:0:
258,88,93527,1,0,0:0:0:0:
258,88,93620,1,0,0:0:0:0:
258,88,93713,1,0,0:0:0:0:
258,88,93806,1,8,0:0:0:0:
258,88,93899,1,8,0:0:0:0:
258,88,93993,1,8,0:0:0:0:
258,88,94086,1,8,0:0:0:0:
258,88,94179,1,0,0:0:0:0:
258,88,94272,1,0,0:0:0:0:
258,88,94365,1,0,0:0:0:0:
258,88,94458,1,0,0:0:0:0:
258,88,94551,1,8,0:0:0:0:
258,88,94644,1,0,0:0:0:0:
258,88,94737,1,0,0:0:0:0:
258,88,94830,1,0,0:0:0:0:
258,88,94923,1,8,0:0:0:0:
258,88,95016,1,0,0:0:0:0:
258,88,95110,1,8,0:0:0:0:
258,88,95203,1,8,0:0:0:0:
258,88,95296,1,0,0:0:0:0:
258,88,95389,1,0,0:0:0:0:
258,88,95482,1,8,0:0:0:0:
258,88,95575,1,8,0:0:0:0:
258,88,95668,1,0,0:0:0:0:
258,88,95761,1,0,0:0:0:0:
178,128,95854,1,0,0:0:0:0:
178,128,95948,1,0,0:0:0:0:
240,112,96041,1,8,0:0:0:0:
240,112,96134,1,8,0:0:0:0:
240,112,96227,1,8,0:0:0:0:
240,112,96320,1,8,0:0:0:0:
240,112,96413,1,0,0:0:0:0:
240,112,96506,1,0,0:0:0:0:
240,112,96599,1,0,0:0:0:0:
240,112,96692,1,0,0:0:0:0:
240,112,96786,1,8,0:0:0:0:
240,112,96879,1,8,0:0:0:0:
240,112,96972,1,8,0:0:0:0:
240,112,97065,1,8,0:0:0:0:
240,112,97158,1,0,0:0:0:0:
240,112,97251,1,0,0:0:0:0:
240,112,97344,1,0,0:0:0:0:
240,112,97437,1,0,0:0:0:0:
233,120,97530,1,8,0:0:0:0:
233,120,97624,1,8,0:0:0:0:
233,120,97717,1,0,0:0:0:0:
233,120,97810,1,0,0:0:0:0:
233,120,97903,1,8,0:0:0:0:
233,120,97996,1,0,0:0:0:0:
233,120,98089,1,0,0:0:0:0:
233,120,98182,1,0,0:0:0:0:
233,120,98275,1,8,0:0:0:0:
233,120,98368,1,8,0:0:0:0:
233,120,98462,1,0,0:0:0:0:
233,120,98648,1,12,0:0:0:0:
283,160,98834,1,0,0:0:0:0:
283,160,98927,1,0,0:0:0:0:
283,160,99020,1,8,0:0:0:0:
283,160,99113,1,8,0:0:0:0:
283,160,99206,1,8,0:0:0:0:
283,160,99300,1,8,0:0:0:0:
258,88,99393,1,0,0:0:0:0:
258,88,99486,1,0,0:0:0:0:
258,88,99579,1,0,0:0:0:0:
258,88,99672,1,0,0:0:0:0:
258,88,99765,1,8,0:0:0:0:
258,88,99858,1,8,0:0:0:0:
258,88,99951,1,8,0:0:0:0:
258,88,100044,1,8,0:0:0:0:
258,88,100138,1,0,0:0:0:0:
258,88,100231,1,0,0:0:0:0:
258,88,100324,1,0,0:0:0:0:
258,88,100417,1,0,0:0:0:0:
258,88,100510,1,8,0:0:0:0:
258,88,100603,1,0,0:0:0:0:
258,88,100696,1,0,0:0:0:0:
258,88,100789,1,0,0:0:0:0:
258,88,100882,1,8,0:0:0:0:
258,88,100976,1,0,0:0:0:0:
258,88,101069,1,8,0:0:0:0:
258,88,101162,1,8,0:0:0:0:
258,88,101255,1,0,0:0:0:0:
258,88,101348,1,0,0:0:0:0:
258,88,101441,1,8,0:0:0:0:
258,88,101534,1,8,0:0:0:0:
258,88,101627,1,0,0:0:0:0:
258,88,101720,1,0,0:0:0:0:
178,128,101814,1,0,0:0:0:0:
178,128,101907,1,0,0:0:0:0:
240,112,102000,1,8,0:0:0:0:
240,112,102093,1,8,0:0:0:0:
240,112,102186,1,8,0:0:0:0:
240,112,102279,1,8,0:0:0:0:
240,112,102372,1,0,0:0:0:0:
240,112,102465,1,0,0:0:0:0:
240,112,102558,1,0,0:0:0:0:
240,112,102651,1,0,0:0:0:0:
240,112,102745,1,8,0:0:0:0:
240,112,102838,1,8,0:0:0:0:
240,112,102931,1,8,0:0:0:0:
240,112,103024,1,8,0:0:0:0:
240,112,103117,1,0,0:0:0:0:
240,112,103210,1,0,0:0:0:0:
240,112,103303,1,0,0:0:0:0:
240,112,103396,1,0,0:0:0:0:
233,120,103489,1,8,0:0:0:0:
233,120,103583,1,8,0:0:0:0:
233,120,103676,1,0,0:0:0:0:
233,120,103769,1,0,0:0:0:0:
233,120,103862,1,8,0:0:0:0:
233,120,103955,1,0,0:0:0:0:
233,120,104048,1,0,0:0:0:0:
233,120,104141,1,0,0:0:0:0:
233,120,104234,1,8,0:0:0:0:
233,120,104327,1,8,0:0:0:0:
233,120,104421,1,0,0:0:0:0:
233,120,104607,1,12,0:0:0:0:
283,160,104793,1,0,0:0:0:0:
283,160,104886,1,0,0:0:0:0:
283,160,104979,1,8,0:0:0:0:
283,160,105072,1,8,0:0:0:0:
283,160,105165,1,8,0:0:0:0:
283,160,105259,1,8,0:0:0:0:
258,88,105352,1,0,0:0:0:0:
258,88,105445,1,0,0:0:0:0:
258,88,105538,1,0,0:0:0:0:
258,88,105631,1,0,0:0:0:0:
258,88,105724,1,8,0:0:0:0:
258,88,105817,1,8,0:0:0:0:
258,88,105910,1,8,0:0:0:0:
258,88,106003,1,8,0:0:0:0:
258,88,106097,1,0,0:0:0:0:
258,88,106190,1,0,0:0:0:0:
258,88,106283,1,0,0:0:0:0:
258,88,106376,1,0,0:0:0:0:
258,88,106469,1,8,0:0:0:0:
258,88,106562,1,0,0:0:0:0:
258,88,106655,1,0,0:0:0:0:
258,88,106748,1,0,0:0:0:0:
258,88,106841,1,8,0:0:0:0:
258,88,106935,1,0,0:0:0:0:
258,88,107028,1,8,0:0:0:0:
258,88,107121,1,8,0:0:0:0:
258,88,107214,1,0,0:0:0:0:
258,88,107307,1,0,0:0:0:0:
258,88,107400,1,8,0:0:0:0:
258,88,107493,1,8,0:0:0:0:
258,88,107586,1,0,0:0:0:0:
258,88,107679,1,0,0:0:0:0:
178,128,107773,1,0,0:0:0:0:
178,128,107866,1,0,0:0:0:0:
240,112,107959,1,8,0:0:0:0:
240,112,108052,1,8,0:0:0:0:
240,112,108145,1,8,0:0:0:0:
240,112,108238,1,8,0:0:0:0:
240,112,108331,1,0,0:0:0:0:
240,112,108424,1,0,0:0:0:0:
240,112,108517,1,0,0:0:0:0:
240,112,108611,1,0,0:0:0:0:
240,112,108704,1,8,0:0:0:0:
240,112,108797,1,8,0:0:0:0:
240,112,108891,1,8,0:0:0:0:
240,112,108983,1,8,0:0:0:0:
240,112,109076,1,0,0:0:0:0:
240,112,109169,1,0,0:0:0:0:
240,112,109262,1,0,0:0:0:0:
240,112,109355,1,0,0:0:0:0:
233,120,109449,1,8,0:0:0:0:
233,120,109542,1,8,0:0:0:0:
233,120,109635,1,0,0:0:0:0:
233,120,109728,1,0,0:0:0:0:
233,120,109821,1,8,0:0:0:0:
233,120,109914,1,0,0:0:0:0:
233,120,110007,1,0,0:0:0:0:
233,120,110100,1,0,0:0:0:0:
233,120,110193,1,8,0:0:0:0:
233,120,110287,1,8,0:0:0:0:
233,120,110380,1,0,0:0:0:0:
155,113,110473,1,8,0:0:0:0:
204,69,110566,1,0,0:0:0:0:
204,69,110659,1,0,0:0:0:0:
283,160,110752,1,0,0:0:0:0:
283,160,110845,1,0,0:0:0:0:
283,160,110938,1,8,0:0:0:0:
283,160,111031,1,8,0:0:0:0:
283,160,111124,1,8,0:0:0:0:
283,160,111218,1,8,0:0:0:0:
258,88,111311,1,0,0:0:0:0:
258,88,111404,1,0,0:0:0:0:
258,88,111497,1,0,0:0:0:0:
258,88,111590,1,0,0:0:0:0:
258,88,111683,1,8,0:0:0:0:
258,88,111776,1,8,0:0:0:0:
258,88,111869,1,8,0:0:0:0:
258,88,111962,1,8,0:0:0:0:
258,88,112056,1,0,0:0:0:0:
258,88,112149,1,0,0:0:0:0:
258,88,112242,1,0,0:0:0:0:
258,88,112335,1,0,0:0:0:0:
258,88,112428,1,8,0:0:0:0:
258,88,112521,1,0,0:0:0:0:
258,88,112614,1,0,0:0:0:0:
258,88,112707,1,0,0:0:0:0:
258,88,112800,1,8,0:0:0:0:
258,88,112894,1,0,0:0:0:0:
258,88,112987,1,8,0:0:0:0:
258,88,113080,1,8,0:0:0:0:
258,88,113173,1,0,0:0:0:0:
258,88,113266,1,0,0:0:0:0:
258,88,113359,1,8,0:0:0:0:
258,88,113452,1,8,0:0:0:0:
258,88,113545,1,0,0:0:0:0:
258,88,113638,1,0,0:0:0:0:
178,128,113732,1,0,0:0:0:0:
178,128,113825,1,0,0:0:0:0:
240,112,113918,1,8,0:0:0:0:
240,112,114011,1,8,0:0:0:0:
240,112,114104,1,8,0:0:0:0:
240,112,114197,1,8,0:0:0:0:
240,112,114290,1,0,0:0:0:0:
240,112,114383,1,0,0:0:0:0:
240,112,114476,1,0,0:0:0:0:
240,112,114570,1,0,0:0:0:0:
240,112,114663,1,8,0:0:0:0:
240,112,114756,1,8,0:0:0:0:
240,112,114849,1,8,0:0:0:0:
240,112,114942,1,8,0:0:0:0:
240,112,115035,1,0,0:0:0:0:
240,112,115128,1,0,0:0:0:0:
240,112,115221,1,0,0:0:0:0:
240,112,115314,1,0,0:0:0:0:
233,120,115408,1,8,0:0:0:0:
233,120,115501,1,8,0:0:0:0:
233,120,115594,1,0,0:0:0:0:
233,120,115687,1,0,0:0:0:0:
233,120,115780,1,8,0:0:0:0:
233,120,115873,1,0,0:0:0:0:
233,120,115966,1,0,0:0:0:0:
233,120,116059,1,0,0:0:0:0:
233,120,116152,1,8,0:0:0:0:
233,120,116246,1,8,0:0:0:0:
233,120,116339,1,0,0:0:0:0:
279,88,116525,1,12,0:0:0:0:
283,160,116711,1,0,0:0:0:0:
283,160,116804,1,0,0:0:0:0:
283,160,116897,1,8,0:0:0:0:
283,160,116991,1,8,0:0:0:0:
283,160,117084,1,8,0:0:0:0:
283,160,117177,1,8,0:0:0:0:
258,88,117270,1,0,0:0:0:0:
258,88,117363,1,0,0:0:0:0:
258,88,117456,1,0,0:0:0:0:
258,88,117549,1,0,0:0:0:0:
258,88,117643,1,8,0:0:0:0:
258,88,117736,1,8,0:0:0:0:
258,88,117829,1,8,0:0:0:0:
258,88,117922,1,8,0:0:0:0:
258,88,118015,1,0,0:0:0:0:
258,88,118108,1,0,0:0:0:0:
258,88,118202,1,0,0:0:0:0:
258,88,118295,1,0,0:0:0:0:
258,88,118388,1,8,0:0:0:0:
258,88,118481,1,0,0:0:0:0:
258,88,118574,1,0,0:0:0:0:
258,88,118667,1,0,0:0:0:0:
258,88,118761,1,8,0:0:0:0:
258,88,118854,1,0,0:0:0:0:
258,88,118947,1,8,0:0:0:0:
258,88,119040,1,8,0:0:0:0:
258,88,119133,1,0,0:0:0:0:
258,88,119226,1,0,0:0:0:0:
258,88,119320,1,8,0:0:0:0:
258,88,119413,1,8,0:0:0:0:
258,88,119506,1,0,0:0:0:0:
258,88,119599,1,0,0:0:0:0:
178,128,119692,1,0,0:0:0:0:
178,128,119785,1,0,0:0:0:0:
240,112,119879,1,8,0:0:0:0:
240,112,119972,1,8,0:0:0:0:
240,112,120065,1,8,0:0:0:0:
240,112,120158,1,8,0:0:0:0:
240,112,120251,1,0,0:0:0:0:
240,112,120344,1,0,0:0:0:0:
240,112,120438,1,0,0:0:0:0:
240,112,120531,1,0,0:0:0:0:
240,112,120624,1,8,0:0:0:0:
240,112,120717,1,8,0:0:0:0:
240,112,120810,1,8,0:0:0:0:
240,112,120903,1,8,0:0:0:0:
240,112,120997,1,0,0:0:0:0:
240,112,121090,1,0,0:0:0:0:
240,112,121183,1,0,0:0:0:0:
240,112,121276,1,0,0:0:0:0:
233,120,121369,1,8,0:0:0:0:
233,120,121462,1,8,0:0:0:0:
233,120,121556,1,0,0:0:0:0:
233,120,121649,1,0,0:0:0:0:
233,120,121742,1,8,0:0:0:0:
233,120,121835,1,0,0:0:0:0:
233,120,121928,1,0,0:0:0:0:
233,120,122021,1,0,0:0:0:0:
233,120,122115,1,8,0:0:0:0:
233,120,122208,1,8,0:0:0:0:
233,120,122301,1,0,0:0:0:0:
254,168,122487,1,12,0:0:0:0:
283,160,122674,1,0,0:0:0:0:
283,160,122767,1,0,0:0:0:0:
283,160,122860,1,8,0:0:0:0:
283,160,122953,1,8,0:0:0:0:
283,160,123046,1,8,0:0:0:0:
283,160,123139,1,8,0:0:0:0:
258,88,123233,1,0,0:0:0:0:
258,88,123326,1,0,0:0:0:0:
258,88,123419,1,0,0:0:0:0:
258,88,123512,1,0,0:0:0:0:
258,88,123605,1,8,0:0:0:0:
258,88,123698,1,8,0:0:0:0:
258,88,123792,1,8,0:0:0:0:
258,88,123885,1,8,0:0:0:0:
258,88,123978,1,0,0:0:0:0:
258,88,124071,1,0,0:0:0:0:
258,88,124164,1,0,0:0:0:0:
258,88,124257,1,0,0:0:0:0:
258,88,124351,1,8,0:0:0:0:
258,88,124444,1,0,0:0:0:0:
258,88,124537,1,0,0:0:0:0:
258,88,124630,1,0,0:0:0:0:
258,88,124723,1,8,0:0:0:0:
258,88,124816,1,0,0:0:0:0:
258,88,124910,1,8,0:0:0:0:
258,88,125003,1,8,0:0:0:0:
258,88,125096,1,0,0:0:0:0:
258,88,125189,1,0,0:0:0:0:
258,88,125282,1,8,0:0:0:0:
258,88,125375,1,8,0:0:0:0:
258,88,125469,1,0,0:0:0:0:
258,88,125562,1,0,0:0:0:0:
178,128,125655,1,0,0:0:0:0:
178,128,125748,1,0,0:0:0:0:
240,112,125841,1,8,0:0:0:0:
240,112,125934,1,8,0:0:0:0:
240,112,126028,1,8,0:0:0:0:
240,112,126121,1,8,0:0:0:0:
240,112,126214,1,0,0:0:0:0:
240,112,126307,1,0,0:0:0:0:
240,112,126400,1,0,0:0:0:0:
240,112,126493,1,0,0:0:0:0:
240,112,126587,1,8,0:0:0:0:
240,112,126680,1,8,0:0:0:0:
240,112,126773,1,8,0:0:0:0:
240,112,126866,1,8,0:0:0:0:
240,112,126959,1,0,0:0:0:0:
240,112,127052,1,0,0:0:0:0:
240,112,127146,1,0,0:0:0:0:
240,112,127239,1,0,0:0:0:0:
233,120,127332,1,8,0:0:0:0:
233,120,127425,1,8,0:0:0:0:
233,120,127518,1,0,0:0:0:0:
233,120,127611,1,0,0:0:0:0:
233,120,127705,1,8,0:0:0:0:
233,120,127798,1,0,0:0:0:0:
233,120,127891,1,0,0:0:0:0:
233,120,127984,1,0,0:0:0:0:
233,120,128077,1,8,0:0:0:0:
233,120,128170,1,8,0:0:0:0:
233,120,128264,1,0,0:0:0:0:
188,138,128450,1,12,0:0:0:0:
297,161,128636,1,0,0:0:0:0:
297,161,128729,1,0,0:0:0:0:
297,161,128823,1,8,0:0:0:0:
297,161,128916,1,0,0:0:0:0:
297,161,129009,1,8,0:0:0:0:
297,161,129102,1,8,0:0:0:0:
297,161,129196,1,0,0:0:0:0:
297,161,129289,1,0,0:0:0:0:
297,161,129382,1,8,0:0:0:0:
297,161,129476,1,8,0:0:0:0:
150,105,129569,1,0,0:0:0:0:
150,105,129662,1,0,0:0:0:0:
150,105,129755,1,8,0:0:0:0:
150,105,129849,1,8,0:0:0:0:
150,105,129942,1,8,0:0:0:0:
150,105,130035,1,8,0:0:0:0:
150,105,130129,1,8,0:0:0:0:
150,105,130222,1,8,0:0:0:0:
150,105,130315,1,8,0:0:0:0:
150,105,130408,1,8,0:0:0:0:
234,110,130502,1,8,0:0:0:0:
234,110,130595,1,8,0:0:0:0:
234,110,130688,1,0,0:0:0:0:
234,110,130782,1,0,0:0:0:0:
234,110,130875,1,0,0:0:0:0:
234,110,130968,1,0,0:0:0:0:
234,110,131061,1,8,0:0:0:0:
234,110,131155,1,0,0:0:0:0:
234,110,131248,1,0,0:0:0:0:
234,110,131341,1,0,0:0:0:0:
234,110,131435,1,0,0:0:0:0:
123,116,131621,1,0,0:0:0:0:
123,116,131714,1,0,0:0:0:0:
123,116,131808,1,8,0:0:0:0:
123,116,131901,1,0,0:0:0:0:
123,116,131994,1,8,0:0:0:0:
123,116,132088,1,0,0:0:0:0:
123,116,132181,1,0,0:0:0:0:
123,116,132274,1,0,0:0:0:0:
123,116,132367,1,8,0:0:0:0:
123,116,132461,1,8,0:0:0:0:
123,116,132554,1,0,0:0:0:0:
123,116,132647,1,0,0:0:0:0:
123,116,132741,1,0,0:0:0:0:
123,116,132834,1,0,0:0:0:0:
123,116,132927,1,8,0:0:0:0:
123,116,133020,1,8,0:0:0:0:
123,116,133114,1,0,0:0:0:0:
123,116,133207,1,0,0:0:0:0:
123,116,133300,1,0,0:0:0:0:
123,116,133394,1,0,0:0:0:0:
123,116,133487,1,8,0:0:0:0:
123,116,133580,1,8,0:0:0:0:
123,116,133673,1,8,0:0:0:0:
123,116,133767,1,8,0:0:0:0:
123,116,133860,1,8,0:0:0:0:
123,116,133953,1,8,0:0:0:0:
123,116,134047,1,0,0:0:0:0:
123,116,134140,1,0,0:0:0:0:
123,116,134233,1,0,0:0:0:0:
123,116,134326,1,0,0:0:0:0:
123,116,134420,1,0,0:0:0:0:
197,121,134606,1,0,0:0:0:0:
190,108,134700,1,0,0:0:0:0:
190,108,134793,1,8,0:0:0:0:
123,116,134886,1,8,0:0:0:0:
123,116,134979,1,8,0:0:0:0:
123,116,135073,1,8,0:0:0:0:
123,116,135166,1,8,0:0:0:0:
123,116,135259,1,8,0:0:0:0:
123,116,135352,1,0,0:0:0:0:
123,116,135446,1,0,0:0:0:0:
123,116,135539,1,8,0:0:0:0:
123,116,135632,1,8,0:0:0:0:
123,116,135726,1,8,0:0:0:0:
123,116,135819,1,8,0:0:0:0:
123,116,135912,1,0,0:0:0:0:
173,146,136005,1,0,0:0:0:0:
173,146,136099,1,0,0:0:0:0:
173,146,136192,1,0,0:0:0:0:
211,127,136285,1,8,0:0:0:0:
211,127,136379,1,0,0:0:0:0:
211,127,136472,1,8,0:0:0:0:
211,127,136565,1,8,0:0:0:0:
211,127,136658,1,8,0:0:0:0:
211,127,136752,1,8,0:0:0:0:
211,127,136845,1,0,0:0:0:0:
211,127,136938,1,0,0:0:0:0:
211,127,137032,1,8,0:0:0:0:
211,127,137125,1,0,0:0:0:0:
211,127,137218,1,0,0:0:0:0:
211,127,137311,1,0,0:0:0:0:
211,127,137405,1,0,0:0:0:0:
194,108,137591,1,0,0:0:0:0:
195,108,137685,1,0,0:0:0:0:
211,127,137778,1,8,0:0:0:0:
211,127,137871,1,0,0:0:0:0:
211,127,137964,1,8,0:0:0:0:
211,127,138058,1,8,0:0:0:0:
211,127,138151,1,0,0:0:0:0:
211,127,138244,1,0,0:0:0:0:
211,127,138338,1,8,0:0:0:0:
115,133,138431,1,8,0:0:0:0:
194,108,138524,1,0,0:0:0:0:
198,104,138617,1,0,0:0:0:0:
198,104,138711,1,0,0:0:0:0:
194,108,138804,1,0,0:0:0:0:
194,108,138897,1,8,0:0:0:0:
194,108,138991,1,8,0:0:0:0:
194,108,139084,1,8,0:0:0:0:
194,108,139177,1,8,0:0:0:0:
194,108,139270,1,0,0:0:0:0:
194,108,139364,1,0,0:0:0:0:
194,108,139457,1,8,0:0:0:0:
198,104,139550,1,8,0:0:0:0:
198,104,139644,1,8,0:0:0:0:
194,108,139737,1,8,0:0:0:0:
194,108,139830,1,8,0:0:0:0:
194,108,139923,1,8,0:0:0:0:
194,108,140017,1,0,0:0:0:0:
194,108,140110,1,0,0:0:0:0:
194,108,140203,1,0,0:0:0:0:
218,67,140390,1,12,0:0:0:0:
123,221,140763,1,8,0:0:0:0:
123,221,140856,1,0,0:0:0:0:
123,221,140950,1,8,0:0:0:0:
185,160,141043,1,8,0:0:0:0:
185,160,141136,1,0,0:0:0:0:
185,160,141229,1,0,0:0:0:0:
185,160,141323,1,8,0:0:0:0:
185,160,141416,1,8,0:0:0:0:
185,160,141509,1,0,0:0:0:0:
185,160,141602,1,0,0:0:0:0:
185,160,141696,1,0,0:0:0:0:
185,160,141789,1,0,0:0:0:0:
185,160,141882,1,0,0:0:0:0:
185,160,141976,1,0,0:0:0:0:
185,160,142069,1,0,0:0:0:0:
185,160,142162,1,0,0:0:0:0:
185,160,142255,1,8,0:0:0:0:
185,160,142349,1,8,0:0:0:0:
185,160,142442,1,8,0:0:0:0:
185,160,142535,1,8,0:0:0:0:
185,160,142629,1,8,0:0:0:0:
185,160,142722,1,8,0:0:0:0:
185,160,142815,1,8,0:0:0:0:
185,160,142908,1,8,0:0:0:0:
185,160,143002,1,8,0:0:0:0:
185,160,143095,1,8,0:0:0:0:
185,160,143188,1,8,0:0:0:0:
185,160,143282,1,8,0:0:0:0:
185,160,143375,1,0,0:0:0:0:
207,152,143561,1,0,0:0:0:0:
207,152,143655,1,0,0:0:0:0:
203,213,143748,1,8,0:0:0:0:
207,152,143841,1,0,0:0:0:0:
207,152,143935,1,8,0:0:0:0:
207,152,144028,1,8,0:0:0:0:
207,152,144121,1,0,0:0:0:0:
207,152,144214,1,0,0:0:0:0:
207,152,144308,1,8,0:0:0:0:
207,152,144401,1,8,0:0:0:0:
207,152,144494,1,0,0:0:0:0:
207,152,144588,1,0,0:0:0:0:
207,152,144681,1,0,0:0:0:0:
207,152,144774,1,0,0:0:0:0:
207,152,144867,1,8,0:0:0:0:
207,152,144961,1,8,0:0:0:0:
207,152,145054,1,0,0:0:0:0:
207,152,145147,1,0,0:0:0:0:
207,152,145241,1,0,0:0:0:0:
207,152,145334,1,0,0:0:0:0:
207,152,145427,1,8,0:0:0:0:
207,152,145520,1,8,0:0:0:0:
207,152,145614,1,8,0:0:0:0:
207,152,145707,1,8,0:0:0:0:
207,152,145800,1,8,0:0:0:0:
207,152,145894,1,8,0:0:0:0:
207,152,145987,1,0,0:0:0:0:
207,152,146080,1,0,0:0:0:0:
207,152,146173,1,0,0:0:0:0:
207,152,146267,1,0,0:0:0:0:
207,152,146360,1,0,0:0:0:0:
207,152,146453,1,0,0:0:0:0:
207,152,146547,1,0,0:0:0:0:
207,152,146640,1,0,0:0:0:0:
207,152,146733,1,8,0:0:0:0:
207,152,146826,1,0,0:0:0:0:
207,152,146920,1,8,0:0:0:0:
207,152,147013,1,8,0:0:0:0:
207,152,147106,1,0,0:0:0:0:
207,152,147200,1,0,0:0:0:0:
207,152,147293,1,8,0:0:0:0:
207,152,147386,1,8,0:0:0:0:
207,152,147479,1,8,0:0:0:0:
207,152,147573,1,8,0:0:0:0:
207,152,147666,1,8,0:0:0:0:
207,152,147759,1,8,0:0:0:0:
207,152,147852,1,0,0:0:0:0:
207,152,147946,1,0,0:0:0:0:
207,152,148039,1,0,0:0:0:0:
126,131,148132,1,0,0:0:0:0:
278,112,148226,1,8,0:0:0:0:
278,112,148319,1,0,0:0:0:0:
278,112,148412,1,8,0:0:0:0:
278,112,148505,1,8,0:0:0:0:
278,112,148599,1,8,0:0:0:0:
278,112,148692,1,8,0:0:0:0:
278,112,148785,1,0,0:0:0:0:
278,112,148879,1,0,0:0:0:0:
278,112,148972,1,0,0:0:0:0:
278,112,149065,1,0,0:0:0:0:
278,112,149158,1,0,0:0:0:0:
278,112,149345,1,0,0:0:0:0:
278,112,149438,1,0,0:0:0:0:
278,112,149532,1,0,0:0:0:0:
278,112,149625,1,0,0:0:0:0:
278,112,149718,1,8,0:0:0:0:
278,112,149811,1,0,0:0:0:0:
278,112,149905,1,8,0:0:0:0:
278,112,149998,1,8,0:0:0:0:
278,112,150091,1,0,0:0:0:0:
278,112,150185,1,0,0:0:0:0:
278,112,150278,1,8,0:0:0:0:
278,112,150371,1,8,0:0:0:0:
278,112,150464,1,8,0:0:0:0:
278,112,150558,1,8,0:0:0:0:
278,112,150651,1,0,0:0:0:0:
278,112,150744,1,0,0:0:0:0:
278,112,150838,1,0,0:0:0:0:
165,126,150931,1,0,0:0:0:0:
165,126,151024,1,0,0:0:0:0:
165,126,151117,1,0,0:0:0:0:
278,112,151211,1,8,0:0:0:0:
278,112,151304,1,8,0:0:0:0:
278,112,151397,1,8,0:0:0:0:
278,112,151491,1,8,0:0:0:0:
278,112,151584,1,8,0:0:0:0:
278,112,151677,1,8,0:0:0:0:
278,112,151770,1,8,0:0:0:0:
278,112,151864,1,8,0:0:0:0:
278,112,151957,1,8,0:0:0:0:
278,112,152050,1,8,0:0:0:0:
278,112,152145,1,8,0:0:0:0:
278,112,152330,1,4,0:0:0:0:
140,222,152506,1,0,0:0:0:0:
140,222,152598,1,0,0:0:0:0:
140,222,152691,1,8,0:0:0:0:
140,222,152784,1,0,0:0:0:0:
140,222,152878,1,0,0:0:0:0:
140,222,152971,1,0,0:0:0:0:
140,222,153064,1,0,0:0:0:0:
140,222,153157,1,0,0:0:0:0:
140,222,153251,1,0,0:0:0:0:
140,222,153344,1,0,0:0:0:0:
140,222,153437,1,8,0:0:0:0:
140,222,153531,1,0,0:0:0:0:
140,222,153624,1,0,0:0:0:0:
140,222,153717,1,0,0:0:0:0:
140,222,153810,1,0,0:0:0:0:
140,222,153903,1,0,0:0:0:0:
140,222,153996,1,0,0:0:0:0:
140,222,154089,1,0,0:0:0:0:
140,222,154183,1,8,0:0:0:0:
140,222,154276,1,0,0:0:0:0:
140,222,154369,1,0,0:0:0:0:
140,222,154462,1,0,0:0:0:0:
140,222,154556,1,0,0:0:0:0:
140,222,154649,1,0,0:0:0:0:
140,222,154742,1,0,0:0:0:0:
140,222,154836,1,0,0:0:0:0:
140,222,154929,1,8,0:0:0:0:
140,222,155022,1,0,0:0:0:0:
140,222,155115,1,0,0:0:0:0:
157,158,155209,1,0,0:0:0:0:
120,99,155302,1,0,0:0:0:0:
120,99,155395,1,0,0:0:0:0:
120,99,155489,1,0,0:0:0:0:
140,222,155582,1,0,0:0:0:0:
140,222,155675,1,8,0:0:0:0:
140,222,155768,1,0,0:0:0:0:
140,222,155862,1,0,0:0:0:0:
140,222,155955,1,0,0:0:0:0:
140,222,156048,1,0,0:0:0:0:
140,222,156142,1,0,0:0:0:0:
140,222,156235,1,0,0:0:0:0:
140,222,156328,1,0,0:0:0:0:
140,222,156421,1,8,0:0:0:0:
140,222,156515,1,0,0:0:0:0:
140,222,156608,1,0,0:0:0:0:
140,222,156701,1,0,0:0:0:0:
140,222,156795,1,0,0:0:0:0:
140,222,156888,1,0,0:0:0:0:
140,222,156981,1,0,0:0:0:0:
140,222,157074,1,0,0:0:0:0:
140,222,157168,1,8,0:0:0:0:
140,222,157261,1,0,0:0:0:0:
140,222,157354,1,0,0:0:0:0:
140,222,157448,1,0,0:0:0:0:
140,222,157541,1,0,0:0:0:0:
140,222,157634,1,0,0:0:0:0:
140,222,157727,1,0,0:0:0:0:
140,222,157821,1,0,0:0:0:0:
140,222,157914,1,8,0:0:0:0:
140,222,158007,1,0,0:0:0:0:
140,222,158101,1,0,0:0:0:0:
184,71,158287,1,12,0:0:0:0:
140,222,158474,1,0,0:0:0:0:
140,222,158567,1,0,0:0:0:0:
140,222,158660,1,8,0:0:0:0:
140,222,158754,1,0,0:0:0:0:
140,222,158847,1,0,0:0:0:0:
140,222,158940,1,0,0:0:0:0:
140,222,159033,1,0,0:0:0:0:
140,222,159127,1,0,0:0:0:0:
140,222,159220,1,0,0:0:0:0:
140,222,159313,1,0,0:0:0:0:
140,222,159407,1,8,0:0:0:0:
140,222,159500,1,0,0:0:0:0:
140,222,159593,1,0,0:0:0:0:
140,222,159686,1,0,0:0:0:0:
140,222,159780,1,0,0:0:0:0:
140,222,159873,1,0,0:0:0:0:
140,222,159966,1,0,0:0:0:0:
140,222,160060,1,0,0:0:0:0:
140,222,160153,1,8,0:0:0:0:
140,222,160246,1,0,0:0:0:0:
140,222,160339,1,0,0:0:0:0:
140,222,160433,1,0,0:0:0:0:
140,222,160526,1,0,0:0:0:0:
140,222,160619,1,0,0:0:0:0:
140,222,160712,1,0,0:0:0:0:
140,222,160806,1,0,0:0:0:0:
140,222,160899,1,8,0:0:0:0:
140,222,160992,1,0,0:0:0:0:
140,222,161086,1,0,0:0:0:0:
157,158,161179,1,0,0:0:0:0:
134,93,161272,1,0,0:0:0:0:
134,93,161365,1,0,0:0:0:0:
140,222,161459,1,0,0:0:0:0:
140,222,161552,1,0,0:0:0:0:
140,222,161645,1,8,0:0:0:0:
140,222,161739,1,0,0:0:0:0:
140,222,161832,1,0,0:0:0:0:
140,222,161925,1,0,0:0:0:0:
140,222,162018,1,0,0:0:0:0:
140,222,162112,1,0,0:0:0:0:
140,222,162205,1,0,0:0:0:0:
140,222,162298,1,0,0:0:0:0:
140,222,162392,1,8,0:0:0:0:
140,222,162485,1,0,0:0:0:0:
140,222,162578,1,0,0:0:0:0:
140,222,162671,1,0,0:0:0:0:
140,222,162765,1,0,0:0:0:0:
140,222,162858,1,0,0:0:0:0:
140,222,162951,1,0,0:0:0:0:
140,222,163045,1,0,0:0:0:0:
140,222,163138,1,8,0:0:0:0:
140,222,163231,1,0,0:0:0:0:
140,222,163324,1,0,0:0:0:0:
140,222,163418,1,0,0:0:0:0:
140,222,163511,1,0,0:0:0:0:
140,222,163604,1,0,0:0:0:0:
140,222,163698,1,0,0:0:0:0:
140,222,163791,1,0,0:0:0:0:
140,222,163884,1,8,0:0:0:0:
140,222,163977,1,0,0:0:0:0:
140,222,164071,1,0,0:0:0:0:
182,67,164257,1,12,0:0:0:0:
140,222,164444,1,0,0:0:0:0:
140,222,164537,1,0,0:0:0:0:
140,222,164630,1,8,0:0:0:0:
140,222,164724,1,0,0:0:0:0:
140,222,164817,1,0,0:0:0:0:
140,222,164910,1,0,0:0:0:0:
140,222,165004,1,0,0:0:0:0:
140,222,165097,1,0,0:0:0:0:
140,222,165190,1,0,0:0:0:0:
140,222,165283,1,0,0:0:0:0:
140,222,165377,1,8,0:0:0:0:
140,222,165470,1,0,0:0:0:0:
140,222,165563,1,0,0:0:0:0:
140,222,165657,1,0,0:0:0:0:
140,222,165750,1,0,0:0:0:0:
140,222,165843,1,0,0:0:0:0:
140,222,165936,1,0,0:0:0:0:
140,222,166030,1,0,0:0:0:0:
140,222,166123,1,8,0:0:0:0:
140,222,166216,1,0,0:0:0:0:
140,222,166310,1,0,0:0:0:0:
140,222,166403,1,0,0:0:0:0:
140,222,166496,1,0,0:0:0:0:
140,222,166589,1,0,0:0:0:0:
140,222,166683,1,0,0:0:0:0:
140,222,166776,1,0,0:0:0:0:
140,222,166875,1,8,0:0:0:0:
140,222,166964,1,0,0:0:0:0:
140,222,167053,1,0,0:0:0:0:
157,158,167142,1,0,0:0:0:0:
114,118,167232,5,0,0:0:0:0:
114,118,167321,1,0,0:0:0:0:
140,222,167410,1,0,0:0:0:0:
140,222,167500,1,0,0:0:0:0:
140,222,167591,1,8,0:0:0:0:
140,222,167683,1,0,0:0:0:0:
140,222,167777,1,0,0:0:0:0:
140,222,167870,1,0,0:0:0:0:
140,222,167963,1,0,0:0:0:0:
140,222,168056,1,0,0:0:0:0:
140,222,168149,1,0,0:0:0:0:
140,222,168242,1,0,0:0:0:0:
140,222,168336,1,8,0:0:0:0:
140,222,168429,1,0,0:0:0:0:
140,222,168522,1,0,0:0:0:0:
140,222,168615,1,0,0:0:0:0:
140,222,168708,1,0,0:0:0:0:
140,222,168801,1,0,0:0:0:0:
140,222,168895,1,0,0:0:0:0:
140,222,168988,1,0,0:0:0:0:
140,222,169081,1,8,0:0:0:0:
140,222,169174,1,0,0:0:0:0:
140,222,169267,1,0,0:0:0:0:
140,222,169360,1,0,0:0:0:0:
140,222,169454,1,0,0:0:0:0:
140,222,169547,1,0,0:0:0:0:
140,222,169639,1,0,0:0:0:0:
140,222,169733,1,0,0:0:0:0:
140,222,169826,1,8,0:0:0:0:
140,222,169919,1,0,0:0:0:0:
140,222,170013,1,0,0:0:0:0:
222,92,170216,1,12,0:0:0:0:
313,207,170401,1,0,0:0:0:0:
313,207,170494,1,0,0:0:0:0:
235,193,170588,1,8,0:0:0:0:
235,193,170681,1,0,0:0:0:0:
235,193,170775,1,0,0:0:0:0:
235,193,170867,1,0,0:0:0:0:
183,93,170961,1,0,0:0:0:0:
183,93,171054,1,0,0:0:0:0:
183,93,171147,1,0,0:0:0:0:
183,93,171241,1,0,0:0:0:0:
183,93,171334,1,8,0:0:0:0:
183,93,171427,1,0,0:0:0:0:
183,93,171520,1,0,0:0:0:0:
183,93,171614,1,0,0:0:0:0:
135,128,171707,1,0,0:0:0:0:
135,128,171800,1,0,0:0:0:0:
313,207,171894,1,0,0:0:0:0:
313,207,171987,1,0,0:0:0:0:
235,193,172080,1,8,0:0:0:0:
235,193,172173,1,0,0:0:0:0:
235,193,172267,1,0,0:0:0:0:
235,193,172360,1,0,0:0:0:0:
183,93,172453,1,0,0:0:0:0:
183,93,172547,1,0,0:0:0:0:
183,93,172640,1,0,0:0:0:0:
183,93,172733,1,0,0:0:0:0:
183,93,172826,1,8,0:0:0:0:
183,93,172920,1,0,0:0:0:0:
183,93,173013,1,0,0:0:0:0:
183,93,173106,1,0,0:0:0:0:
135,128,173200,1,0,0:0:0:0:
135,128,173293,1,0,0:0:0:0:
313,207,173386,1,0,0:0:0:0:
313,207,173479,1,0,0:0:0:0:
235,193,173573,1,8,0:0:0:0:
235,193,173666,1,0,0:0:0:0:
235,193,173759,1,0,0:0:0:0:
235,193,173853,1,0,0:0:0:0:
183,93,173946,1,0,0:0:0:0:
183,93,174039,1,0,0:0:0:0:
183,93,174132,1,0,0:0:0:0:
183,93,174226,1,0,0:0:0:0:
183,93,174319,1,8,0:0:0:0:
183,93,174412,1,0,0:0:0:0:
183,93,174506,1,0,0:0:0:0:
183,93,174599,1,0,0:0:0:0:
135,128,174692,1,0,0:0:0:0:
135,128,174785,1,0,0:0:0:0:
313,207,174879,1,0,0:0:0:0:
313,207,174972,1,0,0:0:0:0:
235,193,175065,1,8,0:0:0:0:
235,193,175159,1,0,0:0:0:0:
235,193,175252,1,0,0:0:0:0:
235,193,175345,1,0,0:0:0:0:
183,93,175438,1,0,0:0:0:0:
183,93,175532,1,0,0:0:0:0:
183,93,175625,1,0,0:0:0:0:
183,93,175718,1,0,0:0:0:0:
183,93,175812,1,8,0:0:0:0:
183,93,175905,1,0,0:0:0:0:
183,93,175998,1,0,0:0:0:0:
234,148,176192,1,12,0:0:0:0:
283,160,176377,1,0,0:0:0:0:
283,160,176470,1,0,0:0:0:0:
283,160,176563,1,8,0:0:0:0:
283,160,176656,1,8,0:0:0:0:
283,160,176750,1,8,0:0:0:0:
283,160,176843,1,8,0:0:0:0:
258,88,176936,1,0,0:0:0:0:
258,88,177029,1,0,0:0:0:0:
258,88,177122,1,0,0:0:0:0:
258,88,177215,1,0,0:0:0:0:
258,88,177309,1,8,0:0:0:0:
258,88,177402,1,8,0:0:0:0:
258,88,177495,1,8,0:0:0:0:
258,88,177588,1,8,0:0:0:0:
258,88,177681,1,0,0:0:0:0:
258,88,177774,1,0,0:0:0:0:
258,88,177868,1,0,0:0:0:0:
258,88,177961,1,0,0:0:0:0:
258,88,178054,1,8,0:0:0:0:
258,88,178147,1,0,0:0:0:0:
258,88,178240,1,0,0:0:0:0:
258,88,178333,1,0,0:0:0:0:
258,88,178427,1,8,0:0:0:0:
258,88,178520,1,0,0:0:0:0:
258,88,178613,1,8,0:0:0:0:
258,88,178706,1,8,0:0:0:0:
258,88,178799,1,0,0:0:0:0:
258,88,178892,1,0,0:0:0:0:
258,88,178986,1,8,0:0:0:0:
258,88,179079,1,8,0:0:0:0:
258,88,179172,1,0,0:0:0:0:
258,88,179265,1,0,0:0:0:0:
178,128,179358,1,0,0:0:0:0:
178,128,179451,1,0,0:0:0:0:
240,112,179545,1,8,0:0:0:0:
240,112,179638,1,8,0:0:0:0:
240,112,179731,1,8,0:0:0:0:
240,112,179824,1,8,0:0:0:0:
240,112,179917,1,0,0:0:0:0:
240,112,180010,1,0,0:0:0:0:
240,112,180104,1,0,0:0:0:0:
240,112,180197,1,0,0:0:0:0:
240,112,180290,1,8,0:0:0:0:
240,112,180383,1,8,0:0:0:0:
240,112,180476,1,8,0:0:0:0:
240,112,180569,1,8,0:0:0:0:
240,112,180663,1,0,0:0:0:0:
240,112,180756,1,0,0:0:0:0:
240,112,180849,1,0,0:0:0:0:
240,112,180942,1,0,0:0:0:0:
233,120,181035,1,8,0:0:0:0:
233,120,181128,1,8,0:0:0:0:
233,120,181222,1,0,0:0:0:0:
233,120,181315,1,0,0:0:0:0:
233,120,181408,1,8,0:0:0:0:
233,120,181501,1,0,0:0:0:0:
233,120,181594,1,0,0:0:0:0:
233,120,181687,1,0,0:0:0:0:
233,120,181781,1,8,0:0:0:0:
233,120,181874,1,8,0:0:0:0:
233,120,181967,1,0,0:0:0:0:
233,120,182153,1,12,0:0:0:0:
115,142,182340,1,0,0:0:0:0:
283,160,182433,1,0,0:0:0:0:
283,160,182526,1,8,0:0:0:0:
283,160,182619,1,8,0:0:0:0:
283,160,182712,1,8,0:0:0:0:
283,160,182805,1,8,0:0:0:0:
258,88,182899,1,0,0:0:0:0:
258,88,182992,1,0,0:0:0:0:
258,88,183085,1,0,0:0:0:0:
258,88,183178,1,0,0:0:0:0:
258,88,183271,1,8,0:0:0:0:
258,88,183364,1,8,0:0:0:0:
258,88,183458,1,8,0:0:0:0:
258,88,183551,1,8,0:0:0:0:
258,88,183644,1,0,0:0:0:0:
258,88,183737,1,0,0:0:0:0:
258,88,183830,1,0,0:0:0:0:
258,88,183923,1,0,0:0:0:0:
258,88,184017,1,8,0:0:0:0:
258,88,184110,1,0,0:0:0:0:
258,88,184203,1,0,0:0:0:0:
258,88,184296,1,0,0:0:0:0:
258,88,184389,1,8,0:0:0:0:
258,88,184482,1,0,0:0:0:0:
258,88,184576,1,8,0:0:0:0:
258,88,184669,1,8,0:0:0:0:
258,88,184762,1,0,0:0:0:0:
258,88,184855,1,0,0:0:0:0:
258,88,184948,1,8,0:0:0:0:
258,88,185041,1,8,0:0:0:0:
258,88,185135,1,0,0:0:0:0:
258,88,185228,1,0,0:0:0:0:
178,128,185321,1,0,0:0:0:0:
178,128,185414,1,0,0:0:0:0:
240,112,185507,1,8,0:0:0:0:
240,112,185600,1,8,0:0:0:0:
240,112,185694,1,8,0:0:0:0:
240,112,185787,1,8,0:0:0:0:
240,112,185880,1,0,0:0:0:0:
240,112,185973,1,0,0:0:0:0:
240,112,186066,1,0,0:0:0:0:
240,112,186159,1,0,0:0:0:0:
240,112,186253,1,8,0:0:0:0:
240,112,186346,1,8,0:0:0:0:
240,112,186439,1,8,0:0:0:0:
240,112,186532,1,8,0:0:0:0:
240,112,186625,1,0,0:0:0:0:
240,112,186718,1,0,0:0:0:0:
240,112,186813,1,0,0:0:0:0:
240,112,186905,1,0,0:0:0:0:
233,120,186998,1,8,0:0:0:0:
233,120,187091,1,8,0:0:0:0:
233,120,187184,1,0,0:0:0:0:
233,120,187277,1,0,0:0:0:0:
233,120,187371,1,8,0:0:0:0:
233,120,187464,1,0,0:0:0:0:
233,120,187557,1,0,0:0:0:0:
233,120,187650,1,0,0:0:0:0:
233,120,187743,1,8,0:0:0:0:
233,120,187836,1,8,0:0:0:0:
233,120,187930,1,0,0:0:0:0:
233,120,188116,1,12,0:0:0:0:
115,142,188302,1,0,0:0:0:0:
283,160,188395,1,0,0:0:0:0:
283,160,188489,1,8,0:0:0:0:
283,160,188582,1,8,0:0:0:0:
283,160,188675,1,8,0:0:0:0:
283,160,188768,1,8,0:0:0:0:
258,88,188861,1,0,0:0:0:0:
258,88,188954,1,0,0:0:0:0:
258,88,189048,1,0,0:0:0:0:
258,88,189141,1,0,0:0:0:0:
258,88,189234,1,8,0:0:0:0:
258,88,189327,1,8,0:0:0:0:
258,88,189420,1,8,0:0:0:0:
258,88,189513,1,8,0:0:0:0:
258,88,189607,1,0,0:0:0:0:
258,88,189700,1,0,0:0:0:0:
258,88,189793,1,0,0:0:0:0:
258,88,189886,1,0,0:0:0:0:
258,88,189979,1,8,0:0:0:0:
258,88,190072,1,0,0:0:0:0:
258,88,190166,1,0,0:0:0:0:
258,88,190259,1,0,0:0:0:0:
258,88,190352,1,8,0:0:0:0:
258,88,190445,1,0,0:0:0:0:
258,88,190539,1,8,0:0:0:0:
258,88,190631,1,8,0:0:0:0:
258,88,190725,1,0,0:0:0:0:
258,88,190818,1,0,0:0:0:0:
258,88,190911,1,8,0:0:0:0:
258,88,191004,1,8,0:0:0:0:
258,88,191097,1,0,0:0:0:0:
258,88,191191,1,0,0:0:0:0:
178,128,191284,1,0,0:0:0:0:
178,128,191377,1,0,0:0:0:0:
240,112,191470,1,8,0:0:0:0:
240,112,191563,1,8,0:0:0:0:
240,112,191656,1,8,0:0:0:0:
240,112,191750,1,8,0:0:0:0:
240,112,191843,1,0,0:0:0:0:
240,112,191936,1,0,0:0:0:0:
240,112,192029,1,0,0:0:0:0:
240,112,192122,1,0,0:0:0:0:
240,112,192215,1,8,0:0:0:0:
240,112,192309,1,8,0:0:0:0:
240,112,192402,1,8,0:0:0:0:
240,112,192495,1,8,0:0:0:0:
240,112,192588,1,0,0:0:0:0:
240,112,192681,1,0,0:0:0:0:
240,112,192774,1,0,0:0:0:0:
240,112,192868,1,0,0:0:0:0:
233,120,192961,1,8,0:0:0:0:
233,120,193054,1,8,0:0:0:0:
233,120,193147,1,0,0:0:0:0:
233,120,193240,1,0,0:0:0:0:
233,120,193333,1,8,0:0:0:0:
233,120,193427,1,0,0:0:0:0:
233,120,193520,1,0,0:0:0:0:
233,120,193613,1,0,0:0:0:0:
233,120,193706,1,8,0:0:0:0:
233,120,193799,1,8,0:0:0:0:
233,120,193892,1,0,0:0:0:0:
233,120,194079,1,12,0:0:0:0:
115,142,194265,1,0,0:0:0:0:
283,160,194358,1,0,0:0:0:0:
283,160,194451,1,8,0:0:0:0:
283,160,194545,1,8,0:0:0:0:
283,160,194638,1,8,0:0:0:0:
283,160,194731,1,8,0:0:0:0:
258,88,194824,1,0,0:0:0:0:
258,88,194917,1,0,0:0:0:0:
258,88,195010,1,0,0:0:0:0:
258,88,195104,1,0,0:0:0:0:
258,88,195197,1,8,0:0:0:0:
258,88,195290,1,8,0:0:0:0:
258,88,195383,1,8,0:0:0:0:
258,88,195476,1,8,0:0:0:0:
258,88,195569,1,0,0:0:0:0:
258,88,195663,1,0,0:0:0:0:
258,88,195756,1,0,0:0:0:0:
258,88,195849,1,0,0:0:0:0:
258,88,195942,1,8,0:0:0:0:
258,88,196035,1,0,0:0:0:0:
258,88,196128,1,0,0:0:0:0:
258,88,196222,1,0,0:0:0:0:
258,88,196315,1,8,0:0:0:0:
258,88,196408,1,0,0:0:0:0:
258,88,196501,1,8,0:0:0:0:
258,88,196594,1,8,0:0:0:0:
258,88,196687,1,0,0:0:0:0:
258,88,196781,1,0,0:0:0:0:
258,88,196874,1,8,0:0:0:0:
258,88,196967,1,8,0:0:0:0:
258,88,197060,1,0,0:0:0:0:
258,88,197153,1,0,0:0:0:0:
178,128,197246,1,0,0:0:0:0:
178,128,197340,1,0,0:0:0:0:
240,112,197433,1,8,0:0:0:0:
240,112,197526,1,8,0:0:0:0:
240,112,197619,1,8,0:0:0:0:
240,112,197712,1,8,0:0:0:0:
240,112,197805,1,0,0:0:0:0:
240,112,197899,1,0,0:0:0:0:
240,112,197992,1,0,0:0:0:0:
240,112,198085,1,0,0:0:0:0:
240,112,198178,1,8,0:0:0:0:
240,112,198271,1,8,0:0:0:0:
240,112,198364,1,8,0:0:0:0:
240,112,198458,1,8,0:0:0:0:
240,112,198551,1,0,0:0:0:0:
240,112,198644,1,0,0:0:0:0:
240,112,198737,1,0,0:0:0:0:
240,112,198830,1,0,0:0:0:0:
233,120,198923,1,8,0:0:0:0:
233,120,199017,1,8,0:0:0:0:
233,120,199110,1,0,0:0:0:0:
233,120,199203,1,0,0:0:0:0:
233,120,199296,1,8,0:0:0:0:
233,120,199389,1,0,0:0:0:0:
233,120,199482,1,0,0:0:0:0:
233,120,199576,1,0,0:0:0:0:
233,120,199669,1,8,0:0:0:0:
233,120,199762,1,8,0:0:0:0:
233,120,199855,1,0,0:0:0:0:
233,120,200041,1,12,0:0:0:0:
115,142,200228,1,0,0:0:0:0:
283,160,200321,1,0,0:0:0:0:
283,160,200414,1,8,0:0:0:0:
283,160,200507,1,8,0:0:0:0:
283,160,200600,1,8,0:0:0:0:
283,160,200694,1,8,0:0:0:0:
258,88,200787,1,0,0:0:0:0:
258,88,200880,1,0,0:0:0:0:
258,88,200973,1,0,0:0:0:0:
258,88,201066,1,0,0:0:0:0:
258,88,201159,1,8,0:0:0:0:
258,88,201253,1,8,0:0:0:0:
258,88,201346,1,8,0:0:0:0:
258,88,201439,1,8,0:0:0:0:
258,88,201532,1,0,0:0:0:0:
258,88,201625,1,0,0:0:0:0:
258,88,201718,1,0,0:0:0:0:
258,88,201812,1,0,0:0:0:0:
258,88,201905,1,8,0:0:0:0:
258,88,201998,1,0,0:0:0:0:
258,88,202091,1,0,0:0:0:0:
258,88,202184,1,0,0:0:0:0:
258,88,202277,1,8,0:0:0:0:
258,88,202371,1,0,0:0:0:0:
258,88,202464,1,8,0:0:0:0:
258,88,202557,1,8,0:0:0:0:
258,88,202650,1,0,0:0:0:0:
258,88,202743,1,0,0:0:0:0:
258,88,202836,1,8,0:0:0:0:
258,88,202930,1,8,0:0:0:0:
258,88,203023,1,0,0:0:0:0:
258,88,203116,1,0,0:0:0:0:
178,128,203209,1,0,0:0:0:0:
178,128,203302,1,0,0:0:0:0:
240,112,203395,1,8,0:0:0:0:
240,112,203489,1,8,0:0:0:0:
240,112,203582,1,8,0:0:0:0:
240,112,203675,1,8,0:0:0:0:
240,112,203768,1,0,0:0:0:0:
240,112,203861,1,0,0:0:0:0:
240,112,203954,1,0,0:0:0:0:
240,112,204048,1,0,0:0:0:0:
240,112,204141,1,8,0:0:0:0:
240,112,204234,1,8,0:0:0:0:
240,112,204327,1,8,0:0:0:0:
240,112,204420,1,8,0:0:0:0:
240,112,204513,1,0,0:0:0:0:
240,112,204607,1,0,0:0:0:0:
240,112,204700,1,0,0:0:0:0:
240,112,204793,1,0,0:0:0:0:
233,120,204886,1,8,0:0:0:0:
233,120,204979,1,8,0:0:0:0:
233,120,205072,1,0,0:0:0:0:
233,120,205166,1,0,0:0:0:0:
233,120,205259,1,8,0:0:0:0:
233,120,205352,1,0,0:0:0:0:
233,120,205445,1,0,0:0:0:0:
233,120,205538,1,0,0:0:0:0:
233,120,205631,1,8,0:0:0:0:
233,120,205725,1,8,0:0:0:0:
233,120,205818,1,0,0:0:0:0:
233,120,206004,1,12,0:0:0:0:
115,142,206191,1,0,0:0:0:0:
283,160,206284,1,0,0:0:0:0:
283,160,206377,1,8,0:0:0:0:
283,160,206470,1,8,0:0:0:0:
283,160,206563,1,8,0:0:0:0:
283,160,206656,1,8,0:0:0:0:
258,88,206750,1,0,0:0:0:0:
258,88,206843,1,0,0:0:0:0:
258,88,206936,1,0,0:0:0:0:
258,88,207029,1,0,0:0:0:0:
258,88,207122,1,8,0:0:0:0:
258,88,207215,1,8,0:0:0:0:
258,88,207309,1,8,0:0:0:0:
258,88,207402,1,8,0:0:0:0:
258,88,207495,1,0,0:0:0:0:
258,88,207588,1,0,0:0:0:0:
258,88,207681,1,0,0:0:0:0:
258,88,207774,1,0,0:0:0:0:
258,88,207868,1,8,0:0:0:0:
258,88,207961,1,0,0:0:0:0:
258,88,208054,1,0,0:0:0:0:
258,88,208147,1,0,0:0:0:0:
258,88,208240,1,8,0:0:0:0:
258,88,208333,1,0,0:0:0:0:
258,88,208427,1,8,0:0:0:0:
258,88,208521,1,8,0:0:0:0:
258,88,208613,1,0,0:0:0:0:
258,88,208706,1,0,0:0:0:0:
258,88,208799,1,8,0:0:0:0:
258,88,208892,1,8,0:0:0:0:
258,88,208986,1,0,0:0:0:0:
258,88,209079,1,0,0:0:0:0:
178,128,209172,1,0,0:0:0:0:
178,128,209265,1,0,0:0:0:0:
240,112,209358,1,8,0:0:0:0:
240,112,209451,1,8,0:0:0:0:
240,112,209545,1,8,0:0:0:0:
240,112,209638,1,8,0:0:0:0:
240,112,209731,1,0,0:0:0:0:
240,112,209824,1,0,0:0:0:0:
240,112,209917,1,0,0:0:0:0:
240,112,210010,1,0,0:0:0:0:
240,112,210104,1,8,0:0:0:0:
240,112,210197,1,8,0:0:0:0:
240,112,210290,1,8,0:0:0:0:
240,112,210383,1,8,0:0:0:0:
240,112,210476,1,0,0:0:0:0:
240,112,210569,1,0,0:0:0:0:
240,112,210663,1,0,0:0:0:0:
240,112,210756,1,0,0:0:0:0:
233,120,210849,1,8,0:0:0:0:
233,120,210942,1,8,0:0:0:0:
233,120,211035,1,0,0:0:0:0:
233,120,211128,1,0,0:0:0:0:
233,120,211222,1,8,0:0:0:0:
233,120,211315,1,0,0:0:0:0:
233,120,211408,1,0,0:0:0:0:
233,120,211501,1,0,0:0:0:0:
233,120,211594,1,8,0:0:0:0:
233,120,211687,1,8,0:0:0:0:
233,120,211781,1,0,0:0:0:0:
233,120,211967,1,12,0:0:0:0:
115,142,212153,1,0,0:0:0:0:
283,160,212247,1,0,0:0:0:0:
283,160,212340,1,8,0:0:0:0:
283,160,212433,1,8,0:0:0:0:
283,160,212526,1,8,0:0:0:0:
283,160,212619,1,8,0:0:0:0:
258,88,212712,1,0,0:0:0:0:
258,88,212805,1,0,0:0:0:0:
258,88,212899,1,0,0:0:0:0:
258,88,212992,1,0,0:0:0:0:
258,88,213085,1,8,0:0:0:0:
258,88,213178,1,8,0:0:0:0:
258,88,213271,1,8,0:0:0:0:
258,88,213364,1,8,0:0:0:0:
258,88,213458,1,0,0:0:0:0:
258,88,213551,1,0,0:0:0:0:
258,88,213644,1,0,0:0:0:0:
258,88,213737,1,0,0:0:0:0:
258,88,213830,1,8,0:0:0:0:
258,88,213923,1,0,0:0:0:0:
258,88,214017,1,0,0:0:0:0:
258,88,214110,1,0,0:0:0:0:
258,88,214203,1,8,0:0:0:0:
258,88,214296,1,0,0:0:0:0:
258,88,214389,1,8,0:0:0:0:
258,88,214482,1,8,0:0:0:0:
258,88,214576,1,0,0:0:0:0:
258,88,214669,1,0,0:0:0:0:
258,88,214762,1,8,0:0:0:0:
258,88,214855,1,8,0:0:0:0:
258,88,214948,1,0,0:0:0:0:
258,88,215041,1,0,0:0:0:0:
178,128,215135,1,0,0:0:0:0:
178,128,215228,1,0,0:0:0:0:
240,112,215321,1,8,0:0:0:0:
240,112,215414,1,8,0:0:0:0:
240,112,215507,1,8,0:0:0:0:
240,112,215600,1,8,0:0:0:0:
240,112,215694,1,0,0:0:0:0:
240,112,215787,1,0,0:0:0:0:
240,112,215880,1,0,0:0:0:0:
240,112,215973,1,0,0:0:0:0:
240,112,216066,1,8,0:0:0:0:
240,112,216159,1,8,0:0:0:0:
240,112,216253,1,8,0:0:0:0:
240,112,216346,1,8,0:0:0:0:
240,112,216439,1,0,0:0:0:0:
240,112,216532,1,0,0:0:0:0:
240,112,216626,1,0,0:0:0:0:
240,112,216719,1,0,0:0:0:0:
233,120,216813,1,8,0:0:0:0:
233,120,216906,1,8,0:0:0:0:
233,120,217000,1,0,0:0:0:0:
233,120,217093,1,0,0:0:0:0:
233,120,217187,1,8,0:0:0:0:
233,120,217280,1,0,0:0:0:0:
233,120,217374,1,0,0:0:0:0:
233,120,217467,1,0,0:0:0:0:
233,120,217561,1,8,0:0:0:0:
233,120,217654,1,8,0:0:0:0:
233,120,217748,1,0,0:0:0:0:
233,120,217935,1,12,0:0:0:0:
115,142,218122,1,0,0:0:0:0:
283,160,218215,1,0,0:0:0:0:
283,160,218309,1,8,0:0:0:0:
283,160,218403,1,8,0:0:0:0:
283,160,218496,1,8,0:0:0:0:
283,160,218589,1,8,0:0:0:0:
258,88,218683,1,0,0:0:0:0:
258,88,218776,1,0,0:0:0:0:
258,88,218870,1,0,0:0:0:0:
258,88,218963,1,0,0:0:0:0:
258,88,219057,1,8,0:0:0:0:
258,88,219150,1,8,0:0:0:0:
258,88,219244,1,8,0:0:0:0:
258,88,219338,1,8,0:0:0:0:
258,88,219431,1,0,0:0:0:0:
258,88,219525,1,0,0:0:0:0:
258,88,219618,1,0,0:0:0:0:
258,88,219712,1,0,0:0:0:0:
258,88,219805,1,8,0:0:0:0:
258,88,219899,1,0,0:0:0:0:
258,88,219992,1,0,0:0:0:0:
258,88,220086,1,0,0:0:0:0:
258,88,220179,1,8,0:0:0:0:
258,88,220273,1,0,0:0:0:0:
258,88,220366,1,8,0:0:0:0:
258,88,220460,1,8,0:0:0:0:
258,88,220553,1,0,0:0:0:0:
258,88,220647,1,0,0:0:0:0:
258,88,220740,1,8,0:0:0:0:
258,88,220834,1,8,0:0:0:0:
258,88,220927,1,0,0:0:0:0:
258,88,221021,1,0,0:0:0:0:
178,128,221114,1,0,0:0:0:0:
178,128,221208,1,0,0:0:0:0:
240,112,221301,1,8,0:0:0:0:
240,112,221395,1,8,0:0:0:0:
240,112,221488,1,8,0:0:0:0:
240,112,221582,1,8,0:0:0:0:
240,112,221675,1,0,0:0:0:0:
240,112,221769,1,0,0:0:0:0:
240,112,221862,1,0,0:0:0:0:
240,112,221956,1,0,0:0:0:0:
240,112,222049,1,8,0:0:0:0:
240,112,222143,1,8,0:0:0:0:
240,112,222237,1,8,0:0:0:0:
240,112,222330,1,8,0:0:0:0:
240,112,222424,1,0,0:0:0:0:
240,112,222517,1,0,0:0:0:0:
240,112,222611,1,0,0:0:0:0:
240,112,222704,1,0,0:0:0:0:
233,120,222798,1,8,0:0:0:0:
233,120,222891,1,8,0:0:0:0:
233,120,222985,1,0,0:0:0:0:
233,120,223078,1,0,0:0:0:0:
233,120,223172,1,8,0:0:0:0:
233,120,223265,1,0,0:0:0:0:
233,120,223359,1,0,0:0:0:0:
233,120,223452,1,0,0:0:0:0:
233,120,223546,1,8,0:0:0:0:
233,120,223639,1,8,0:0:0:0:
233,120,223733,1,0,0:0:0:0:
114,116,223826,1,8,0:0:0:0:
114,116,223920,1,0,0:0:0:0:
297,161,224286,1,8,0:0:0:0:
297,161,224378,1,0,0:0:0:0:
297,161,224471,1,8,0:0:0:0:
297,161,224564,1,8,0:0:0:0:
297,161,224657,1,0,0:0:0:0:
297,161,224750,1,0,0:0:0:0:
297,161,224844,1,8,0:0:0:0:
297,161,224937,1,8,0:0:0:0:
150,105,225030,1,8,0:0:0:0:
150,105,225123,1,8,0:0:0:0:
150,105,225216,1,8,0:0:0:0:
150,105,225309,1,8,0:0:0:0:
150,105,225403,1,0,0:0:0:0:
150,105,225496,1,0,0:0:0:0:
150,105,225589,1,0,0:0:0:0:
150,105,225682,1,0,0:0:0:0:
150,105,225775,1,8,0:0:0:0:
150,105,225868,1,0,0:0:0:0:
234,110,225962,1,8,0:0:0:0:
234,110,226055,1,8,0:0:0:0:
234,110,226148,1,8,0:0:0:0:
234,110,226241,1,8,0:0:0:0:
234,110,226334,1,8,0:0:0:0:
234,110,226427,1,8,0:0:0:0:
234,110,226521,1,0,0:0:0:0:
234,110,226614,1,0,0:0:0:0:
234,110,226707,1,0,0:0:0:0:
234,110,226800,1,0,0:0:0:0:
234,110,226893,1,0,0:0:0:0:
123,116,227080,1,0,0:0:0:0:
123,116,227173,1,0,0:0:0:0:
123,116,227266,1,8,0:0:0:0:
123,116,227359,1,8,0:0:0:0:
123,116,227452,1,8,0:0:0:0:
123,116,227545,1,8,0:0:0:0:
123,116,227639,1,0,0:0:0:0:
123,116,227732,1,0,0:0:0:0:
123,116,227825,1,8,0:0:0:0:
123,116,227918,1,8,0:0:0:0:
123,116,228011,1,8,0:0:0:0:
123,116,228104,1,8,0:0:0:0:
123,116,228198,1,0,0:0:0:0:
123,116,228291,1,0,0:0:0:0:
123,116,228384,1,8,0:0:0:0:
123,116,228478,1,2,0:0:0:0:
123,116,228570,1,0,0:0:0:0:
123,116,228663,1,0,0:0:0:0:
123,116,228757,1,0,0:0:0:0:
123,116,228850,1,0,0:0:0:0:
123,116,228943,1,8,0:0:0:0:
123,116,229036,1,8,0:0:0:0:
123,116,229129,1,8,0:0:0:0:
123,116,229222,1,8,0:0:0:0:
123,116,229316,1,8,0:0:0:0:
123,116,229409,1,8,0:0:0:0:
123,116,229502,1,0,0:0:0:0:
123,116,229595,1,0,0:0:0:0:
123,116,229688,1,8,0:0:0:0:
123,116,229781,1,8,0:0:0:0:
123,116,229875,1,0,0:0:0:0:
197,121,230061,1,0,0:0:0:0:
190,108,230154,1,0,0:0:0:0:
190,108,230247,1,8,0:0:0:0:
123,116,230340,1,0,0:0:0:0:
123,116,230434,1,8,0:0:0:0:
123,116,230527,1,8,0:0:0:0:
123,116,230620,1,0,0:0:0:0:
123,116,230713,1,0,0:0:0:0:
123,116,230806,1,8,0:0:0:0:
123,116,230899,1,0,0:0:0:0:
123,116,230993,1,0,0:0:0:0:
123,116,231086,1,8,0:0:0:0:
123,116,231179,1,0,0:0:0:0:
123,116,231272,1,0,0:0:0:0:
123,116,231365,1,8,0:0:0:0:
173,146,231458,1,0,0:0:0:0:
173,146,231552,1,0,0:0:0:0:
173,146,231645,1,8,0:0:0:0:
211,127,231738,1,8,0:0:0:0:
211,127,231831,1,8,0:0:0:0:
211,127,231924,1,8,0:0:0:0:
211,127,232017,1,8,0:0:0:0:
211,127,232111,1,8,0:0:0:0:
211,127,232204,1,8,0:0:0:0:
211,127,232297,1,0,0:0:0:0:
211,127,232390,1,0,0:0:0:0:
211,127,232483,1,8,0:0:0:0:
211,127,232576,1,0,0:0:0:0:
211,127,232670,1,0,0:0:0:0:
211,127,232763,1,0,0:0:0:0:
211,127,232856,1,0,0:0:0:0:
194,108,233042,1,0,0:0:0:0:
195,108,233135,1,0,0:0:0:0:
211,127,233229,1,8,0:0:0:0:
211,127,233322,1,8,0:0:0:0:
211,127,233415,1,8,0:0:0:0:
211,127,233508,1,8,0:0:0:0:
211,127,233601,1,0,0:0:0:0:
211,127,233694,1,0,0:0:0:0:
211,127,233788,1,8,0:0:0:0:
115,133,233881,1,8,0:0:0:0:
194,108,233974,1,0,0:0:0:0:
198,104,234067,1,0,0:0:0:0:
198,104,234160,1,0,0:0:0:0:
194,108,234253,1,0,0:0:0:0:
194,108,234347,1,0,0:0:0:0:
194,108,234441,1,0,0:0:0:0:
194,108,234533,1,0,0:0:0:0:
194,108,234626,1,0,0:0:0:0:
194,108,234719,1,8,0:0:0:0:
194,108,234812,1,8,0:0:0:0:
194,108,234906,1,8,0:0:0:0:
198,104,234999,1,8,0:0:0:0:
198,104,235092,1,8,0:0:0:0:
194,108,235185,1,8,0:0:0:0:
194,108,235278,1,8,0:0:0:0:
194,108,235371,1,8,0:0:0:0:
194,108,235465,1,0,0:0:0:0:
194,108,235558,1,0,0:0:0:0:
194,108,235651,1,0,0:0:0:0:
218,67,235837,1,12,0:0:0:0:
282,119,236024,1,0,0:0:0:0:
282,119,236117,1,0,0:0:0:0:
123,221,236210,1,8,0:0:0:0:
123,221,236303,1,0,0:0:0:0:
123,221,236396,1,8,0:0:0:0:
185,160,236489,1,8,0:0:0:0:
185,160,236583,1,0,0:0:0:0:
185,160,236676,1,0,0:0:0:0:
185,160,236769,1,8,0:0:0:0:
185,160,236862,1,0,0:0:0:0:
185,160,236955,1,8,0:0:0:0:
185,160,237048,1,8,0:0:0:0:
185,160,237142,1,0,0:0:0:0:
185,160,237235,1,0,0:0:0:0:
185,160,237328,1,0,0:0:0:0:
185,160,237421,1,0,0:0:0:0:
185,160,237514,1,0,0:0:0:0:
185,160,237607,1,0,0:0:0:0:
185,160,237701,1,8,0:0:0:0:
185,160,237794,1,8,0:0:0:0:
185,160,237887,1,8,0:0:0:0:
185,160,237980,1,8,0:0:0:0:
185,160,238073,1,8,0:0:0:0:
185,160,238167,1,8,0:0:0:0:
185,160,238260,1,8,0:0:0:0:
185,160,238353,1,8,0:0:0:0:
185,160,238446,1,0,0:0:0:0:
185,160,238539,1,0,0:0:0:0:
185,160,238632,1,0,0:0:0:0:
185,160,238725,1,0,0:0:0:0:
185,160,238819,1,0,0:0:0:0:
207,152,239005,1,0,0:0:0:0:
207,152,239098,1,0,0:0:0:0:
203,213,239191,1,8,0:0:0:0:
207,152,239284,1,8,0:0:0:0:
207,152,239378,1,8,0:0:0:0:
207,152,239471,1,8,0:0:0:0:
207,152,239564,1,0,0:0:0:0:
207,152,239657,1,0,0:0:0:0:
207,152,239750,1,8,0:0:0:0:
207,152,239843,1,8,0:0:0:0:
207,152,239937,1,0,0:0:0:0:
207,152,240030,1,0,0:0:0:0:
207,152,240123,1,0,0:0:0:0:
207,152,240216,1,0,0:0:0:0:
207,152,240309,1,8,0:0:0:0:
207,152,240403,1,0,0:0:0:0:
207,152,240496,1,0,0:0:0:0:
207,152,240589,1,0,0:0:0:0:
207,152,240682,1,0,0:0:0:0:
207,152,240775,1,0,0:0:0:0:
207,152,240868,1,8,0:0:0:0:
207,152,240962,1,8,0:0:0:0:
207,152,241055,1,8,0:0:0:0:
207,152,241148,1,8,0:0:0:0:
207,152,241241,1,8,0:0:0:0:
207,152,241334,1,8,0:0:0:0:
207,152,241427,1,0,0:0:0:0:
207,152,241521,1,0,0:0:0:0:
207,152,241614,1,0,0:0:0:0:
207,152,241707,1,0,0:0:0:0:
207,152,241800,1,0,0:0:0:0:
207,152,241986,1,0,0:0:0:0:
207,152,242080,1,0,0:0:0:0:
207,152,242173,1,8,0:0:0:0:
207,152,242266,1,8,0:0:0:0:
207,152,242359,1,8,0:0:0:0:
207,152,242452,1,8,0:0:0:0:
207,152,242545,1,0,0:0:0:0:
207,152,242639,1,0,0:0:0:0:
207,152,242732,1,8,0:0:0:0:
207,152,242825,1,8,0:0:0:0:
207,152,242918,1,0,0:0:0:0:
207,152,243011,1,0,0:0:0:0:
207,152,243104,1,8,0:0:0:0:
207,152,243198,1,8,0:0:0:0:
207,152,243291,1,8,0:0:0:0:
207,152,243384,1,8,0:0:0:0:
207,152,243477,1,8,0:0:0:0:
126,131,243570,1,8,0:0:0:0:
278,112,243663,1,8,0:0:0:0:
278,112,243757,1,8,0:0:0:0:
278,112,243850,1,8,0:0:0:0:
278,112,243943,1,8,0:0:0:0:
278,112,244036,1,8,0:0:0:0:
278,112,244129,1,8,0:0:0:0:
278,112,244222,1,0,0:0:0:0:
278,112,244316,1,0,0:0:0:0:
278,112,244409,1,0,0:0:0:0:
278,112,244502,1,0,0:0:0:0:
278,112,244595,1,0,0:0:0:0:
278,112,244781,1,0,0:0:0:0:
278,112,244875,1,0,0:0:0:0:
278,112,244968,1,0,0:0:0:0:
278,112,245061,1,0,0:0:0:0:
278,112,245154,1,8,0:0:0:0:
278,112,245247,1,0,0:0:0:0:
278,112,245340,1,8,0:0:0:0:
278,112,245434,1,8,0:0:0:0:
278,112,245527,1,0,0:0:0:0:
278,112,245620,1,0,0:0:0:0:
278,112,245713,1,0,0:0:0:0:
278,112,245806,1,0,0:0:0:0:
278,112,245899,1,8,0:0:0:0:
278,112,245993,1,0,0:0:0:0:
278,112,246086,1,8,0:0:0:0:
278,112,246179,1,8,0:0:0:0:
278,112,246272,1,8,0:0:0:0:
165,126,246365,1,8,0:0:0:0:
165,126,246458,1,8,0:0:0:0:
165,126,246552,1,8,0:0:0:0:
278,112,246645,1,0,0:0:0:0:
278,112,246738,1,0,0:0:0:0:
278,112,246831,1,0,0:0:0:0:
278,112,246924,1,0,0:0:0:0:
278,112,247017,1,0,0:0:0:0:
278,112,247111,1,0,0:0:0:0:
278,112,247204,1,0,0:0:0:0:
278,112,247297,1,0,0:0:0:0:
278,112,247390,1,0,0:0:0:0:
278,112,247483,1,0,0:0:0:0:
278,112,247576,1,0,0:0:0:0:
278,112,247763,1,12,0:0:0:0:
59,121,247949,1,8,0:0:0:0:
59,121,248042,1,8,0:0:0:0:
59,121,248135,1,8,0:0:0:0:
188,78,248229,1,8,0:0:0:0:
188,78,248322,1,8,0:0:0:0:
188,78,248415,1,8,0:0:0:0:
188,78,248508,1,8,0:0:0:0:
188,78,248601,1,8,0:0:0:0:
59,121,248694,1,8,0:0:0:0:
59,121,248788,1,8,0:0:0:0:
59,121,248881,1,8,0:0:0:0:
188,78,248974,1,8,0:0:0:0:
188,78,249067,1,8,0:0:0:0:
188,78,249160,1,8,0:0:0:0:
188,78,249253,1,8,0:0:0:0:
188,78,249347,1,8,0:0:0:0:
59,121,249440,1,8,0:0:0:0:
59,121,249533,1,8,0:0:0:0:
59,121,249626,1,8,0:0:0:0:
188,78,249719,1,8,0:0:0:0:
188,78,249812,1,8,0:0:0:0:
188,78,249906,1,8,0:0:0:0:
188,78,249999,1,8,0:0:0:0:
188,78,250092,1,8,0:0:0:0:
59,121,250185,1,8,0:0:0:0:
59,121,250278,1,8,0:0:0:0:
59,121,250371,1,8,0:0:0:0:
188,78,250465,1,8,0:0:0:0:
188,78,250558,1,8,0:0:0:0:
188,78,250651,1,8,0:0:0:0:
188,78,250744,1,8,0:0:0:0:
188,78,250837,1,8,0:0:0:0:
59,121,250930,1,8,0:0:0:0:
59,121,251024,1,8,0:0:0:0:
59,121,251117,1,8,0:0:0:0:
188,78,251210,1,8,0:0:0:0:
188,78,251303,1,8,0:0:0:0:
188,78,251396,1,8,0:0:0:0:
188,78,251489,1,8,0:0:0:0:
188,78,251583,1,8,0:0:0:0:
59,121,251676,1,8,0:0:0:0:
59,121,251769,1,8,0:0:0:0:
59,121,251862,1,8,0:0:0:0:
188,78,251955,1,8,0:0:0:0:
188,78,252048,1,0,0:0:0:0:
188,78,252142,1,0,0:0:0:0:
188,78,252235,1,0,0:0:0:0:
188,78,252328,1,0,0:0:0:0:
164,107,252421,1,0,0:0:0:0:
164,107,252514,1,0,0:0:0:0:
164,107,252607,1,0,0:0:0:0:
164,107,252701,1,0,0:0:0:0:
164,107,252794,1,0,0:0:0:0:
164,107,252887,1,0,0:0:0:0:
164,107,252980,1,0,0:0:0:0:
164,107,253073,1,0,0:0:0:0:
164,107,253166,1,0,0:0:0:0:
164,107,253260,1,0,0:0:0:0:
164,107,253353,1,0,0:0:0:0:
164,107,253446,1,0,0:0:0:0:
164,107,253539,1,0,0:0:0:0:
164,107,253725,1,12,0:0:0:0:
202,177,253912,1,0,0:0:0:0:
202,177,254005,1,0,0:0:0:0:
202,177,254098,1,8,0:0:0:0:
202,177,254191,1,0,0:0:0:0:
202,177,254284,1,0,0:0:0:0:
202,177,254378,1,0,0:0:0:0:
202,177,254471,1,0,0:0:0:0:
202,177,254564,1,0,0:0:0:0:
202,177,254657,1,0,0:0:0:0:
202,177,254750,1,0,0:0:0:0:
202,177,254843,1,8,0:0:0:0:
202,177,254937,1,0,0:0:0:0:
202,177,255030,1,0,0:0:0:0:
202,177,255123,1,0,0:0:0:0:
126,120,255216,1,0,0:0:0:0:
126,120,255309,1,0,0:0:0:0:
202,177,255403,1,0,0:0:0:0:
202,177,255496,1,0,0:0:0:0:
202,177,255589,1,8,0:0:0:0:
202,177,255682,1,0,0:0:0:0:
202,177,255775,1,0,0:0:0:0:
202,177,255868,1,0,0:0:0:0:
202,177,255962,1,0,0:0:0:0:
202,177,256055,1,0,0:0:0:0:
202,177,256149,1,0,0:0:0:0:
202,177,256241,1,0,0:0:0:0:
202,177,256334,1,8,0:0:0:0:
202,177,256427,1,0,0:0:0:0:
202,177,256521,1,0,0:0:0:0:
202,177,256614,1,0,0:0:0:0:
126,120,256707,1,0,0:0:0:0:
126,120,256800,1,0,0:0:0:0:
202,177,256893,1,0,0:0:0:0:
202,177,256986,1,0,0:0:0:0:
202,177,257080,1,8,0:0:0:0:
202,177,257173,1,0,0:0:0:0:
202,177,257266,1,0,0:0:0:0:
202,177,257359,1,0,0:0:0:0:
202,177,257452,1,0,0:0:0:0:
202,177,257545,1,0,0:0:0:0:
202,177,257639,1,0,0:0:0:0:
202,177,257732,1,0,0:0:0:0:
202,177,257825,1,8,0:0:0:0:
202,177,257918,1,0,0:0:0:0:
202,177,258011,1,0,0:0:0:0:
202,177,258104,1,0,0:0:0:0:
126,120,258198,1,0,0:0:0:0:
126,120,258291,1,0,0:0:0:0:
202,177,258384,1,0,0:0:0:0:
202,177,258477,1,0,0:0:0:0:
202,177,258570,1,8,0:0:0:0:
202,177,258663,1,0,0:0:0:0:
202,177,258757,1,0,0:0:0:0:
202,177,258850,1,0,0:0:0:0:
202,177,258943,1,0,0:0:0:0:
202,177,259036,1,0,0:0:0:0:
202,177,259129,1,0,0:0:0:0:
202,177,259222,1,0,0:0:0:0:
202,177,259316,1,8,0:0:0:0:
202,177,259409,1,0,0:0:0:0:
202,177,259502,1,0,0:0:0:0:
195,133,259688,5,12,0:0:0:0:
202,177,259875,1,0,0:0:0:0:
202,177,259968,1,0,0:0:0:0:
202,177,260061,1,8,0:0:0:0:
202,177,260154,1,0,0:0:0:0:
202,177,260247,1,0,0:0:0:0:
202,177,260340,1,0,0:0:0:0:
202,177,260434,1,0,0:0:0:0:
202,177,260527,1,0,0:0:0:0:
202,177,260620,1,0,0:0:0:0:
202,177,260713,1,0,0:0:0:0:
202,177,260806,1,8,0:0:0:0:
202,177,260899,1,0,0:0:0:0:
202,177,260993,1,0,0:0:0:0:
202,177,261086,1,0,0:0:0:0:
126,120,261179,1,0,0:0:0:0:
126,120,261272,1,0,0:0:0:0:
202,177,261365,1,0,0:0:0:0:
202,177,261458,1,0,0:0:0:0:
202,177,261552,1,8,0:0:0:0:
202,177,261645,1,0,0:0:0:0:
202,177,261738,1,0,0:0:0:0:
202,177,261831,1,0,0:0:0:0:
202,177,261924,1,0,0:0:0:0:
202,177,262017,1,0,0:0:0:0:
202,177,262111,1,0,0:0:0:0:
202,177,262204,1,0,0:0:0:0:
202,177,262297,1,8,0:0:0:0:
202,177,262390,1,0,0:0:0:0:
202,177,262483,1,0,0:0:0:0:
202,177,262576,1,0,0:0:0:0:
126,120,262670,1,0,0:0:0:0:
126,120,262763,1,0,0:0:0:0:
202,177,262856,1,0,0:0:0:0:
202,177,262949,1,0,0:0:0:0:
202,177,263042,1,8,0:0:0:0:
202,177,263135,1,0,0:0:0:0:
202,177,263229,1,0,0:0:0:0:
202,177,263322,1,0,0:0:0:0:
202,177,263415,1,0,0:0:0:0:
202,177,263508,1,0,0:0:0:0:
202,177,263601,1,0,0:0:0:0:
202,177,263694,1,0,0:0:0:0:
202,177,263788,1,8,0:0:0:0:
202,177,263881,1,0,0:0:0:0:
202,177,263974,1,0,0:0:0:0:
202,177,264067,1,0,0:0:0:0:
126,120,264160,1,0,0:0:0:0:
126,120,264253,1,0,0:0:0:0:
202,177,264347,1,0,0:0:0:0:
202,177,264440,1,0,0:0:0:0:
202,177,264533,1,8,0:0:0:0:
202,177,264626,1,0,0:0:0:0:
202,177,264719,1,0,0:0:0:0:
202,177,264812,1,0,0:0:0:0:
202,177,264906,1,0,0:0:0:0:
202,177,264999,1,0,0:0:0:0:
202,177,265092,1,0,0:0:0:0:
202,177,265185,1,0,0:0:0:0:
202,177,265278,1,8,0:0:0:0:
202,177,265371,1,0,0:0:0:0:
202,177,265465,1,0,0:0:0:0:
197,85,265651,1,12,0:0:0:0:
202,177,265837,1,0,0:0:0:0:
202,177,265930,1,0,0:0:0:0:
202,177,266024,1,8,0:0:0:0:
202,177,266117,1,0,0:0:0:0:
202,177,266210,1,0,0:0:0:0:
202,177,266303,1,0,0:0:0:0:
202,177,266396,1,0,0:0:0:0:
202,177,266489,1,0,0:0:0:0:
202,177,266583,1,0,0:0:0:0:
202,177,266676,1,0,0:0:0:0:
202,177,266769,1,8,0:0:0:0:
202,177,266862,1,0,0:0:0:0:
202,177,266955,1,0,0:0:0:0:
202,177,267048,1,0,0:0:0:0:
126,120,267142,1,0,0:0:0:0:
126,120,267235,1,0,0:0:0:0:
202,177,267328,1,0,0:0:0:0:
202,177,267421,1,0,0:0:0:0:
202,177,267514,1,8,0:0:0:0:
202,177,267607,1,0,0:0:0:0:
202,177,267701,1,0,0:0:0:0:
202,177,267794,1,0,0:0:0:0:
202,177,267887,1,0,0:0:0:0:
202,177,267980,1,0,0:0:0:0:
202,177,268073,1,0,0:0:0:0:
202,177,268166,1,0,0:0:0:0:
202,177,268260,1,8,0:0:0:0:
202,177,268353,1,0,0:0:0:0:
202,177,268446,1,0,0:0:0:0:
202,177,268539,1,0,0:0:0:0:
126,120,268632,1,0,0:0:0:0:
126,120,268725,1,0,0:0:0:0:
202,177,268819,1,0,0:0:0:0:
202,177,268912,1,0,0:0:0:0:
202,177,269005,1,8,0:0:0:0:
202,177,269098,1,0,0:0:0:0:
202,177,269191,1,0,0:0:0:0:
202,177,269284,1,0,0:0:0:0:
202,177,269378,1,0,0:0:0:0:
202,177,269471,1,0,0:0:0:0:
202,177,269564,1,0,0:0:0:0:
202,177,269657,1,0,0:0:0:0:
202,177,269750,1,8,0:0:0:0:
202,177,269843,1,0,0:0:0:0:
202,177,269937,1,0,0:0:0:0:
202,177,270030,1,0,0:0:0:0:
126,120,270123,1,0,0:0:0:0:
126,120,270216,1,0,0:0:0:0:
202,177,270309,1,0,0:0:0:0:
202,177,270403,1,0,0:0:0:0:
202,177,270496,1,8,0:0:0:0:
202,177,270589,1,0,0:0:0:0:
202,177,270682,1,0,0:0:0:0:
202,177,270775,1,0,0:0:0:0:
202,177,270868,1,0,0:0:0:0:
202,177,270962,1,0,0:0:0:0:
202,177,271055,1,0,0:0:0:0:
202,177,271148,1,0,0:0:0:0:
202,177,271241,1,8,0:0:0:0:
202,177,271334,1,0,0:0:0:0:
202,177,271427,1,0,0:0:0:0:
269,93,271647,1,12,0:0:0:0:
188,196,272003,1,8,0:0:0:0:
188,196,272095,1,8,0:0:0:0:
188,196,272188,1,0,0:0:0:0:
188,196,272281,1,0,0:0:0:0:
192,110,272374,1,8,0:0:0:0:
192,110,272467,1,0,0:0:0:0:
192,110,272561,1,0,0:0:0:0:
192,110,272654,1,0,0:0:0:0:
188,196,272747,1,8,0:0:0:0:
188,196,272840,1,8,0:0:0:0:
188,196,272933,1,0,0:0:0:0:
188,196,273026,1,0,0:0:0:0:
192,110,273120,1,8,0:0:0:0:
192,110,273213,1,0,0:0:0:0:
192,110,273306,1,0,0:0:0:0:
192,110,273399,1,0,0:0:0:0:
188,196,273492,1,8,0:0:0:0:
188,196,273585,1,8,0:0:0:0:
188,196,273679,1,0,0:0:0:0:
188,196,273772,1,0,0:0:0:0:
192,110,273865,1,8,0:0:0:0:
192,110,273958,1,0,0:0:0:0:
192,110,274051,1,0,0:0:0:0:
192,110,274144,1,0,0:0:0:0:
188,196,274238,1,8,0:0:0:0:
188,196,274331,1,8,0:0:0:0:
188,196,274424,1,0,0:0:0:0:
188,196,274517,1,0,0:0:0:0:
192,110,274610,1,8,0:0:0:0:
192,110,274703,1,0,0:0:0:0:
192,110,274797,1,0,0:0:0:0:
192,110,274890,1,0,0:0:0:0:
188,196,274983,1,8,0:0:0:0:
188,196,275076,1,8,0:0:0:0:
188,196,275169,1,0,0:0:0:0:
188,196,275262,1,0,0:0:0:0:
192,110,275356,1,8,0:0:0:0:
192,110,275449,1,0,0:0:0:0:
192,110,275542,1,0,0:0:0:0:
192,110,275635,1,0,0:0:0:0:
283,50,275728,1,8,0:0:0:0:
283,50,275821,1,8,0:0:0:0:
276,68,275915,1,0,0:0:0:0:
276,68,276008,1,0,0:0:0:0:
296,100,276101,1,8,0:0:0:0:
296,100,276194,1,0,0:0:0:0:
296,100,276287,1,0,0:0:0:0:
296,100,276380,1,0,0:0:0:0:
296,100,276474,1,8,0:0:0:0:
296,100,276567,1,8,0:0:0:0:
296,100,276660,1,0,0:0:0:0:
296,100,276753,1,0,0:0:0:0:
296,100,276846,1,8,0:0:0:0:
296,100,276939,1,0,0:0:0:0:
296,100,277033,1,0,0:0:0:0:
296,100,277126,1,0,0:0:0:0:
296,100,277219,1,8,0:0:0:0:
296,100,277312,1,8,0:0:0:0:
296,100,277405,1,0,0:0:0:0:
206,49,277592,1,12,0:0:0:0:
136,164,277778,1,0,0:0:0:0:
136,164,277871,1,0,0:0:0:0:
188,196,277964,1,8,0:0:0:0:
188,196,278057,1,8,0:0:0:0:
188,196,278151,1,0,0:0:0:0:
188,196,278244,1,0,0:0:0:0:
192,110,278337,1,8,0:0:0:0:
192,110,278430,1,0,0:0:0:0:
192,110,278523,1,0,0:0:0:0:
192,110,278616,1,0,0:0:0:0:
188,196,278710,1,8,0:0:0:0:
188,196,278803,1,8,0:0:0:0:
188,196,278896,1,0,0:0:0:0:
188,196,278989,1,0,0:0:0:0:
192,110,279082,1,8,0:0:0:0:
192,110,279175,1,0,0:0:0:0:
192,110,279269,1,0,0:0:0:0:
192,110,279362,1,0,0:0:0:0:
188,196,279455,1,8,0:0:0:0:
188,196,279548,1,8,0:0:0:0:
188,196,279641,1,0,0:0:0:0:
188,196,279734,1,0,0:0:0:0:
192,110,279828,1,8,0:0:0:0:
192,110,279921,1,0,0:0:0:0:
192,110,280014,1,0,0:0:0:0:
192,110,280107,1,0,0:0:0:0:
188,196,280200,1,8,0:0:0:0:
188,196,280293,1,8,0:0:0:0:
188,196,280387,1,0,0:0:0:0:
188,196,280480,1,0,0:0:0:0:
192,110,280573,1,8,0:0:0:0:
192,110,280666,1,0,0:0:0:0:
192,110,280759,1,0,0:0:0:0:
192,110,280852,1,0,0:0:0:0:
188,196,280946,1,8,0:0:0:0:
188,196,281039,1,8,0:0:0:0:
188,196,281132,1,0,0:0:0:0:
188,196,281225,1,0,0:0:0:0:
192,110,281318,1,8,0:0:0:0:
192,110,281411,1,0,0:0:0:0:
192,110,281505,1,0,0:0:0:0:
192,110,281598,1,0,0:0:0:0:
283,50,281691,1,8,0:0:0:0:
283,50,281784,1,8,0:0:0:0:
276,68,281877,1,0,0:0:0:0:
276,68,281970,1,0,0:0:0:0:
296,100,282064,1,8,0:0:0:0:
296,100,282157,1,0,0:0:0:0:
296,100,282250,1,0,0:0:0:0:
296,100,282343,1,0,0:0:0:0:
296,100,282436,1,8,0:0:0:0:
296,100,282529,1,8,0:0:0:0:
296,100,282623,1,0,0:0:0:0:
296,100,282717,1,0,0:0:0:0:
296,100,282809,1,8,0:0:0:0:
296,100,282902,1,0,0:0:0:0:
296,100,282995,1,0,0:0:0:0:
296,100,283088,1,0,0:0:0:0:
296,100,283182,1,8,0:0:0:0:
296,100,283275,1,8,0:0:0:0:
296,100,283368,1,0,0:0:0:0:
206,49,283554,1,12,0:0:0:0:
232,64,283741,1,0,0:0:0:0:
232,64,283834,1,0,0:0:0:0:
188,196,283927,1,8,0:0:0:0:
188,196,284020,1,8,0:0:0:0:
188,196,284113,1,0,0:0:0:0:
188,196,284206,1,0,0:0:0:0:
192,110,284300,1,8,0:0:0:0:
192,110,284393,1,0,0:0:0:0:
192,110,284486,1,0,0:0:0:0:
192,110,284579,1,0,0:0:0:0:
188,196,284672,1,8,0:0:0:0:
188,196,284765,1,8,0:0:0:0:
188,196,284859,1,0,0:0:0:0:
188,196,284952,1,0,0:0:0:0:
192,110,285045,1,8,0:0:0:0:
192,110,285138,1,0,0:0:0:0:
192,110,285231,1,0,0:0:0:0:
192,110,285324,1,0,0:0:0:0:
188,196,285418,1,8,0:0:0:0:
188,196,285511,1,8,0:0:0:0:
188,196,285604,1,0,0:0:0:0:
188,196,285697,1,0,0:0:0:0:
192,110,285790,1,8,0:0:0:0:
192,110,285883,1,0,0:0:0:0:
192,110,285977,1,0,0:0:0:0:
192,110,286070,1,0,0:0:0:0:
188,196,286163,1,8,0:0:0:0:
188,196,286256,1,8,0:0:0:0:
188,196,286349,1,0,0:0:0:0:
188,196,286443,1,0,0:0:0:0:
192,110,286536,1,8,0:0:0:0:
192,110,286629,1,0,0:0:0:0:
192,110,286722,1,0,0:0:0:0:
192,110,286815,1,0,0:0:0:0:
188,196,286908,1,8,0:0:0:0:
188,196,287001,1,8,0:0:0:0:
188,196,287095,1,0,0:0:0:0:
188,196,287188,1,0,0:0:0:0:
192,110,287281,1,8,0:0:0:0:
192,110,287374,1,0,0:0:0:0:
192,110,287467,1,0,0:0:0:0:
192,110,287560,1,0,0:0:0:0:
283,50,287654,1,8,0:0:0:0:
283,50,287747,1,8,0:0:0:0:
276,68,287840,1,0,0:0:0:0:
276,68,287933,1,0,0:0:0:0:
296,100,288026,1,8,0:0:0:0:
296,100,288120,1,0,0:0:0:0:
296,100,288213,1,0,0:0:0:0:
296,100,288306,1,0,0:0:0:0:
296,100,288399,1,8,0:0:0:0:
296,100,288492,1,8,0:0:0:0:
296,100,288585,1,0,0:0:0:0:
296,100,288679,1,0,0:0:0:0:
296,100,288772,1,8,0:0:0:0:
296,100,288865,1,0,0:0:0:0:
296,100,288958,1,0,0:0:0:0:
296,100,289051,1,0,0:0:0:0:
296,100,289144,1,8,0:0:0:0:
296,100,289238,1,8,0:0:0:0:
296,100,289331,1,0,0:0:0:0:
206,49,289517,1,12,0:0:0:0:
217,77,289703,1,0,0:0:0:0:
217,77,289797,1,0,0:0:0:0:
188,196,289890,1,8,0:0:0:0:
188,196,289983,1,8,0:0:0:0:
188,196,290076,1,0,0:0:0:0:
188,196,290169,1,0,0:0:0:0:
192,110,290262,1,8,0:0:0:0:
192,110,290356,1,0,0:0:0:0:
192,110,290449,1,0,0:0:0:0:
192,110,290542,1,0,0:0:0:0:
188,196,290635,1,8,0:0:0:0:
188,196,290728,1,8,0:0:0:0:
188,196,290821,1,0,0:0:0:0:
188,196,290915,1,0,0:0:0:0:
192,110,291008,1,8,0:0:0:0:
192,110,291101,1,0,0:0:0:0:
192,110,291194,1,0,0:0:0:0:
192,110,291287,1,0,0:0:0:0:
188,196,291380,1,8,0:0:0:0:
188,196,291474,1,8,0:0:0:0:
188,196,291567,1,0,0:0:0:0:
188,196,291660,1,0,0:0:0:0:
192,110,291753,1,8,0:0:0:0:
192,110,291846,1,0,0:0:0:0:
192,110,291939,1,0,0:0:0:0:
192,110,292033,1,0,0:0:0:0:
188,196,292126,1,8,0:0:0:0:
188,196,292219,1,8,0:0:0:0:
188,196,292312,1,0,0:0:0:0:
188,196,292405,1,0,0:0:0:0:
192,110,292498,1,8,0:0:0:0:
192,110,292592,1,0,0:0:0:0:
192,110,292685,1,0,0:0:0:0:
192,110,292778,1,0,0:0:0:0:
188,196,292871,1,8,0:0:0:0:
188,196,292964,1,8,0:0:0:0:
188,196,293057,1,0,0:0:0:0:
188,196,293151,1,0,0:0:0:0:
192,110,293244,1,8,0:0:0:0:
192,110,293337,1,0,0:0:0:0:
192,110,293430,1,0,0:0:0:0:
192,110,293523,1,0,0:0:0:0:
283,50,293616,1,8,0:0:0:0:
283,50,293710,1,8,0:0:0:0:
276,68,293803,1,0,0:0:0:0:
276,68,293896,1,0,0:0:0:0:
296,100,293989,1,8,0:0:0:0:
296,100,294082,1,0,0:0:0:0:
296,100,294175,1,0,0:0:0:0:
296,100,294269,1,0,0:0:0:0:
296,100,294362,1,8,0:0:0:0:
296,100,294455,1,8,0:0:0:0:
296,100,294548,1,0,0:0:0:0:
296,100,294641,1,0,0:0:0:0:
296,100,294734,1,8,0:0:0:0:
296,100,294828,1,0,0:0:0:0:
296,100,294921,1,0,0:0:0:0:
296,100,295014,1,0,0:0:0:0:
296,100,295107,1,8,0:0:0:0:
296,100,295200,1,8,0:0:0:0:
296,100,295293,1,0,0:0:0:0:
206,49,295480,1,12,0:0:0:0:
271,242,295666,1,0,0:0:0:0:
271,242,295759,1,0,0:0:0:0:
188,196,295852,1,8,0:0:0:0:
188,196,295946,1,8,0:0:0:0:
188,196,296039,1,0,0:0:0:0:
188,196,296132,1,0,0:0:0:0:
192,110,296225,1,8,0:0:0:0:
192,110,296318,1,0,0:0:0:0:
192,110,296411,1,0,0:0:0:0:
192,110,296505,1,0,0:0:0:0:
188,196,296598,1,8,0:0:0:0:
188,196,296691,1,8,0:0:0:0:
188,196,296784,1,0,0:0:0:0:
188,196,296877,1,0,0:0:0:0:
192,110,296970,1,8,0:0:0:0:
192,110,297064,1,0,0:0:0:0:
192,110,297157,1,0,0:0:0:0:
192,110,297250,1,0,0:0:0:0:
188,196,297343,1,8,0:0:0:0:
188,196,297436,1,8,0:0:0:0:
188,196,297529,1,0,0:0:0:0:
188,196,297623,1,0,0:0:0:0:
192,110,297716,1,8,0:0:0:0:
192,110,297809,1,0,0:0:0:0:
192,110,297902,1,0,0:0:0:0:
192,110,297995,1,0,0:0:0:0:
188,196,298088,1,8,0:0:0:0:
188,196,298182,1,8,0:0:0:0:
188,196,298275,1,0,0:0:0:0:
188,196,298368,1,0,0:0:0:0:
192,110,298461,1,8,0:0:0:0:
192,110,298554,1,0,0:0:0:0:
192,110,298647,1,0,0:0:0:0:
192,110,298741,1,0,0:0:0:0:
188,196,298834,1,8,0:0:0:0:
188,196,298927,1,8,0:0:0:0:
188,196,299020,1,0,0:0:0:0:
188,196,299113,1,0,0:0:0:0:
192,110,299206,1,8,0:0:0:0:
192,110,299300,1,0,0:0:0:0:
192,110,299393,1,0,0:0:0:0:
192,110,299486,1,0,0:0:0:0:
283,50,299579,1,8,0:0:0:0:
283,50,299672,1,8,0:0:0:0:
276,68,299765,1,0,0:0:0:0:
276,68,299859,1,0,0:0:0:0:
296,100,299952,1,8,0:0:0:0:
296,100,300045,1,0,0:0:0:0:
296,100,300138,1,0,0:0:0:0:
296,100,300231,1,0,0:0:0:0:
296,100,300324,1,8,0:0:0:0:
296,100,300418,1,8,0:0:0:0:
296,100,300511,1,0,0:0:0:0:
296,100,300604,1,0,0:0:0:0:
296,100,300697,1,8,0:0:0:0:
296,100,300790,1,0,0:0:0:0:
296,100,300883,1,0,0:0:0:0:
296,100,300977,1,0,0:0:0:0:
296,100,301070,1,8,0:0:0:0:
296,100,301163,1,8,0:0:0:0:
296,100,301256,1,0,0:0:0:0:
206,49,301442,1,12,0:0:0:0:
271,242,301629,1,0,0:0:0:0:
271,242,301722,1,0,0:0:0:0:
188,196,301815,1,8,0:0:0:0:
188,196,301908,1,8,0:0:0:0:
188,196,302001,1,0,0:0:0:0:
188,196,302095,1,0,0:0:0:0:
192,110,302188,1,8,0:0:0:0:
192,110,302281,1,0,0:0:0:0:
192,110,302374,1,0,0:0:0:0:
192,110,302467,1,0,0:0:0:0:
188,196,302560,1,8,0:0:0:0:
188,196,302654,1,8,0:0:0:0:
188,196,302747,1,0,0:0:0:0:
188,196,302840,1,0,0:0:0:0:
192,110,302933,1,8,0:0:0:0:
192,110,303026,1,0,0:0:0:0:
192,110,303120,1,0,0:0:0:0:
192,110,303213,1,0,0:0:0:0:
188,196,303306,1,8,0:0:0:0:
188,196,303399,1,8,0:0:0:0:
188,196,303492,1,0,0:0:0:0:
188,196,303585,1,0,0:0:0:0:
192,110,303679,1,8,0:0:0:0:
192,110,303772,1,0,0:0:0:0:
192,110,303865,1,0,0:0:0:0:
192,110,303958,1,0,0:0:0:0:
188,196,304051,1,8,0:0:0:0:
188,196,304144,1,8,0:0:0:0:
188,196,304238,1,0,0:0:0:0:
188,196,304331,1,0,0:0:0:0:
192,110,304425,1,8,0:0:0:0:
192,110,304517,1,0,0:0:0:0:
192,110,304610,1,0,0:0:0:0:
192,110,304703,1,0,0:0:0:0:
188,196,304797,1,8,0:0:0:0:
188,196,304890,1,8,0:0:0:0:
188,196,304983,1,0,0:0:0:0:
188,196,305076,1,0,0:0:0:0:
192,110,305169,1,8,0:0:0:0:
192,110,305262,1,0,0:0:0:0:
192,110,305356,1,0,0:0:0:0:
192,110,305449,1,0,0:0:0:0:
283,50,305542,1,8,0:0:0:0:
283,50,305635,1,8,0:0:0:0:
276,68,305728,1,0,0:0:0:0:
276,68,305821,1,0,0:0:0:0:
296,100,305915,1,8,0:0:0:0:
296,100,306008,1,0,0:0:0:0:
296,100,306101,1,0,0:0:0:0:
296,100,306194,1,0,0:0:0:0:
296,100,306287,1,8,0:0:0:0:
296,100,306380,1,8,0:0:0:0:
296,100,306474,1,0,0:0:0:0:
296,100,306567,1,0,0:0:0:0:
296,100,306660,1,8,0:0:0:0:
296,100,306753,1,0,0:0:0:0:
296,100,306846,1,0,0:0:0:0:
296,100,306939,1,0,0:0:0:0:
296,100,307033,1,8,0:0:0:0:
296,100,307126,1,8,0:0:0:0:
296,100,307219,1,0,0:0:0:0:
206,49,307405,1,12,0:0:0:0:
166,203,307592,1,0,0:0:0:0:
166,203,307685,1,0,0:0:0:0:
188,196,307778,1,8,0:0:0:0:
188,196,307871,1,8,0:0:0:0:
188,196,307964,1,0,0:0:0:0:
188,196,308057,1,0,0:0:0:0:
192,110,308151,1,8,0:0:0:0:
192,110,308244,1,0,0:0:0:0:
192,110,308337,1,0,0:0:0:0:
192,110,308430,1,0,0:0:0:0:
188,196,308523,1,8,0:0:0:0:
188,196,308616,1,8,0:0:0:0:
188,196,308710,1,0,0:0:0:0:
188,196,308803,1,0,0:0:0:0:
192,110,308896,1,8,0:0:0:0:
192,110,308989,1,0,0:0:0:0:
192,110,309082,1,0,0:0:0:0:
192,110,309175,1,0,0:0:0:0:
188,196,309269,1,8,0:0:0:0:
188,196,309362,1,8,0:0:0:0:
188,196,309455,1,0,0:0:0:0:
188,196,309548,1,0,0:0:0:0:
192,110,309641,1,8,0:0:0:0:
192,110,309734,1,0,0:0:0:0:
192,110,309828,1,0,0:0:0:0:
192,110,309921,1,0,0:0:0:0:
188,196,310014,1,8,0:0:0:0:
188,196,310107,1,8,0:0:0:0:
188,196,310200,1,0,0:0:0:0:
188,196,310293,1,0,0:0:0:0:
192,110,310387,1,8,0:0:0:0:
192,110,310480,1,0,0:0:0:0:
192,110,310573,1,0,0:0:0:0:
192,110,310666,1,0,0:0:0:0:
188,196,310759,1,8,0:0:0:0:
188,196,310852,1,8,0:0:0:0:
188,196,310946,1,0,0:0:0:0:
188,196,311039,1,0,0:0:0:0:
192,110,311132,1,8,0:0:0:0:
192,110,311225,1,0,0:0:0:0:
192,110,311318,1,0,0:0:0:0:
192,110,311411,1,0,0:0:0:0:
283,50,311505,1,8,0:0:0:0:
283,50,311598,1,8,0:0:0:0:
276,68,311691,1,0,0:0:0:0:
276,68,311784,1,0,0:0:0:0:
296,100,311877,1,8,0:0:0:0:
296,100,311970,1,0,0:0:0:0:
296,100,312064,1,0,0:0:0:0:
296,100,312157,1,0,0:0:0:0:
296,100,312250,1,8,0:0:0:0:
296,100,312343,1,8,0:0:0:0:
296,100,312436,1,0,0:0:0:0:
296,100,312529,1,0,0:0:0:0:
296,100,312623,1,8,0:0:0:0:
296,100,312716,1,0,0:0:0:0:
296,100,312809,1,0,0:0:0:0:
296,100,312902,1,0,0:0:0:0:
296,100,312995,1,8,0:0:0:0:
296,100,313088,1,8,0:0:0:0:
296,100,313182,1,0,0:0:0:0:
206,49,313368,1,12,0:0:0:0:
96,151,313554,1,0,0:0:0:0:
215,78,313647,1,0,0:0:0:0:
188,196,313741,1,8,0:0:0:0:
188,196,313834,1,8,0:0:0:0:
188,196,313927,1,0,0:0:0:0:
188,196,314020,1,0,0:0:0:0:
192,110,314113,1,8,0:0:0:0:
192,110,314206,1,0,0:0:0:0:
192,110,314300,1,0,0:0:0:0:
192,110,314393,1,0,0:0:0:0:
188,196,314486,1,8,0:0:0:0:
188,196,314579,1,8,0:0:0:0:
188,196,314672,1,0,0:0:0:0:
188,196,314765,1,0,0:0:0:0:
192,110,314859,1,8,0:0:0:0:
192,110,314952,1,0,0:0:0:0:
192,110,315045,1,0,0:0:0:0:
192,110,315138,1,0,0:0:0:0:
188,196,315231,1,8,0:0:0:0:
188,196,315324,1,8,0:0:0:0:
188,196,315418,1,0,0:0:0:0:
188,196,315511,1,0,0:0:0:0:
192,110,315604,1,8,0:0:0:0:
192,110,315697,1,0,0:0:0:0:
192,110,315790,1,0,0:0:0:0:
192,110,315883,1,0,0:0:0:0:
188,196,315977,1,8,0:0:0:0:
188,196,316070,1,8,0:0:0:0:
188,196,316163,1,0,0:0:0:0:
188,196,316256,1,0,0:0:0:0:
192,110,316349,1,8,0:0:0:0:
192,110,316442,1,0,0:0:0:0:
192,110,316536,1,0,0:0:0:0:
192,110,316629,1,0,0:0:0:0:
188,196,316722,1,8,0:0:0:0:
188,196,316815,1,8,0:0:0:0:
188,196,316908,1,0,0:0:0:0:
188,196,317001,1,0,0:0:0:0:
192,110,317095,1,8,0:0:0:0:
192,110,317188,1,0,0:0:0:0:
192,110,317281,1,0,0:0:0:0:
192,110,317374,1,0,0:0:0:0:
283,50,317467,1,8,0:0:0:0:
283,50,317560,1,8,0:0:0:0:
276,68,317654,1,0,0:0:0:0:
276,68,317747,1,0,0:0:0:0:
296,100,317840,1,8,0:0:0:0:
296,100,317933,1,0,0:0:0:0:
296,100,318026,1,0,0:0:0:0:
296,100,318120,1,0,0:0:0:0:
296,100,318213,1,8,0:0:0:0:
296,100,318306,1,8,0:0:0:0:
296,100,318399,1,0,0:0:0:0:
296,100,318492,1,0,0:0:0:0:
296,100,318585,1,8,0:0:0:0:
296,100,318679,1,0,0:0:0:0:
296,100,318772,1,0,0:0:0:0:
296,100,318865,1,0,0:0:0:0:
296,100,318958,1,8,0:0:0:0:
296,100,319051,1,8,0:0:0:0:
296,100,319144,1,0,0:0:0:0:
206,49,319331,1,12,0:0:0:0:
144,151,319517,1,0,0:0:0:0:
144,151,319610,1,0,0:0:0:0:
188,196,319703,1,8,0:0:0:0:
188,196,319797,1,8,0:0:0:0:
188,196,319890,1,0,0:0:0:0:
188,196,319983,1,0,0:0:0:0:
192,110,320076,1,8,0:0:0:0:
192,110,320169,1,0,0:0:0:0:
192,110,320262,1,0,0:0:0:0:
192,110,320356,1,0,0:0:0:0:
188,196,320449,1,8,0:0:0:0:
188,196,320542,1,8,0:0:0:0:
188,196,320635,1,0,0:0:0:0:
188,196,320728,1,0,0:0:0:0:
192,110,320821,1,8,0:0:0:0:
192,110,320915,1,0,0:0:0:0:
192,110,321008,1,0,0:0:0:0:
192,110,321101,1,0,0:0:0:0:
188,196,321194,1,8,0:0:0:0:
188,196,321287,1,8,0:0:0:0:
188,196,321380,1,0,0:0:0:0:
188,196,321474,1,0,0:0:0:0:
192,110,321567,1,8,0:0:0:0:
192,110,321660,1,0,0:0:0:0:
192,110,321753,1,0,0:0:0:0:
192,110,321846,1,0,0:0:0:0:
188,196,321939,1,8,0:0:0:0:
188,196,322033,1,8,0:0:0:0:
188,196,322126,1,0,0:0:0:0:
188,196,322219,1,0,0:0:0:0:
192,110,322312,1,8,0:0:0:0:
192,110,322405,1,0,0:0:0:0:
192,110,322498,1,0,0:0:0:0:
192,110,322592,1,0,0:0:0:0:
188,196,322685,1,8,0:0:0:0:
188,196,322778,1,8,0:0:0:0:
188,196,322871,1,0,0:0:0:0:
188,196,322964,1,0,0:0:0:0:
192,110,323057,1,8,0:0:0:0:
192,110,323151,1,0,0:0:0:0:
192,110,323244,1,0,0:0:0:0:
192,110,323337,1,0,0:0:0:0:
283,50,323430,1,8,0:0:0:0:
283,50,323523,1,8,0:0:0:0:
276,68,323616,1,0,0:0:0:0:
276,68,323710,1,0,0:0:0:0:
296,100,323803,1,8,0:0:0:0:
296,100,323896,1,0,0:0:0:0:
296,100,323989,1,0,0:0:0:0:
296,100,324082,1,0,0:0:0:0:
296,100,324175,1,8,0:0:0:0:
296,100,324269,1,8,0:0:0:0:
296,100,324362,1,0,0:0:0:0:
296,100,324455,1,0,0:0:0:0:
296,100,324548,1,8,0:0:0:0:
296,100,324641,1,0,0:0:0:0:
296,100,324734,1,0,0:0:0:0:
296,100,324828,1,0,0:0:0:0:
296,100,324921,1,8,0:0:0:0:
296,100,325014,1,8,0:0:0:0:
296,100,325107,1,0,0:0:0:0:
206,49,325293,1,12,0:0:0:0:
201,143,325480,1,0,0:0:0:0:
201,143,325573,1,0,0:0:0:0:
188,196,325666,1,8,0:0:0:0:
188,196,325759,1,8,0:0:0:0:
188,196,325852,1,0,0:0:0:0:
188,196,325946,1,0,0:0:0:0:
192,110,326039,1,8,0:0:0:0:
192,110,326133,1,0,0:0:0:0:
192,110,326225,1,0,0:0:0:0:
192,110,326318,1,0,0:0:0:0:
188,196,326411,1,8,0:0:0:0:
188,196,326505,1,8,0:0:0:0:
188,196,326598,1,0,0:0:0:0:
188,196,326691,1,0,0:0:0:0:
192,110,326784,1,8,0:0:0:0:
192,110,326877,1,0,0:0:0:0:
192,110,326970,1,0,0:0:0:0:
192,110,327064,1,0,0:0:0:0:
188,196,327157,1,8,0:0:0:0:
188,196,327250,1,8,0:0:0:0:
188,196,327343,1,0,0:0:0:0:
188,196,327436,1,0,0:0:0:0:
192,110,327529,1,8,0:0:0:0:
192,110,327623,1,0,0:0:0:0:
192,110,327716,1,0,0:0:0:0:
192,110,327809,1,0,0:0:0:0:
188,196,327902,1,8,0:0:0:0:
188,196,327995,1,8,0:0:0:0:
188,196,328088,1,0,0:0:0:0:
188,196,328182,1,0,0:0:0:0:
192,110,328275,1,8,0:0:0:0:
192,110,328368,1,0,0:0:0:0:
192,110,328461,1,0,0:0:0:0:
192,110,328554,1,0,0:0:0:0:
188,196,328647,1,8,0:0:0:0:
188,196,328741,1,8,0:0:0:0:
188,196,328834,1,0,0:0:0:0:
188,196,328927,1,0,0:0:0:0:
192,110,329020,1,8,0:0:0:0:
192,110,329113,1,0,0:0:0:0:
192,110,329206,1,0,0:0:0:0:
192,110,329300,1,0,0:0:0:0:
283,50,329393,1,8,0:0:0:0:
283,50,329486,1,8,0:0:0:0:
276,68,329579,1,0,0:0:0:0:
276,68,329672,1,0,0:0:0:0:
296,100,329765,1,8,0:0:0:0:
296,100,329859,1,0,0:0:0:0:
296,100,329952,1,0,0:0:0:0:
296,100,330045,1,0,0:0:0:0:
296,100,330138,1,8,0:0:0:0:
296,100,330231,1,8,0:0:0:0:
296,100,330324,1,0,0:0:0:0:
296,100,330418,1,0,0:0:0:0:
296,100,330511,1,8,0:0:0:0:
296,100,330604,1,0,0:0:0:0:
296,100,330697,1,0,0:0:0:0:
296,100,330790,1,0,0:0:0:0:
296,100,330883,1,8,0:0:0:0:
296,100,330977,1,8,0:0:0:0:
296,100,331070,1,0,0:0:0:0:
206,49,331256,1,12,0:0:0:0:
203,140,331442,1,0,0:0:0:0:
203,140,331536,1,0,0:0:0:0:
188,196,331629,1,8,0:0:0:0:
188,196,331722,1,8,0:0:0:0:
188,196,331815,1,0,0:0:0:0:
188,196,331908,1,0,0:0:0:0:
192,110,332001,1,8,0:0:0:0:
192,110,332095,1,0,0:0:0:0:
192,110,332188,1,0,0:0:0:0:
192,110,332281,1,0,0:0:0:0:
188,196,332374,1,8,0:0:0:0:
188,196,332467,1,8,0:0:0:0:
188,196,332560,1,0,0:0:0:0:
188,196,332654,1,0,0:0:0:0:
192,110,332747,1,8,0:0:0:0:
192,110,332840,1,0,0:0:0:0:
192,110,332933,1,0,0:0:0:0:
192,110,333026,1,0,0:0:0:0:
188,196,333120,1,8,0:0:0:0:
188,196,333213,1,8,0:0:0:0:
188,196,333306,1,0,0:0:0:0:
188,196,333399,1,0,0:0:0:0:
192,110,333492,1,8,0:0:0:0:
192,110,333585,1,0,0:0:0:0:
192,110,333679,1,0,0:0:0:0:
192,110,333772,1,0,0:0:0:0:
188,196,333865,1,8,0:0:0:0:
188,196,333958,1,8,0:0:0:0:
188,196,334051,1,0,0:0:0:0:
188,196,334144,1,0,0:0:0:0:
192,110,334238,1,8,0:0:0:0:
192,110,334331,1,0,0:0:0:0:
192,110,334424,1,0,0:0:0:0:
192,110,334517,1,0,0:0:0:0:
188,196,334610,1,8,0:0:0:0:
188,196,334703,1,8,0:0:0:0:
188,196,334797,1,0,0:0:0:0:
188,196,334890,1,0,0:0:0:0:
192,110,334983,1,8,0:0:0:0:
192,110,335076,1,0,0:0:0:0:
192,110,335169,1,0,0:0:0:0:
192,110,335262,1,0,0:0:0:0:
283,50,335356,1,8,0:0:0:0:
283,50,335449,1,8,0:0:0:0:
276,68,335542,1,0,0:0:0:0:
276,68,335635,1,0,0:0:0:0:
296,100,335728,1,8,0:0:0:0:
296,100,335821,1,0,0:0:0:0:
296,100,335915,1,0,0:0:0:0:
296,100,336008,1,0,0:0:0:0:
296,100,336101,1,8,0:0:0:0:
296,100,336194,1,8,0:0:0:0:
296,100,336287,1,0,0:0:0:0:
296,100,336380,1,0,0:0:0:0:
296,100,336474,1,8,0:0:0:0:
296,100,336567,1,0,0:0:0:0:
296,100,336660,1,0,0:0:0:0:
296,100,336753,1,0,0:0:0:0:
296,100,336846,1,8,0:0:0:0:
296,100,336939,1,8,0:0:0:0:
296,100,337033,1,0,0:0:0:0:
206,49,337219,1,12,0:0:0:0:
195,165,337405,1,0,0:0:0:0:
195,165,337498,1,0,0:0:0:0:
188,196,337592,1,8,0:0:0:0:
188,196,337685,1,8,0:0:0:0:
188,196,337778,1,0,0:0:0:0:
188,196,337871,1,0,0:0:0:0:
192,110,337964,1,8,0:0:0:0:
192,110,338057,1,0,0:0:0:0:
192,110,338151,1,0,0:0:0:0:
192,110,338244,1,0,0:0:0:0:
188,196,338337,1,8,0:0:0:0:
188,196,338430,1,8,0:0:0:0:
188,196,338523,1,0,0:0:0:0:
188,196,338616,1,0,0:0:0:0:
192,110,338710,1,8,0:0:0:0:
192,110,338803,1,0,0:0:0:0:
192,110,338896,1,0,0:0:0:0:
192,110,338989,1,0,0:0:0:0:
188,196,339082,1,8,0:0:0:0:
188,196,339175,1,8,0:0:0:0:
188,196,339269,1,0,0:0:0:0:
188,196,339362,1,0,0:0:0:0:
192,110,339455,1,8,0:0:0:0:
192,110,339548,1,0,0:0:0:0:
192,110,339641,1,0,0:0:0:0:
192,110,339734,1,0,0:0:0:0:
188,196,339828,1,8,0:0:0:0:
188,196,339921,1,8,0:0:0:0:
188,196,340014,1,0,0:0:0:0:
188,196,340107,1,0,0:0:0:0:
192,110,340200,1,8,0:0:0:0:
192,110,340293,1,0,0:0:0:0:
192,110,340387,1,0,0:0:0:0:
192,110,340480,1,0,0:0:0:0:
188,196,340573,1,8,0:0:0:0:
188,196,340666,1,8,0:0:0:0:
188,196,340759,1,0,0:0:0:0:
188,196,340852,1,0,0:0:0:0:
192,110,340946,1,8,0:0:0:0:
192,110,341039,1,0,0:0:0:0:
192,110,341132,1,0,0:0:0:0:
192,110,341225,1,0,0:0:0:0:
283,50,341318,1,8,0:0:0:0:
283,50,341411,1,8,0:0:0:0:
276,68,341505,1,0,0:0:0:0:
276,68,341598,1,0,0:0:0:0:
296,100,341691,1,8,0:0:0:0:
296,100,341784,1,0,0:0:0:0:
296,100,341877,1,0,0:0:0:0:
296,100,341970,1,0,0:0:0:0:
296,100,342064,1,8,0:0:0:0:
296,100,342157,1,8,0:0:0:0:
296,100,342250,1,0,0:0:0:0:
296,100,342343,1,0,0:0:0:0:
296,100,342436,1,8,0:0:0:0:
296,100,342529,1,0,0:0:0:0:
296,100,342623,1,0,0:0:0:0:
296,100,342716,1,0,0:0:0:0:
296,100,342809,1,8,0:0:0:0:
296,100,342902,1,8,0:0:0:0:
296,100,342995,1,0,0:0:0:0:
206,49,343182,1,12,0:0:0:0:
247,133,343368,1,0,0:0:0:0:
173,132,343461,1,0,0:0:0:0:
188,196,343554,1,8,0:0:0:0:
188,196,343647,1,8,0:0:0:0:
188,196,343741,1,0,0:0:0:0:
188,196,343834,1,0,0:0:0:0:
192,110,343927,1,8,0:0:0:0:
192,110,344020,1,0,0:0:0:0:
192,110,344113,1,0,0:0:0:0:
192,110,344206,1,0,0:0:0:0:
188,196,344300,1,8,0:0:0:0:
188,196,344393,1,8,0:0:0:0:
188,196,344486,1,0,0:0:0:0:
188,196,344579,1,0,0:0:0:0:
192,110,344672,1,8,0:0:0:0:
192,110,344765,1,0,0:0:0:0:
192,110,344859,1,0,0:0:0:0:
192,110,344952,1,0,0:0:0:0:
188,196,345045,1,8,0:0:0:0:
188,196,345138,1,8,0:0:0:0:
188,196,345231,1,0,0:0:0:0:
188,196,345324,1,0,0:0:0:0:
192,110,345418,1,8,0:0:0:0:
192,110,345511,1,0,0:0:0:0:
192,110,345604,1,0,0:0:0:0:
192,110,345697,1,0,0:0:0:0:
188,196,345790,1,8,0:0:0:0:
188,196,345883,1,8,0:0:0:0:
188,196,345977,1,0,0:0:0:0:
188,196,346070,1,0,0:0:0:0:
192,110,346163,1,8,0:0:0:0:
192,110,346256,1,0,0:0:0:0:
192,110,346349,1,0,0:0:0:0:
192,110,346442,1,0,0:0:0:0:
188,196,346536,1,8,0:0:0:0:
188,196,346629,1,8,0:0:0:0:
188,196,346722,1,0,0:0:0:0:
188,196,346815,1,0,0:0:0:0:
192,110,346908,1,8,0:0:0:0:
192,110,347001,1,0,0:0:0:0:
192,110,347095,1,0,0:0:0:0:
192,110,347188,1,0,0:0:0:0:
283,50,347281,1,8,0:0:0:0:
283,50,347374,1,8,0:0:0:0:
276,68,347467,1,0,0:0:0:0:
276,68,347560,1,0,0:0:0:0:
296,100,347654,1,8,0:0:0:0:
296,100,347747,1,0,0:0:0:0:
296,100,347841,1,0,0:0:0:0:
296,100,347933,1,0,0:0:0:0:
296,100,348026,1,8,0:0:0:0:
296,100,348120,1,8,0:0:0:0:
296,100,348213,1,0,0:0:0:0:
296,100,348306,1,0,0:0:0:0:
296,100,348399,1,8,0:0:0:0:
296,100,348492,1,0,0:0:0:0:
296,100,348585,1,0,0:0:0:0:
296,100,348679,1,0,0:0:0:0:
296,100,348772,1,8,0:0:0:0:
296,100,348865,1,8,0:0:0:0:
296,100,348958,1,0,0:0:0:0:
206,49,349165,1,12,0:0:0:0:
113,154,349350,1,0,0:0:0:0:
113,154,349443,1,0,0:0:0:0:
188,196,349536,1,8,0:0:0:0:
188,196,349629,1,8,0:0:0:0:
188,196,349723,1,0,0:0:0:0:
188,196,349816,1,0,0:0:0:0:
192,110,349909,1,8,0:0:0:0:
192,110,350002,1,0,0:0:0:0:
192,110,350095,1,0,0:0:0:0:
192,110,350188,1,0,0:0:0:0:
188,196,350282,1,8,0:0:0:0:
188,196,350375,1,8,0:0:0:0:
188,196,350468,1,0,0:0:0:0:
188,196,350561,1,0,0:0:0:0:
192,110,350654,1,8,0:0:0:0:
192,110,350747,1,0,0:0:0:0:
192,110,350841,1,0,0:0:0:0:
192,110,350934,1,0,0:0:0:0:
188,196,351027,1,8,0:0:0:0:
188,196,351120,1,8,0:0:0:0:
188,196,351213,1,0,0:0:0:0:
188,196,351306,1,0,0:0:0:0:
192,110,351400,1,8,0:0:0:0:
192,110,351493,1,0,0:0:0:0:
192,110,351586,1,0,0:0:0:0:
192,110,351679,1,0,0:0:0:0:
188,196,351772,1,8,0:0:0:0:
188,196,351865,1,8,0:0:0:0:
188,196,351959,1,0,0:0:0:0:
188,196,352053,1,0,0:0:0:0:
192,110,352145,1,8,0:0:0:0:
192,110,352238,1,0,0:0:0:0:
192,110,352331,1,0,0:0:0:0:
192,110,352424,1,0,0:0:0:0:
188,196,352518,1,8,0:0:0:0:
188,196,352611,1,8,0:0:0:0:
188,196,352704,1,0,0:0:0:0:
188,196,352797,1,0,0:0:0:0:
192,110,352890,1,8,0:0:0:0:
192,110,352983,1,0,0:0:0:0:
192,110,353077,1,0,0:0:0:0:
192,110,353170,1,0,0:0:0:0:
283,50,353263,1,8,0:0:0:0:
283,50,353356,1,8,0:0:0:0:
276,68,353449,1,0,0:0:0:0:
276,68,353542,1,0,0:0:0:0:
296,100,353636,1,8,0:0:0:0:
296,100,353729,1,0,0:0:0:0:
296,100,353822,1,0,0:0:0:0:
296,100,353915,1,0,0:0:0:0:
296,100,354008,1,8,0:0:0:0:
296,100,354101,1,8,0:0:0:0:
296,100,354195,1,0,0:0:0:0:
296,100,354288,1,0,0:0:0:0:
296,100,354381,1,8,0:0:0:0:
296,100,354474,1,0,0:0:0:0:
296,100,354567,1,0,0:0:0:0:
296,100,354660,1,0,0:0:0:0:
296,100,354754,1,8,0:0:0:0:
296,100,354847,1,8,0:0:0:0:
296,100,354940,1,0,0:0:0:0:
206,49,355126,5,12,0:0:0:0:
110,182,355313,1,0,0:0:0:0:
110,182,355406,1,0,0:0:0:0:
188,196,355499,1,8,0:0:0:0:
188,196,355592,1,8,0:0:0:0:
188,196,355685,1,0,0:0:0:0:
188,196,355779,1,0,0:0:0:0:
192,110,355872,1,8,0:0:0:0:
192,110,355965,1,0,0:0:0:0:
192,110,356058,1,0,0:0:0:0:
192,110,356151,1,0,0:0:0:0:
188,196,356244,1,8,0:0:0:0:
188,196,356337,1,8,0:0:0:0:
188,196,356431,1,0,0:0:0:0:
188,196,356524,1,0,0:0:0:0:
192,110,356617,1,8,0:0:0:0:
192,110,356710,1,0,0:0:0:0:
192,110,356803,1,0,0:0:0:0:
192,110,356896,1,0,0:0:0:0:
188,196,356990,1,8,0:0:0:0:
188,196,357083,1,8,0:0:0:0:
188,196,357176,1,0,0:0:0:0:
188,196,357269,1,0,0:0:0:0:
192,110,357362,1,8,0:0:0:0:
192,110,357455,1,0,0:0:0:0:
192,110,357549,1,0,0:0:0:0:
192,110,357642,1,0,0:0:0:0:
188,196,357735,1,8,0:0:0:0:
188,196,357828,1,8,0:0:0:0:
188,196,357921,1,0,0:0:0:0:
188,196,358014,1,0,0:0:0:0:
192,110,358108,1,8,0:0:0:0:
192,110,358201,1,0,0:0:0:0:
192,110,358294,1,0,0:0:0:0:
192,110,358387,1,0,0:0:0:0:
188,196,358480,1,8,0:0:0:0:
188,196,358573,1,8,0:0:0:0:
188,196,358667,1,0,0:0:0:0:
188,196,358760,1,0,0:0:0:0:
192,110,358853,1,8,0:0:0:0:
192,110,358946,1,0,0:0:0:0:
192,110,359039,1,0,0:0:0:0:
192,110,359132,1,0,0:0:0:0:
283,50,359226,1,8,0:0:0:0:
283,50,359319,1,8,0:0:0:0:
276,68,359412,1,0,0:0:0:0:
276,68,359505,1,0,0:0:0:0:
296,100,359598,1,8,0:0:0:0:
296,100,359691,1,0,0:0:0:0:
296,100,359785,1,0,0:0:0:0:
296,100,359878,1,0,0:0:0:0:
296,100,359971,1,8,0:0:0:0:
296,100,360064,1,8,0:0:0:0:
296,100,360157,1,0,0:0:0:0:
296,100,360250,1,0,0:0:0:0:
296,100,360344,1,8,0:0:0:0:
296,100,360437,1,0,0:0:0:0:
296,100,360530,1,0,0:0:0:0:
296,100,360623,1,0,0:0:0:0:
296,100,360716,1,8,0:0:0:0:
296,100,360809,1,8,0:0:0:0:
296,100,360903,1,0,0:0:0:0:
206,49,361089,1,12,0:0:0:0:
159,167,361275,1,0,0:0:0:0:
159,167,361368,1,0,0:0:0:0:
188,196,361462,1,8,0:0:0:0:
188,196,361555,1,8,0:0:0:0:
188,196,361648,1,0,0:0:0:0:
188,196,361741,1,0,0:0:0:0:
192,110,361834,1,8,0:0:0:0:
192,110,361927,1,0,0:0:0:0:
192,110,362021,1,0,0:0:0:0:
192,110,362114,1,0,0:0:0:0:
188,196,362207,1,8,0:0:0:0:
188,196,362300,1,8,0:0:0:0:
188,196,362393,1,0,0:0:0:0:
188,196,362486,1,0,0:0:0:0:
192,110,362580,1,8,0:0:0:0:
192,110,362673,1,0,0:0:0:0:
192,110,362766,1,0,0:0:0:0:
192,110,362859,1,0,0:0:0:0:
188,196,362952,1,8,0:0:0:0:
188,196,363045,1,8,0:0:0:0:
188,196,363139,1,0,0:0:0:0:
188,196,363232,1,0,0:0:0:0:
192,110,363325,1,8,0:0:0:0:
192,110,363418,1,0,0:0:0:0:
192,110,363511,1,0,0:0:0:0:
192,110,363604,1,0,0:0:0:0:
188,196,363698,1,8,0:0:0:0:
188,196,363791,1,8,0:0:0:0:
188,196,363884,1,0,0:0:0:0:
188,196,363977,1,0,0:0:0:0:
192,110,364070,1,8,0:0:0:0:
192,110,364164,1,0,0:0:0:0:
192,110,364257,1,0,0:0:0:0:
192,110,364350,1,0,0:0:0:0:
188,196,364443,1,8,0:0:0:0:
188,196,364536,1,8,0:0:0:0:
188,196,364629,1,0,0:0:0:0:
188,196,364723,1,0,0:0:0:0:
192,110,364816,1,8,0:0:0:0:
192,110,364909,1,0,0:0:0:0:
192,110,365002,1,0,0:0:0:0:
192,110,365095,1,0,0:0:0:0:
283,50,365188,1,8,0:0:0:0:
283,50,365282,1,8,0:0:0:0:
276,68,365375,1,0,0:0:0:0:
276,68,365468,1,0,0:0:0:0:
296,100,365561,1,8,0:0:0:0:
296,100,365654,1,0,0:0:0:0:
296,100,365747,1,0,0:0:0:0:
296,100,365841,1,0,0:0:0:0:
296,100,365934,1,8,0:0:0:0:
296,100,366027,1,8,0:0:0:0:
296,100,366120,1,0,0:0:0:0:
296,100,366213,1,0,0:0:0:0:
296,100,366306,1,8,0:0:0:0:
296,100,366400,1,0,0:0:0:0:
296,100,366493,1,0,0:0:0:0:
296,100,366586,1,0,0:0:0:0:
296,100,366679,1,8,0:0:0:0:
296,100,366772,1,8,0:0:0:0:
296,100,366865,1,0,0:0:0:0:
201,135,367067,1,12,0:0:0:0:
210,155,367252,1,0,0:0:0:0:
210,154,367345,1,0,0:0:0:0:
188,196,367438,1,8,0:0:0:0:
188,196,367531,1,8,0:0:0:0:
188,196,367625,1,0,0:0:0:0:
188,196,367718,1,0,0:0:0:0:
192,110,367811,1,8,0:0:0:0:
192,110,367904,1,0,0:0:0:0:
192,110,367997,1,0,0:0:0:0:
192,110,368091,1,0,0:0:0:0:
188,196,368184,1,8,0:0:0:0:
188,196,368277,1,8,0:0:0:0:
188,196,368370,1,0,0:0:0:0:
188,196,368463,1,0,0:0:0:0:
192,110,368556,1,8,0:0:0:0:
192,110,368649,1,0,0:0:0:0:
192,110,368743,1,0,0:0:0:0:
192,110,368836,1,0,0:0:0:0:
188,196,368929,1,8,0:0:0:0:
188,196,369022,1,8,0:0:0:0:
188,196,369115,1,0,0:0:0:0:
188,196,369208,1,0,0:0:0:0:
192,110,369302,1,8,0:0:0:0:
192,110,369395,1,0,0:0:0:0:
192,110,369488,1,0,0:0:0:0:
192,110,369581,1,0,0:0:0:0:
188,196,369674,1,8,0:0:0:0:
188,196,369767,1,8,0:0:0:0:
188,196,369861,1,0,0:0:0:0:
188,196,369954,1,0,0:0:0:0:
192,110,370047,1,8,0:0:0:0:
192,110,370140,1,0,0:0:0:0:
192,110,370233,1,0,0:0:0:0:
192,110,370326,1,0,0:0:0:0:
188,196,370420,1,8,0:0:0:0:
188,196,370513,1,8,0:0:0:0:
188,196,370606,1,0,0:0:0:0:
188,196,370699,1,0,0:0:0:0:
192,110,370792,1,8,0:0:0:0:
192,110,370885,1,0,0:0:0:0:
192,110,370979,1,0,0:0:0:0:
192,110,371072,1,0,0:0:0:0:
283,50,371165,1,8,0:0:0:0:
283,50,371258,1,8,0:0:0:0:
276,68,371351,1,0,0:0:0:0:
276,68,371444,1,0,0:0:0:0:
296,100,371538,1,8,0:0:0:0:
296,100,371631,1,0,0:0:0:0:
296,100,371724,1,0,0:0:0:0:
296,100,371817,1,0,0:0:0:0:
296,100,371910,1,8,0:0:0:0:
296,100,372003,1,8,0:0:0:0:
296,100,372097,1,0,0:0:0:0:
296,100,372190,1,0,0:0:0:0:
296,100,372283,1,8,0:0:0:0:
296,100,372376,1,0,0:0:0:0:
296,100,372469,1,0,0:0:0:0:
296,100,372562,1,0,0:0:0:0:
296,100,372656,1,8,0:0:0:0:
296,100,372749,1,8,0:0:0:0:
296,100,372842,1,0,0:0:0:0:
206,49,373028,1,12,0:0:0:0:
80,144,373215,1,0,0:0:0:0:
80,144,373308,1,0,0:0:0:0:
188,196,373401,1,8,0:0:0:0:
188,196,373494,1,8,0:0:0:0:
188,196,373587,1,0,0:0:0:0:
188,196,373680,1,0,0:0:0:0:
192,110,373774,1,8,0:0:0:0:
192,110,373867,1,0,0:0:0:0:
192,110,373960,1,0,0:0:0:0:
192,110,374053,1,0,0:0:0:0:
188,196,374146,1,8,0:0:0:0:
188,196,374239,1,8,0:0:0:0:
188,196,374333,1,0,0:0:0:0:
188,196,374426,1,0,0:0:0:0:
192,110,374519,1,8,0:0:0:0:
192,110,374612,1,0,0:0:0:0:
192,110,374705,1,0,0:0:0:0:
192,110,374798,1,0,0:0:0:0:
188,196,374892,1,8,0:0:0:0:
188,196,374985,1,8,0:0:0:0:
188,196,375078,1,0,0:0:0:0:
188,196,375171,1,0,0:0:0:0:
192,110,375264,1,8,0:0:0:0:
192,110,375357,1,0,0:0:0:0:
192,110,375451,1,0,0:0:0:0:
192,110,375544,1,0,0:0:0:0:
188,196,375637,1,8,0:0:0:0:
188,196,375730,1,8,0:0:0:0:
188,196,375823,1,0,0:0:0:0:
188,196,375916,1,0,0:0:0:0:
192,110,376010,1,8,0:0:0:0:
192,110,376103,1,0,0:0:0:0:
192,110,376196,1,0,0:0:0:0:
192,110,376289,1,0,0:0:0:0:
188,196,376382,1,8,0:0:0:0:
188,196,376475,1,8,0:0:0:0:
188,196,376569,1,0,0:0:0:0:
188,196,376662,1,0,0:0:0:0:
192,110,376755,1,8,0:0:0:0:
192,110,376848,1,0,0:0:0:0:
192,110,376941,1,0,0:0:0:0:
192,110,377034,1,0,0:0:0:0:
283,50,377128,1,8,0:0:0:0:
283,50,377221,1,8,0:0:0:0:
276,68,377314,1,0,0:0:0:0:
276,68,377407,1,0,0:0:0:0:
296,100,377500,1,8,0:0:0:0:
296,100,377593,1,0,0:0:0:0:
296,100,377687,1,0,0:0:0:0:
296,100,377780,1,0,0:0:0:0:
296,100,377873,1,8,0:0:0:0:
296,100,377966,1,8,0:0:0:0:
296,100,378059,1,0,0:0:0:0:
296,100,378152,1,0,0:0:0:0:
296,100,378246,1,8,0:0:0:0:
296,100,378339,1,0,0:0:0:0:
296,100,378432,1,0,0:0:0:0:
296,100,378525,1,0,0:0:0:0:
296,100,378618,1,8,0:0:0:0:
296,100,378711,1,8,0:0:0:0:
296,100,378805,1,0,0:0:0:0:
206,49,378991,1,12,0:0:0:0:
80,144,379177,1,0,0:0:0:0:
80,144,379270,1,0,0:0:0:0:
188,196,379364,1,8,0:0:0:0:
188,196,379457,1,8,0:0:0:0:
188,196,379550,1,0,0:0:0:0:
188,196,379643,1,0,0:0:0:0:
192,110,379736,1,8,0:0:0:0:
192,110,379829,1,0,0:0:0:0:
192,110,379923,1,0,0:0:0:0:
192,110,380016,1,0,0:0:0:0:
188,196,380109,1,8,0:0:0:0:
188,196,380202,1,8,0:0:0:0:
188,196,380295,1,0,0:0:0:0:
188,196,380388,1,0,0:0:0:0:
192,110,380482,1,8,0:0:0:0:
192,110,380575,1,0,0:0:0:0:
192,110,380668,1,0,0:0:0:0:
192,110,380761,1,0,0:0:0:0:
188,196,380854,1,8,0:0:0:0:
188,196,380947,1,8,0:0:0:0:
188,196,381041,1,0,0:0:0:0:
188,196,381134,1,0,0:0:0:0:
192,110,381227,1,8,0:0:0:0:
192,110,381320,1,0,0:0:0:0:
192,110,381413,1,0,0:0:0:0:
192,110,381506,1,0,0:0:0:0:
188,196,381600,1,8,0:0:0:0:
188,196,381693,1,8,0:0:0:0:
188,196,381786,1,0,0:0:0:0:
188,196,381879,1,0,0:0:0:0:
192,110,381972,1,8,0:0:0:0:
192,110,382066,1,0,0:0:0:0:
192,110,382159,1,0,0:0:0:0:
192,110,382252,1,0,0:0:0:0:
188,196,382345,1,8,0:0:0:0:
188,196,382438,1,8,0:0:0:0:
188,196,382531,1,0,0:0:0:0:
188,196,382625,1,0,0:0:0:0:
192,110,382718,1,8,0:0:0:0:
192,110,382811,1,0,0:0:0:0:
192,110,382904,1,0,0:0:0:0:
192,110,382997,1,0,0:0:0:0:
283,50,383090,1,8,0:0:0:0:
283,50,383184,1,8,0:0:0:0:
276,68,383277,1,0,0:0:0:0:
276,68,383370,1,0,0:0:0:0:
296,100,383463,1,8,0:0:0:0:
296,100,383556,1,0,0:0:0:0:
296,100,383649,1,0,0:0:0:0:
296,100,383743,1,0,0:0:0:0:
296,100,383836,1,8,0:0:0:0:
296,100,383929,1,8,0:0:0:0:
296,100,384022,1,0,0:0:0:0:
296,100,384115,1,0,0:0:0:0:
296,100,384208,1,8,0:0:0:0:
296,100,384302,1,0,0:0:0:0:
296,100,384395,1,0,0:0:0:0:
296,100,384488,1,0,0:0:0:0:
296,100,384581,1,8,0:0:0:0:
296,100,384674,1,8,0:0:0:0:
296,100,384767,1,0,0:0:0:0:
206,49,384954,1,12,0:0:0:0:
80,144,385140,1,0,0:0:0:0:
80,144,385233,1,0,0:0:0:0:
188,196,385326,1,8,0:0:0:0:
188,196,385420,1,8,0:0:0:0:
188,196,385513,1,0,0:0:0:0:
188,196,385606,1,0,0:0:0:0:
192,110,385699,1,8,0:0:0:0:
192,110,385792,1,0,0:0:0:0:
192,110,385885,1,0,0:0:0:0:
192,110,385979,1,0,0:0:0:0:
188,196,386073,1,8,0:0:0:0:
188,196,386165,1,8,0:0:0:0:
188,196,386258,1,0,0:0:0:0:
188,196,386351,1,0,0:0:0:0:
192,110,386444,1,8,0:0:0:0:
192,110,386538,1,0,0:0:0:0:
192,110,386631,1,0,0:0:0:0:
192,110,386724,1,0,0:0:0:0:
188,196,386817,1,8,0:0:0:0:
188,196,386910,1,8,0:0:0:0:
188,196,387003,1,0,0:0:0:0:
188,196,387097,1,0,0:0:0:0:
192,110,387190,1,8,0:0:0:0:
192,110,387279,1,0,0:0:0:0:
192,110,387369,1,0,0:0:0:0:
192,110,387457,1,0,0:0:0:0:
188,196,387547,1,8,0:0:0:0:
188,196,387640,1,8,0:0:0:0:
188,196,387733,1,0,0:0:0:0:
188,196,387826,1,0,0:0:0:0:
192,110,387919,1,8,0:0:0:0:
192,110,388012,1,0,0:0:0:0:
192,110,388105,1,0,0:0:0:0:
192,110,388198,1,0,0:0:0:0:
188,196,388291,1,8,0:0:0:0:
188,196,388384,1,8,0:0:0:0:
188,196,388478,1,0,0:0:0:0:
188,196,388571,1,0,0:0:0:0:
192,110,388665,1,8,0:0:0:0:
192,110,388757,1,0,0:0:0:0:
192,110,388850,1,0,0:0:0:0:
192,110,388943,1,0,0:0:0:0:
283,50,389037,1,8,0:0:0:0:
283,50,389130,1,8,0:0:0:0:
276,68,389223,1,0,0:0:0:0:
276,68,389316,1,0,0:0:0:0:
296,100,389409,1,8,0:0:0:0:
296,100,389502,1,0,0:0:0:0:
296,100,389596,1,0,0:0:0:0:
296,100,389689,1,0,0:0:0:0:
296,100,389782,1,8,0:0:0:0:
296,100,389875,1,8,0:0:0:0:
296,100,389968,1,0,0:0:0:0:
296,100,390061,1,0,0:0:0:0:
296,100,390155,1,8,0:0:0:0:
296,100,390248,1,0,0:0:0:0:
296,100,390341,1,0,0:0:0:0:
296,100,390434,1,0,0:0:0:0:
296,100,390527,1,8,0:0:0:0:
296,100,390620,1,8,0:0:0:0:
296,100,390714,1,0,0:0:0:0:
206,49,390912,1,12,0:0:0:0:
80,144,391086,1,0,0:0:0:0:
80,144,391178,1,0,0:0:0:0:
188,196,391271,1,8,0:0:0:0:
188,196,391364,1,8,0:0:0:0:
188,196,391457,1,0,0:0:0:0:
188,196,391550,1,0,0:0:0:0:
192,110,391644,1,8,0:0:0:0:
192,110,391737,1,0,0:0:0:0:
192,110,391830,1,0,0:0:0:0:
192,110,391923,1,0,0:0:0:0:
188,196,392016,1,8,0:0:0:0:
188,196,392109,1,8,0:0:0:0:
188,196,392203,1,0,0:0:0:0:
188,196,392296,1,0,0:0:0:0:
192,110,392389,1,8,0:0:0:0:
192,110,392482,1,0,0:0:0:0:
192,110,392575,1,0,0:0:0:0:
192,110,392668,1,0,0:0:0:0:
188,196,392762,1,8,0:0:0:0:
188,196,392855,1,8,0:0:0:0:
188,196,392948,1,0,0:0:0:0:
188,196,393041,1,0,0:0:0:0:
192,110,393134,1,8,0:0:0:0:
192,110,393227,1,0,0:0:0:0:
192,110,393321,1,0,0:0:0:0:
192,110,393414,1,0,0:0:0:0:
188,196,393507,1,8,0:0:0:0:
188,196,393600,1,8,0:0:0:0:
188,196,393693,1,0,0:0:0:0:
188,196,393786,1,0,0:0:0:0:
192,110,393880,1,8,0:0:0:0:
192,110,393973,1,0,0:0:0:0:
192,110,394066,1,0,0:0:0:0:
192,110,394159,1,0,0:0:0:0:
188,196,394252,1,8,0:0:0:0:
188,196,394345,1,8,0:0:0:0:
188,196,394439,1,0,0:0:0:0:
188,196,394532,1,0,0:0:0:0:
192,110,394625,1,8,0:0:0:0:
192,110,394718,1,0,0:0:0:0:
192,110,394811,1,0,0:0:0:0:
192,110,394904,1,0,0:0:0:0:
283,50,394998,1,8,0:0:0:0:
283,50,395091,1,8,0:0:0:0:
276,68,395184,1,0,0:0:0:0:
276,68,395277,1,0,0:0:0:0:
296,100,395370,1,8,0:0:0:0:
296,100,395463,1,0,0:0:0:0:
296,100,395557,1,0,0:0:0:0:
296,100,395650,1,0,0:0:0:0:
296,100,395743,1,8,0:0:0:0:
296,100,395836,1,8,0:0:0:0:
296,100,395929,1,0,0:0:0:0:
296,100,396022,1,0,0:0:0:0:
296,100,396117,1,8,0:0:0:0:
296,100,396209,1,0,0:0:0:0:
296,100,396302,1,0,0:0:0:0:
296,100,396395,1,0,0:0:0:0:
296,100,396488,1,8,0:0:0:0:
296,100,396581,1,8,0:0:0:0:
296,100,396675,1,0,0:0:0:0:
206,49,396861,1,12,0:0:0:0:
80,144,397047,1,0,0:0:0:0:
80,144,397140,1,0,0:0:0:0:
188,196,397234,1,8,0:0:0:0:
188,196,397327,1,8,0:0:0:0:
188,196,397420,1,0,0:0:0:0:
188,196,397513,1,0,0:0:0:0:
192,110,397606,1,8,0:0:0:0:
192,110,397699,1,0,0:0:0:0:
192,110,397793,1,0,0:0:0:0:
192,110,397886,1,0,0:0:0:0:
188,196,397979,1,8,0:0:0:0:
188,196,398072,1,8,0:0:0:0:
188,196,398165,1,0,0:0:0:0:
188,196,398258,1,0,0:0:0:0:
192,110,398352,1,8,0:0:0:0:
192,110,398445,1,0,0:0:0:0:
192,110,398538,1,0,0:0:0:0:
192,110,398631,1,0,0:0:0:0:
188,196,398724,1,8,0:0:0:0:
188,196,398817,1,8,0:0:0:0:
188,196,398911,1,0,0:0:0:0:
188,196,399004,1,0,0:0:0:0:
192,110,399097,1,8,0:0:0:0:
192,110,399190,1,0,0:0:0:0:
192,110,399283,1,0,0:0:0:0:
192,110,399376,1,0,0:0:0:0:
188,196,399470,1,8,0:0:0:0:
188,196,399563,1,8,0:0:0:0:
188,196,399656,1,0,0:0:0:0:
188,196,399749,1,0,0:0:0:0:
192,110,399843,1,8,0:0:0:0:
192,110,399935,1,0,0:0:0:0:
192,110,400029,1,0,0:0:0:0:
192,110,400122,1,0,0:0:0:0:
188,196,400215,1,8,0:0:0:0:
188,196,400308,1,8,0:0:0:0:
188,196,400401,1,0,0:0:0:0:
188,196,400494,1,0,0:0:0:0:
192,110,400588,1,8,0:0:0:0:
192,110,400681,1,0,0:0:0:0:
192,110,400774,1,0,0:0:0:0:
192,110,400867,1,0,0:0:0:0:
283,50,400960,1,8,0:0:0:0:
283,50,401053,1,8,0:0:0:0:
276,68,401147,1,0,0:0:0:0:
276,68,401240,1,0,0:0:0:0:
296,100,401333,1,8,0:0:0:0:
296,100,401426,1,0,0:0:0:0:
296,100,401519,1,0,0:0:0:0:
296,100,401612,1,0,0:0:0:0:
296,100,401706,1,8,0:0:0:0:
296,100,401799,1,8,0:0:0:0:
296,100,401892,1,0,0:0:0:0:
296,100,401985,1,0,0:0:0:0:
296,100,402078,1,8,0:0:0:0:
296,100,402171,1,0,0:0:0:0:
296,100,402265,1,0,0:0:0:0:
296,100,402358,1,0,0:0:0:0:
296,100,402451,1,8,0:0:0:0:
296,100,402544,1,8,0:0:0:0:
296,100,402637,1,0,0:0:0:0:
206,49,402824,1,12,0:0:0:0:
80,144,403011,1,0,0:0:0:0:
80,144,403104,1,0,0:0:0:0:
188,196,403196,1,8,0:0:0:0:
188,196,403289,1,8,0:0:0:0:
188,196,403383,1,0,0:0:0:0:
188,196,403476,1,0,0:0:0:0:
192,110,403569,1,8,0:0:0:0:
192,110,403662,1,0,0:0:0:0:
192,110,403755,1,0,0:0:0:0:
192,110,403848,1,0,0:0:0:0:
188,196,403942,1,8,0:0:0:0:
188,196,404035,1,8,0:0:0:0:
188,196,404128,1,0,0:0:0:0:
188,196,404221,1,0,0:0:0:0:
192,110,404314,1,8,0:0:0:0:
192,110,404407,1,0,0:0:0:0:
192,110,404501,1,0,0:0:0:0:
192,110,404594,1,0,0:0:0:0:
188,196,404687,1,8,0:0:0:0:
188,196,404780,1,8,0:0:0:0:
188,196,404873,1,0,0:0:0:0:
188,196,404966,1,0,0:0:0:0:
192,110,405060,1,8,0:0:0:0:
192,110,405153,1,0,0:0:0:0:
192,110,405246,1,0,0:0:0:0:
192,110,405339,1,0,0:0:0:0:
188,196,405432,1,8,0:0:0:0:
188,196,405525,1,8,0:0:0:0:
188,196,405619,1,0,0:0:0:0:
188,196,405712,1,0,0:0:0:0:
192,110,405805,1,8,0:0:0:0:
192,110,405898,1,0,0:0:0:0:
192,110,405991,1,0,0:0:0:0:
192,110,406084,1,0,0:0:0:0:
188,196,406178,1,8,0:0:0:0:
188,196,406271,1,8,0:0:0:0:
188,196,406364,1,0,0:0:0:0:
188,196,406457,1,0,0:0:0:0:
192,110,406550,1,8,0:0:0:0:
192,110,406643,1,0,0:0:0:0:
192,110,406737,1,0,0:0:0:0:
192,110,406830,1,0,0:0:0:0:
283,50,406923,1,8,0:0:0:0:
283,50,407016,1,8,0:0:0:0:
276,68,407109,1,0,0:0:0:0:
276,68,407202,1,0,0:0:0:0:
296,100,407296,1,8,0:0:0:0:
296,100,407389,1,0,0:0:0:0:
296,100,407482,1,0,0:0:0:0:
296,100,407575,1,0,0:0:0:0:
296,100,407668,1,8,0:0:0:0:
296,100,407761,1,8,0:0:0:0:
296,100,407855,1,0,0:0:0:0:
296,100,407948,1,0,0:0:0:0:
296,100,408041,1,8,0:0:0:0:
296,100,408134,1,0,0:0:0:0:
296,100,408227,1,0,0:0:0:0:
296,100,408320,1,0,0:0:0:0:
296,100,408414,1,8,0:0:0:0:
296,100,408507,1,8,0:0:0:0:
296,100,408601,1,0,0:0:0:0:
206,49,408786,1,12,0:0:0:0:
80,144,408973,1,0,0:0:0:0:
80,144,409066,1,0,0:0:0:0:
188,196,409159,1,8,0:0:0:0:
188,196,409252,1,8,0:0:0:0:
188,196,409345,1,0,0:0:0:0:
188,196,409438,1,0,0:0:0:0:
192,110,409532,1,8,0:0:0:0:
192,110,409625,1,0,0:0:0:0:
192,110,409718,1,0,0:0:0:0:
192,110,409811,1,0,0:0:0:0:
188,196,409904,1,8,0:0:0:0:
188,196,409997,1,8,0:0:0:0:
188,196,410091,1,0,0:0:0:0:
188,196,410184,1,0,0:0:0:0:
192,110,410277,1,8,0:0:0:0:
192,110,410370,1,0,0:0:0:0:
192,110,410463,1,0,0:0:0:0:
192,110,410556,1,0,0:0:0:0:
188,196,410650,1,8,0:0:0:0:
188,196,410743,1,8,0:0:0:0:
188,196,410836,1,0,0:0:0:0:
188,196,410929,1,0,0:0:0:0:
192,110,411022,1,8,0:0:0:0:
192,110,411115,1,0,0:0:0:0:
192,110,411209,1,0,0:0:0:0:
192,110,411302,1,0,0:0:0:0:
188,196,411395,1,8,0:0:0:0:
188,196,411488,1,8,0:0:0:0:
188,196,411581,1,0,0:0:0:0:
188,196,411674,1,0,0:0:0:0:
192,110,411768,1,8,0:0:0:0:
192,110,411861,1,0,0:0:0:0:
192,110,411954,1,0,0:0:0:0:
192,110,412047,1,0,0:0:0:0:
188,196,412140,1,8,0:0:0:0:
188,196,412233,1,8,0:0:0:0:
188,196,412327,1,0,0:0:0:0:
188,196,412420,1,0,0:0:0:0:
192,110,412513,1,8,0:0:0:0:
192,110,412606,1,0,0:0:0:0:
192,110,412699,1,0,0:0:0:0:
192,110,412792,1,0,0:0:0:0:
283,50,412886,1,8,0:0:0:0:
283,50,412979,1,8,0:0:0:0:
276,68,413072,1,0,0:0:0:0:
276,68,413165,1,0,0:0:0:0:
296,100,413258,1,8,0:0:0:0:
296,100,413351,1,0,0:0:0:0:
296,100,413445,1,0,0:0:0:0:
296,100,413538,1,0,0:0:0:0:
296,100,413631,1,8,0:0:0:0:
296,100,413724,1,8,0:0:0:0:
296,100,413817,1,0,0:0:0:0:
296,100,413910,1,0,0:0:0:0:
296,100,414004,1,8,0:0:0:0:
296,100,414097,1,0,0:0:0:0:
296,100,414190,1,0,0:0:0:0:
296,100,414283,1,0,0:0:0:0:
296,100,414376,1,8,0:0:0:0:
296,100,414469,1,8,0:0:0:0:
296,100,414563,1,0,0:0:0:0:
206,49,414766,1,12,0:0:0:0:
283,160,414951,1,0,0:0:0:0:
283,160,415044,1,0,0:0:0:0:
283,160,415138,1,8,0:0:0:0:
283,160,415231,1,8,0:0:0:0:
283,160,415324,1,8,0:0:0:0:
283,160,415417,1,8,0:0:0:0:
258,88,415511,1,0,0:0:0:0:
258,88,415604,1,0,0:0:0:0:
258,88,415697,1,0,0:0:0:0:
258,88,415791,1,0,0:0:0:0:
258,88,415884,1,8,0:0:0:0:
258,88,415977,1,8,0:0:0:0:
258,88,416070,1,8,0:0:0:0:
258,88,416164,1,8,0:0:0:0:
258,88,416257,1,0,0:0:0:0:
258,88,416350,1,0,0:0:0:0:
258,88,416444,1,0,0:0:0:0:
258,88,416537,1,0,0:0:0:0:
258,88,416630,1,8,0:0:0:0:
258,88,416723,1,0,0:0:0:0:
258,88,416817,1,0,0:0:0:0:
258,88,416910,1,0,0:0:0:0:
258,88,417003,1,8,0:0:0:0:
258,88,417097,1,0,0:0:0:0:
258,88,417190,1,8,0:0:0:0:
258,88,417283,1,8,0:0:0:0:
258,88,417376,1,0,0:0:0:0:
258,88,417470,1,0,0:0:0:0:
258,88,417563,1,8,0:0:0:0:
258,88,417656,1,8,0:0:0:0:
258,88,417750,1,0,0:0:0:0:
258,88,417843,1,0,0:0:0:0:
178,128,417936,1,0,0:0:0:0:
178,128,418029,1,0,0:0:0:0:
240,112,418123,1,8,0:0:0:0:
240,112,418216,1,8,0:0:0:0:
240,112,418309,1,8,0:0:0:0:
240,112,418403,1,8,0:0:0:0:
240,112,418496,1,0,0:0:0:0:
240,112,418589,1,0,0:0:0:0:
240,112,418682,1,0,0:0:0:0:
240,112,418776,1,0,0:0:0:0:
240,112,418869,1,8,0:0:0:0:
240,112,418962,1,8,0:0:0:0:
240,112,419056,1,8,0:0:0:0:
240,112,419149,1,8,0:0:0:0:
240,112,419242,1,0,0:0:0:0:
240,112,419335,1,0,0:0:0:0:
240,112,419429,1,0,0:0:0:0:
240,112,419522,1,0,0:0:0:0:
233,120,419615,1,8,0:0:0:0:
233,120,419709,1,8,0:0:0:0:
233,120,419802,1,0,0:0:0:0:
233,120,419895,1,0,0:0:0:0:
233,120,419988,1,8,0:0:0:0:
233,120,420082,1,0,0:0:0:0:
233,120,420175,1,0,0:0:0:0:
233,120,420268,1,0,0:0:0:0:
233,120,420362,1,8,0:0:0:0:
233,120,420455,1,8,0:0:0:0:
233,120,420548,1,0,0:0:0:0:
166,162,420735,1,12,0:0:0:0:
283,160,420921,1,0,0:0:0:0:
283,160,421015,1,0,0:0:0:0:
283,160,421108,1,8,0:0:0:0:
283,160,421201,1,8,0:0:0:0:
283,160,421294,1,8,0:0:0:0:
283,160,421389,1,8,0:0:0:0:
258,88,421481,1,0,0:0:0:0:
258,88,421574,1,0,0:0:0:0:
258,88,421667,1,0,0:0:0:0:
258,88,421761,1,0,0:0:0:0:
258,88,421854,1,8,0:0:0:0:
258,88,421947,1,8,0:0:0:0:
258,88,422041,1,8,0:0:0:0:
258,88,422134,1,8,0:0:0:0:
258,88,422227,1,0,0:0:0:0:
258,88,422320,1,0,0:0:0:0:
258,88,422414,1,0,0:0:0:0:
258,88,422507,1,0,0:0:0:0:
258,88,422600,1,8,0:0:0:0:
258,88,422694,1,0,0:0:0:0:
258,88,422787,1,0,0:0:0:0:
258,88,422880,1,0,0:0:0:0:
258,88,422973,1,8,0:0:0:0:
258,88,423067,1,0,0:0:0:0:
258,88,423160,1,8,0:0:0:0:
258,88,423253,1,8,0:0:0:0:
258,88,423347,1,0,0:0:0:0:
258,88,423440,1,0,0:0:0:0:
258,88,423533,1,8,0:0:0:0:
258,88,423626,1,8,0:0:0:0:
258,88,423720,1,0,0:0:0:0:
258,88,423813,1,0,0:0:0:0:
178,128,423906,1,0,0:0:0:0:
178,128,424000,1,0,0:0:0:0:
240,112,424093,1,8,0:0:0:0:
240,112,424186,1,8,0:0:0:0:
240,112,424279,1,8,0:0:0:0:
240,112,424373,1,8,0:0:0:0:
240,112,424467,1,0,0:0:0:0:
240,112,424559,1,0,0:0:0:0:
240,112,424653,1,0,0:0:0:0:
240,112,424746,1,0,0:0:0:0:
240,112,424839,1,8,0:0:0:0:
240,112,424932,1,8,0:0:0:0:
240,112,425026,1,8,0:0:0:0:
240,112,425119,1,8,0:0:0:0:
240,112,425212,1,0,0:0:0:0:
240,112,425306,1,0,0:0:0:0:
240,112,425399,1,0,0:0:0:0:
240,112,425492,1,0,0:0:0:0:
233,120,425585,1,8,0:0:0:0:
233,120,425679,1,8,0:0:0:0:
233,120,425772,1,0,0:0:0:0:
233,120,425865,1,0,0:0:0:0:
233,120,425959,1,8,0:0:0:0:
233,120,426052,1,0,0:0:0:0:
233,120,426145,1,0,0:0:0:0:
233,120,426238,1,0,0:0:0:0:
233,120,426332,1,8,0:0:0:0:
233,120,426425,1,8,0:0:0:0:
233,120,426518,1,0,0:0:0:0:
166,162,426724,1,12,0:0:0:0:
283,160,426894,1,0,0:0:0:0:
283,160,426986,1,0,0:0:0:0:
283,160,427079,1,8,0:0:0:0:
283,160,427172,1,8,0:0:0:0:
283,160,427265,1,8,0:0:0:0:
283,160,427358,1,8,0:0:0:0:
258,88,427452,1,0,0:0:0:0:
258,88,427545,1,0,0:0:0:0:
258,88,427638,1,0,0:0:0:0:
258,88,427731,1,0,0:0:0:0:
258,88,427824,1,8,0:0:0:0:
258,88,427917,1,8,0:0:0:0:
258,88,428011,1,8,0:0:0:0:
258,88,428104,1,8,0:0:0:0:
258,88,428197,1,0,0:0:0:0:
258,88,428290,1,0,0:0:0:0:
258,88,428383,1,0,0:0:0:0:
258,88,428476,1,0,0:0:0:0:
258,88,428570,1,8,0:0:0:0:
258,88,428663,1,0,0:0:0:0:
258,88,428756,1,0,0:0:0:0:
258,88,428849,1,0,0:0:0:0:
258,88,428942,1,8,0:0:0:0:
258,88,429035,1,0,0:0:0:0:
258,88,429129,1,8,0:0:0:0:
258,88,429222,1,8,0:0:0:0:
258,88,429315,1,0,0:0:0:0:
258,88,429408,1,0,0:0:0:0:
258,88,429501,1,8,0:0:0:0:
258,88,429594,1,8,0:0:0:0:
258,88,429688,1,0,0:0:0:0:
258,88,429781,1,0,0:0:0:0:
178,128,429874,1,0,0:0:0:0:
178,128,429967,1,0,0:0:0:0:
240,112,430060,1,8,0:0:0:0:
240,112,430153,1,8,0:0:0:0:
240,112,430247,1,8,0:0:0:0:
240,112,430340,1,8,0:0:0:0:
240,112,430433,1,0,0:0:0:0:
240,112,430526,1,0,0:0:0:0:
240,112,430619,1,0,0:0:0:0:
240,112,430712,1,0,0:0:0:0:
240,112,430806,1,8,0:0:0:0:
240,112,430899,1,8,0:0:0:0:
240,112,430992,1,8,0:0:0:0:
240,112,431085,1,8,0:0:0:0:
240,112,431178,1,0,0:0:0:0:
240,112,431271,1,0,0:0:0:0:
240,112,431365,1,0,0:0:0:0:
240,112,431458,1,0,0:0:0:0:
233,120,431551,1,8,0:0:0:0:
233,120,431644,1,8,0:0:0:0:
233,120,431737,1,0,0:0:0:0:
233,120,431830,1,0,0:0:0:0:
233,120,431924,1,8,0:0:0:0:
233,120,432017,1,0,0:0:0:0:
233,120,432110,1,0,0:0:0:0:
233,120,432203,1,0,0:0:0:0:
233,120,432296,1,8,0:0:0:0:
233,120,432389,1,8,0:0:0:0:
233,120,432483,1,0,0:0:0:0:
166,162,432669,1,12,0:0:0:0:
283,160,432855,1,0,0:0:0:0:
283,160,432948,1,0,0:0:0:0:
283,160,433042,1,8,0:0:0:0:
283,160,433135,1,8,0:0:0:0:
283,160,433228,1,8,0:0:0:0:
283,160,433321,1,8,0:0:0:0:
258,88,433414,1,0,0:0:0:0:
258,88,433507,1,0,0:0:0:0:
258,88,433601,1,0,0:0:0:0:
258,88,433694,1,0,0:0:0:0:
258,88,433787,1,8,0:0:0:0:
258,88,433880,1,8,0:0:0:0:
258,88,433973,1,8,0:0:0:0:
258,88,434066,1,8,0:0:0:0:
258,88,434160,1,0,0:0:0:0:
258,88,434253,1,0,0:0:0:0:
258,88,434346,1,0,0:0:0:0:
258,88,434439,1,0,0:0:0:0:
258,88,434532,1,8,0:0:0:0:
258,88,434625,1,0,0:0:0:0:
258,88,434719,1,0,0:0:0:0:
258,88,434812,1,0,0:0:0:0:
258,88,434905,1,8,0:0:0:0:
258,88,434998,1,0,0:0:0:0:
258,88,435091,1,8,0:0:0:0:
258,88,435184,1,8,0:0:0:0:
258,88,435278,1,0,0:0:0:0:
258,88,435371,1,0,0:0:0:0:
258,88,435464,1,8,0:0:0:0:
258,88,435557,1,8,0:0:0:0:
258,88,435650,1,0,0:0:0:0:
258,88,435743,1,0,0:0:0:0:
178,128,435837,1,0,0:0:0:0:
178,128,435930,1,0,0:0:0:0:
240,112,436023,1,8,0:0:0:0:
240,112,436116,1,8,0:0:0:0:
240,112,436209,1,8,0:0:0:0:
240,112,436302,1,8,0:0:0:0:
240,112,436396,1,0,0:0:0:0:
240,112,436489,1,0,0:0:0:0:
240,112,436582,1,0,0:0:0:0:
240,112,436675,1,0,0:0:0:0:
240,112,436768,1,8,0:0:0:0:
240,112,436861,1,8,0:0:0:0:
240,112,436955,1,8,0:0:0:0:
240,112,437048,1,8,0:0:0:0:
240,112,437141,1,0,0:0:0:0:
240,112,437234,1,0,0:0:0:0:
240,112,437327,1,0,0:0:0:0:
240,112,437420,1,0,0:0:0:0:
233,120,437514,1,8,0:0:0:0:
233,120,437607,1,8,0:0:0:0:
233,120,437700,1,0,0:0:0:0:
233,120,437793,1,0,0:0:0:0:
233,120,437886,1,8,0:0:0:0:
233,120,437979,1,0,0:0:0:0:
233,120,438073,1,0,0:0:0:0:
233,120,438166,1,0,0:0:0:0:
233,120,438259,1,8,0:0:0:0:
233,120,438352,1,8,0:0:0:0:
233,120,438445,1,0,0:0:0:0:
166,162,438632,5,12,0:0:0:0:
283,160,438818,1,0,0:0:0:0:
283,160,438911,1,0,0:0:0:0:
283,160,439004,1,8,0:0:0:0:
283,160,439097,1,8,0:0:0:0:
283,160,439191,1,8,0:0:0:0:
283,160,439284,1,8,0:0:0:0:
258,88,439377,1,0,0:0:0:0:
258,88,439470,1,0,0:0:0:0:
258,88,439563,1,0,0:0:0:0:
258,88,439656,1,0,0:0:0:0:
258,88,439750,1,8,0:0:0:0:
258,88,439843,1,8,0:0:0:0:
258,88,439936,1,8,0:0:0:0:
258,88,440029,1,8,0:0:0:0:
258,88,440122,1,0,0:0:0:0:
258,88,440215,1,0,0:0:0:0:
258,88,440309,1,0,0:0:0:0:
258,88,440402,1,0,0:0:0:0:
258,88,440495,1,8,0:0:0:0:
258,88,440588,1,0,0:0:0:0:
258,88,440681,1,0,0:0:0:0:
258,88,440774,1,0,0:0:0:0:
258,88,440868,1,8,0:0:0:0:
258,88,440961,1,0,0:0:0:0:
258,88,441054,1,8,0:0:0:0:
258,88,441147,1,8,0:0:0:0:
258,88,441240,1,0,0:0:0:0:
258,88,441333,1,0,0:0:0:0:
258,88,441427,1,8,0:0:0:0:
258,88,441520,1,8,0:0:0:0:
258,88,441613,1,0,0:0:0:0:
258,88,441706,1,0,0:0:0:0:
178,128,441799,1,0,0:0:0:0:
178,128,441893,1,0,0:0:0:0:
240,112,441986,1,8,0:0:0:0:
240,112,442079,1,8,0:0:0:0:
240,112,442172,1,8,0:0:0:0:
240,112,442265,1,8,0:0:0:0:
240,112,442358,1,0,0:0:0:0:
240,112,442452,1,0,0:0:0:0:
240,112,442545,1,0,0:0:0:0:
240,112,442638,1,0,0:0:0:0:
240,112,442731,1,8,0:0:0:0:
240,112,442824,1,8,0:0:0:0:
240,112,442917,1,8,0:0:0:0:
240,112,443011,1,8,0:0:0:0:
240,112,443104,1,0,0:0:0:0:
240,112,443197,1,0,0:0:0:0:
240,112,443290,1,0,0:0:0:0:
240,112,443383,1,0,0:0:0:0:
233,120,443476,1,8,0:0:0:0:
233,120,443570,1,8,0:0:0:0:
233,120,443663,1,0,0:0:0:0:
233,120,443756,1,0,0:0:0:0:
233,120,443849,1,8,0:0:0:0:
233,120,443942,1,0,0:0:0:0:
233,120,444035,1,0,0:0:0:0:
233,120,444129,1,0,0:0:0:0:
233,120,444222,1,8,0:0:0:0:
233,120,444315,1,8,0:0:0:0:
233,120,444408,1,0,0:0:0:0:
166,162,444594,1,12,0:0:0:0:
283,160,444781,1,0,0:0:0:0:
283,160,444874,1,0,0:0:0:0:
283,160,444967,1,8,0:0:0:0:
283,160,445060,1,8,0:0:0:0:
283,160,445153,1,8,0:0:0:0:
283,160,445247,1,8,0:0:0:0:
258,88,445340,1,0,0:0:0:0:
258,88,445433,1,0,0:0:0:0:
258,88,445527,1,0,0:0:0:0:
258,88,445619,1,0,0:0:0:0:
258,88,445712,1,8,0:0:0:0:
258,88,445806,1,8,0:0:0:0:
258,88,445899,1,8,0:0:0:0:
258,88,445992,1,8,0:0:0:0:
258,88,446085,1,0,0:0:0:0:
258,88,446178,1,0,0:0:0:0:
258,88,446271,1,0,0:0:0:0:
258,88,446365,1,0,0:0:0:0:
258,88,446458,1,8,0:0:0:0:
258,88,446551,1,0,0:0:0:0:
258,88,446644,1,0,0:0:0:0:
258,88,446737,1,0,0:0:0:0:
258,88,446830,1,8,0:0:0:0:
258,88,446924,1,0,0:0:0:0:
258,88,447017,1,8,0:0:0:0:
258,88,447110,1,8,0:0:0:0:
258,88,447203,1,0,0:0:0:0:
258,88,447296,1,0,0:0:0:0:
258,88,447389,1,8,0:0:0:0:
258,88,447483,1,8,0:0:0:0:
258,88,447576,1,0,0:0:0:0:
258,88,447669,1,0,0:0:0:0:
178,128,447762,1,0,0:0:0:0:
178,128,447855,1,0,0:0:0:0:
240,112,447948,1,8,0:0:0:0:
240,112,448042,1,8,0:0:0:0:
240,112,448135,1,8,0:0:0:0:
240,112,448228,1,8,0:0:0:0:
240,112,448321,1,0,0:0:0:0:
240,112,448414,1,0,0:0:0:0:
240,112,448507,1,0,0:0:0:0:
240,112,448601,1,0,0:0:0:0:
240,112,448694,1,8,0:0:0:0:
240,112,448787,1,8,0:0:0:0:
240,112,448880,1,8,0:0:0:0:
240,112,448973,1,8,0:0:0:0:
240,112,449066,1,0,0:0:0:0:
240,112,449160,1,0,0:0:0:0:
240,112,449253,1,0,0:0:0:0:
240,112,449346,1,0,0:0:0:0:
233,120,449439,1,8,0:0:0:0:
233,120,449532,1,8,0:0:0:0:
233,120,449625,1,0,0:0:0:0:
233,120,449719,1,0,0:0:0:0:
233,120,449812,1,8,0:0:0:0:
233,120,449905,1,0,0:0:0:0:
233,120,449998,1,0,0:0:0:0:
233,120,450091,1,0,0:0:0:0:
233,120,450184,1,8,0:0:0:0:
233,120,450278,1,8,0:0:0:0:
233,120,450371,1,0,0:0:0:0:
166,162,450557,1,12,0:0:0:0:
283,160,450743,1,0,0:0:0:0:
283,160,450837,1,0,0:0:0:0:
283,160,450930,1,8,0:0:0:0:
283,160,451023,1,8,0:0:0:0:
283,160,451116,1,8,0:0:0:0:
283,160,451209,1,8,0:0:0:0:
258,88,451302,1,0,0:0:0:0:
258,88,451396,1,0,0:0:0:0:
258,88,451489,1,0,0:0:0:0:
258,88,451582,1,0,0:0:0:0:
258,88,451675,1,8,0:0:0:0:
258,88,451768,1,8,0:0:0:0:
258,88,451861,1,8,0:0:0:0:
258,88,451955,1,8,0:0:0:0:
258,88,452048,1,0,0:0:0:0:
258,88,452141,1,0,0:0:0:0:
258,88,452234,1,0,0:0:0:0:
258,88,452327,1,0,0:0:0:0:
258,88,452420,1,8,0:0:0:0:
258,88,452514,1,0,0:0:0:0:
258,88,452607,1,0,0:0:0:0:
258,88,452700,1,0,0:0:0:0:
258,88,452793,1,8,0:0:0:0:
258,88,452886,1,0,0:0:0:0:
258,88,452979,1,8,0:0:0:0:
258,88,453073,1,8,0:0:0:0:
258,88,453166,1,0,0:0:0:0:
258,88,453259,1,0,0:0:0:0:
258,88,453352,1,8,0:0:0:0:
258,88,453445,1,8,0:0:0:0:
258,88,453538,1,0,0:0:0:0:
258,88,453632,1,0,0:0:0:0:
178,128,453725,1,0,0:0:0:0:
178,128,453818,1,0,0:0:0:0:
240,112,453911,1,8,0:0:0:0:
240,112,454004,1,8,0:0:0:0:
240,112,454097,1,8,0:0:0:0:
240,112,454191,1,8,0:0:0:0:
240,112,454284,1,0,0:0:0:0:
240,112,454377,1,0,0:0:0:0:
240,112,454470,1,0,0:0:0:0:
240,112,454563,1,0,0:0:0:0:
240,112,454656,1,8,0:0:0:0:
240,112,454750,1,8,0:0:0:0:
240,112,454843,1,8,0:0:0:0:
240,112,454936,1,8,0:0:0:0:
240,112,455029,1,0,0:0:0:0:
240,112,455122,1,0,0:0:0:0:
240,112,455215,1,0,0:0:0:0:
240,112,455309,1,0,0:0:0:0:
233,120,455402,1,8,0:0:0:0:
233,120,455495,1,8,0:0:0:0:
233,120,455588,1,0,0:0:0:0:
233,120,455681,1,0,0:0:0:0:
233,120,455774,1,8,0:0:0:0:
233,120,455868,1,0,0:0:0:0:
233,120,455961,1,0,0:0:0:0:
233,120,456054,1,0,0:0:0:0:
233,120,456147,1,8,0:0:0:0:
233,120,456240,1,8,0:0:0:0:
233,120,456333,1,0,0:0:0:0:
166,162,456520,1,12,0:0:0:0:
283,160,456706,1,0,0:0:0:0:
283,160,456799,1,0,0:0:0:0:
283,160,456893,1,8,0:0:0:0:
283,160,456986,1,8,0:0:0:0:
283,160,457079,1,8,0:0:0:0:
283,160,457172,1,8,0:0:0:0:
258,88,457265,1,0,0:0:0:0:
258,88,457358,1,0,0:0:0:0:
258,88,457452,1,0,0:0:0:0:
258,88,457545,1,0,0:0:0:0:
258,88,457638,1,8,0:0:0:0:
258,88,457731,1,8,0:0:0:0:
258,88,457824,1,8,0:0:0:0:
258,88,457917,1,8,0:0:0:0:
258,88,458011,1,0,0:0:0:0:
258,88,458104,1,0,0:0:0:0:
258,88,458197,1,0,0:0:0:0:
258,88,458290,1,0,0:0:0:0:
258,88,458383,1,8,0:0:0:0:
258,88,458476,1,0,0:0:0:0:
258,88,458570,1,0,0:0:0:0:
258,88,458663,1,0,0:0:0:0:
258,88,458756,1,8,0:0:0:0:
258,88,458849,1,0,0:0:0:0:
258,88,458942,1,8,0:0:0:0:
258,88,459035,1,8,0:0:0:0:
258,88,459129,1,0,0:0:0:0:
258,88,459222,1,0,0:0:0:0:
258,88,459315,1,8,0:0:0:0:
258,88,459408,1,8,0:0:0:0:
258,88,459501,1,0,0:0:0:0:
258,88,459594,1,0,0:0:0:0:
178,128,459688,1,0,0:0:0:0:
178,128,459781,1,0,0:0:0:0:
240,112,459874,1,8,0:0:0:0:
240,112,459967,1,8,0:0:0:0:
240,112,460060,1,8,0:0:0:0:
240,112,460153,1,8,0:0:0:0:
240,112,460247,1,0,0:0:0:0:
240,112,460340,1,0,0:0:0:0:
240,112,460433,1,0,0:0:0:0:
240,112,460526,1,0,0:0:0:0:
240,112,460619,1,8,0:0:0:0:
240,112,460712,1,8,0:0:0:0:
240,112,460806,1,8,0:0:0:0:
240,112,460899,1,8,0:0:0:0:
240,112,460992,1,0,0:0:0:0:
240,112,461085,1,0,0:0:0:0:
240,112,461178,1,0,0:0:0:0:
240,112,461271,1,0,0:0:0:0:
233,120,461365,1,8,0:0:0:0:
233,120,461458,1,8,0:0:0:0:
233,120,461551,1,0,0:0:0:0:
233,120,461644,1,0,0:0:0:0:
233,120,461737,1,8,0:0:0:0:
233,120,461830,1,0,0:0:0:0:
233,120,461924,1,0,0:0:0:0:
233,120,462017,1,0,0:0:0:0:
233,120,462110,1,8,0:0:0:0:
233,120,462203,1,8,0:0:0:0:
233,120,462296,1,0,0:0:0:0:
166,162,462483,1,12,0:0:0:0:
283,160,462669,1,0,0:0:0:0:
283,160,462762,1,0,0:0:0:0:
283,160,462855,1,8,0:0:0:0:
283,160,462948,1,8,0:0:0:0:
283,160,463042,1,8,0:0:0:0:
283,160,463135,1,8,0:0:0:0:
258,88,463228,1,0,0:0:0:0:
258,88,463321,1,0,0:0:0:0:
258,88,463414,1,0,0:0:0:0:
258,88,463507,1,0,0:0:0:0:
258,88,463601,1,8,0:0:0:0:
258,88,463694,1,8,0:0:0:0:
258,88,463787,1,8,0:0:0:0:
258,88,463880,1,8,0:0:0:0:
258,88,463973,1,0,0:0:0:0:
258,88,464066,1,0,0:0:0:0:
258,88,464160,1,0,0:0:0:0:
258,88,464253,1,0,0:0:0:0:
258,88,464346,1,8,0:0:0:0:
258,88,464439,1,0,0:0:0:0:
258,88,464532,1,0,0:0:0:0:
258,88,464625,1,0,0:0:0:0:
258,88,464719,1,8,0:0:0:0:
258,88,464812,1,0,0:0:0:0:
258,88,464905,1,8,0:0:0:0:
258,88,464998,1,8,0:0:0:0:
258,88,465091,1,0,0:0:0:0:
258,88,465184,1,0,0:0:0:0:
258,88,465278,1,8,0:0:0:0:
258,88,465371,1,8,0:0:0:0:
258,88,465464,1,0,0:0:0:0:
258,88,465557,1,0,0:0:0:0:
178,128,465650,1,0,0:0:0:0:
178,128,465743,1,0,0:0:0:0:
240,112,465837,1,8,0:0:0:0:
240,112,465930,1,8,0:0:0:0:
240,112,466023,1,8,0:0:0:0:
240,112,466116,1,8,0:0:0:0:
240,112,466209,1,0,0:0:0:0:
240,112,466302,1,0,0:0:0:0:
240,112,466396,1,0,0:0:0:0:
240,112,466489,1,0,0:0:0:0:
240,112,466582,1,8,0:0:0:0:
240,112,466675,1,8,0:0:0:0:
240,112,466768,1,8,0:0:0:0:
240,112,466861,1,8,0:0:0:0:
240,112,466955,1,0,0:0:0:0:
240,112,467048,1,0,0:0:0:0:
240,112,467141,1,0,0:0:0:0:
240,112,467235,1,0,0:0:0:0:
233,120,467327,1,8,0:0:0:0:
233,120,467420,1,8,0:0:0:0:
233,120,467514,1,0,0:0:0:0:
233,120,467607,1,0,0:0:0:0:
233,120,467700,1,8,0:0:0:0:
233,120,467793,1,0,0:0:0:0:
233,120,467886,1,0,0:0:0:0:
233,120,467979,1,0,0:0:0:0:
233,120,468073,1,8,0:0:0:0:
233,120,468166,1,8,0:0:0:0:
233,120,468259,1,0,0:0:0:0:
166,162,468481,1,12,0:0:0:0:
283,160,468666,1,0,0:0:0:0:
283,160,468759,1,0,0:0:0:0:
283,160,468852,1,8,0:0:0:0:
283,160,468945,1,8,0:0:0:0:
283,160,469039,1,8,0:0:0:0:
283,160,469132,1,8,0:0:0:0:
258,88,469225,1,0,0:0:0:0:
258,88,469318,1,0,0:0:0:0:
258,88,469411,1,0,0:0:0:0:
258,88,469504,1,0,0:0:0:0:
258,88,469598,1,8,0:0:0:0:
258,88,469691,1,8,0:0:0:0:
258,88,469784,1,8,0:0:0:0:
258,88,469877,1,8,0:0:0:0:
258,88,469970,1,0,0:0:0:0:
258,88,470063,1,0,0:0:0:0:
258,88,470157,1,0,0:0:0:0:
258,88,470250,1,0,0:0:0:0:
258,88,470343,1,8,0:0:0:0:
258,88,470436,1,0,0:0:0:0:
258,88,470529,1,0,0:0:0:0:
258,88,470622,1,0,0:0:0:0:
258,88,470716,1,8,0:0:0:0:
258,88,470809,1,0,0:0:0:0:
258,88,470902,1,8,0:0:0:0:
258,88,470995,1,8,0:0:0:0:
258,88,471088,1,0,0:0:0:0:
258,88,471181,1,0,0:0:0:0:
258,88,471275,1,8,0:0:0:0:
258,88,471368,1,8,0:0:0:0:
258,88,471461,1,0,0:0:0:0:
258,88,471554,1,0,0:0:0:0:
178,128,471647,1,0,0:0:0:0:
178,128,471740,1,0,0:0:0:0:
240,112,471834,1,8,0:0:0:0:
240,112,471927,1,8,0:0:0:0:
240,112,472020,1,8,0:0:0:0:
240,112,472113,1,8,0:0:0:0:
240,112,472206,1,0,0:0:0:0:
240,112,472299,1,0,0:0:0:0:
240,112,472393,1,0,0:0:0:0:
240,112,472486,1,0,0:0:0:0:
240,112,472579,1,8,0:0:0:0:
240,112,472672,1,8,0:0:0:0:
240,112,472765,1,8,0:0:0:0:
240,112,472858,1,8,0:0:0:0:
240,112,472952,1,0,0:0:0:0:
240,112,473045,1,0,0:0:0:0:
240,112,473138,1,0,0:0:0:0:
240,112,473231,1,0,0:0:0:0:
233,120,473324,1,8,0:0:0:0:
233,120,473417,1,8,0:0:0:0:
233,120,473511,1,0,0:0:0:0:
233,120,473604,1,0,0:0:0:0:
233,120,473697,1,8,0:0:0:0:
233,120,473790,1,0,0:0:0:0:
233,120,473883,1,0,0:0:0:0:
233,120,473976,1,0,0:0:0:0:
233,120,474070,1,8,0:0:0:0:
233,120,474163,1,8,0:0:0:0:
233,120,474256,1,0,0:0:0:0:
166,162,474442,1,12,0:0:0:0:
283,160,474629,1,0,0:0:0:0:
283,160,474722,1,0,0:0:0:0:
283,160,474815,1,8,0:0:0:0:
283,160,474908,1,8,0:0:0:0:
283,160,475001,1,8,0:0:0:0:
283,160,475094,1,8,0:0:0:0:
258,88,475188,1,0,0:0:0:0:
258,88,475281,1,0,0:0:0:0:
258,88,475374,1,0,0:0:0:0:
258,88,475467,1,0,0:0:0:0:
258,88,475560,1,8,0:0:0:0:
258,88,475653,1,8,0:0:0:0:
258,88,475747,1,8,0:0:0:0:
258,88,475840,1,8,0:0:0:0:
258,88,475933,1,0,0:0:0:0:
258,88,476026,1,0,0:0:0:0:
258,88,476119,1,0,0:0:0:0:
258,88,476212,1,0,0:0:0:0:
258,88,476307,1,8,0:0:0:0:
258,88,476399,1,0,0:0:0:0:
258,88,476492,1,0,0:0:0:0:
258,88,476585,1,0,0:0:0:0:
258,88,476678,1,8,0:0:0:0:
258,88,476771,1,0,0:0:0:0:
258,88,476865,1,8,0:0:0:0:
258,88,476958,1,8,0:0:0:0:
258,88,477051,1,0,0:0:0:0:
258,88,477144,1,0,0:0:0:0:
258,88,477237,1,8,0:0:0:0:
258,88,477330,1,8,0:0:0:0:
258,88,477424,1,0,0:0:0:0:
258,88,477517,1,0,0:0:0:0:
178,128,477610,1,0,0:0:0:0:
178,128,477703,1,0,0:0:0:0:
240,112,477796,1,8,0:0:0:0:
240,112,477889,1,8,0:0:0:0:
240,112,477983,1,8,0:0:0:0:
240,112,478076,1,8,0:0:0:0:
240,112,478169,1,0,0:0:0:0:
240,112,478262,1,0,0:0:0:0:
240,112,478355,1,0,0:0:0:0:
240,112,478448,1,0,0:0:0:0:
240,112,478542,1,8,0:0:0:0:
240,112,478635,1,8,0:0:0:0:
240,112,478728,1,8,0:0:0:0:
240,112,478821,1,8,0:0:0:0:
240,112,478914,1,0,0:0:0:0:
240,112,479007,1,0,0:0:0:0:
240,112,479101,1,0,0:0:0:0:
240,112,479194,1,0,0:0:0:0:
233,120,479287,1,8,0:0:0:0:
233,120,479380,1,8,0:0:0:0:
233,120,479473,1,0,0:0:0:0:
233,120,479566,1,0,0:0:0:0:
233,120,479660,1,8,0:0:0:0:
233,120,479753,1,0,0:0:0:0:
233,120,479846,1,0,0:0:0:0:
233,120,479939,1,0,0:0:0:0:
233,120,480033,1,8,0:0:0:0:
233,120,480125,1,8,0:0:0:0:
233,120,480219,1,0,0:0:0:0:
166,162,480405,1,12,0:0:0:0:
283,160,480591,1,0,0:0:0:0:
283,160,480684,1,0,0:0:0:0:
283,160,480778,1,8,0:0:0:0:
283,160,480871,1,8,0:0:0:0:
283,160,480964,1,8,0:0:0:0:
283,160,481057,1,8,0:0:0:0:
258,88,481146,1,0,0:0:0:0:
258,88,481235,1,0,0:0:0:0:
258,88,481324,1,0,0:0:0:0:
258,88,481414,1,0,0:0:0:0:
258,88,481503,1,8,0:0:0:0:
258,88,481596,1,8,0:0:0:0:
258,88,481689,1,8,0:0:0:0:
258,88,481782,1,8,0:0:0:0:
258,88,481875,1,0,0:0:0:0:
258,88,481968,1,0,0:0:0:0:
258,88,482062,1,0,0:0:0:0:
258,88,482155,1,0,0:0:0:0:
258,88,482248,1,8,0:0:0:0:
258,88,482341,1,0,0:0:0:0:
258,88,482434,1,0,0:0:0:0:
258,88,482527,1,0,0:0:0:0:
258,88,482621,1,8,0:0:0:0:
258,88,482714,1,0,0:0:0:0:
258,88,482807,1,8,0:0:0:0:
258,88,482900,1,8,0:0:0:0:
258,88,482993,1,0,0:0:0:0:
258,88,483086,1,0,0:0:0:0:
258,88,483180,1,8,0:0:0:0:
258,88,483273,1,8,0:0:0:0:
258,88,483366,1,0,0:0:0:0:
258,88,483459,1,0,0:0:0:0:
178,128,483552,1,0,0:0:0:0:
178,128,483645,1,0,0:0:0:0:
240,112,483739,1,8,0:0:0:0:
240,112,483832,1,8,0:0:0:0:
240,112,483925,1,8,0:0:0:0:
240,112,484018,1,8,0:0:0:0:
240,112,484111,1,0,0:0:0:0:
240,112,484204,1,0,0:0:0:0:
240,112,484298,1,0,0:0:0:0:
240,112,484391,1,0,0:0:0:0:
240,112,484484,1,8,0:0:0:0:
240,112,484577,1,8,0:0:0:0:
240,112,484670,1,8,0:0:0:0:
240,112,484763,1,8,0:0:0:0:
240,112,484857,1,0,0:0:0:0:
240,112,484950,1,0,0:0:0:0:
240,112,485043,1,0,0:0:0:0:
240,112,485136,1,0,0:0:0:0:
233,120,485229,1,8,0:0:0:0:
233,120,485322,1,8,0:0:0:0:
233,120,485416,1,0,0:0:0:0:
233,120,485509,1,0,0:0:0:0:
233,120,485602,1,8,0:0:0:0:
233,120,485695,1,0,0:0:0:0:
233,120,485788,1,0,0:0:0:0:
233,120,485881,1,0,0:0:0:0:
233,120,485975,1,8,0:0:0:0:
233,120,486068,1,8,0:0:0:0:
233,120,486161,1,0,0:0:0:0:
166,162,486347,1,12,0:0:0:0:
283,160,486534,1,0,0:0:0:0:
283,160,486627,1,0,0:0:0:0:
283,160,486720,1,8,0:0:0:0:
283,160,486813,1,8,0:0:0:0:
283,160,486906,1,8,0:0:0:0:
283,160,486999,1,8,0:0:0:0:
258,88,487093,1,0,0:0:0:0:
258,88,487186,1,0,0:0:0:0:
258,88,487279,1,0,0:0:0:0:
258,88,487372,1,0,0:0:0:0:
258,88,487465,1,8,0:0:0:0:
258,88,487558,1,8,0:0:0:0:
258,88,487652,1,8,0:0:0:0:
258,88,487745,1,8,0:0:0:0:
258,88,487838,1,0,0:0:0:0:
258,88,487931,1,0,0:0:0:0:
258,88,488024,1,0,0:0:0:0:
258,88,488117,1,0,0:0:0:0:
258,88,488211,1,8,0:0:0:0:
258,88,488304,1,0,0:0:0:0:
258,88,488397,1,0,0:0:0:0:
258,88,488490,1,0,0:0:0:0:
258,88,488583,1,8,0:0:0:0:
258,88,488676,1,0,0:0:0:0:
258,88,488770,1,8,0:0:0:0:
258,88,488863,1,8,0:0:0:0:
258,88,488956,1,0,0:0:0:0:
258,88,489049,1,0,0:0:0:0:
258,88,489142,1,8,0:0:0:0:
258,88,489235,1,8,0:0:0:0:
258,88,489329,1,0,0:0:0:0:
258,88,489422,1,0,0:0:0:0:
178,128,489515,1,0,0:0:0:0:
178,128,489608,1,0,0:0:0:0:
240,112,489701,1,8,0:0:0:0:
240,112,489794,1,8,0:0:0:0:
240,112,489888,1,8,0:0:0:0:
240,112,489981,1,8,0:0:0:0:
240,112,490074,1,0,0:0:0:0:
240,112,490167,1,0,0:0:0:0:
240,112,490260,1,0,0:0:0:0:
240,112,490353,1,0,0:0:0:0:
240,112,490447,1,8,0:0:0:0:
240,112,490540,1,8,0:0:0:0:
240,112,490633,1,8,0:0:0:0:
240,112,490726,1,8,0:0:0:0:
240,112,490819,1,0,0:0:0:0:
240,112,490912,1,0,0:0:0:0:
240,112,491006,1,0,0:0:0:0:
240,112,491099,1,0,0:0:0:0:
233,120,491192,1,8,0:0:0:0:
233,120,491285,1,8,0:0:0:0:
233,120,491378,1,0,0:0:0:0:
233,120,491471,1,0,0:0:0:0:
233,120,491565,1,8,0:0:0:0:
233,120,491658,1,0,0:0:0:0:
233,120,491751,1,0,0:0:0:0:
233,120,491844,1,0,0:0:0:0:
233,120,491937,1,8,0:0:0:0:
233,120,492030,1,8,0:0:0:0:
233,120,492124,1,0,0:0:0:0:
166,162,492345,1,12,0:0:0:0:
283,160,492523,1,0,0:0:0:0:
283,160,492616,1,0,0:0:0:0:
283,160,492709,1,8,0:0:0:0:
283,160,492802,1,8,0:0:0:0:
283,160,492896,1,8,0:0:0:0:
283,160,492989,1,8,0:0:0:0:
258,88,493082,1,0,0:0:0:0:
258,88,493175,1,0,0:0:0:0:
258,88,493268,1,0,0:0:0:0:
258,88,493361,1,0,0:0:0:0:
258,88,493455,1,8,0:0:0:0:
258,88,493548,1,8,0:0:0:0:
258,88,493641,1,8,0:0:0:0:
258,88,493734,1,8,0:0:0:0:
258,88,493827,1,0,0:0:0:0:
258,88,493920,1,0,0:0:0:0:
258,88,494014,1,0,0:0:0:0:
258,88,494107,1,0,0:0:0:0:
258,88,494200,1,8,0:0:0:0:
258,88,494293,1,0,0:0:0:0:
258,88,494386,1,0,0:0:0:0:
258,88,494479,1,0,0:0:0:0:
258,88,494573,1,8,0:0:0:0:
258,88,494666,1,0,0:0:0:0:
258,88,494759,1,8,0:0:0:0:
258,88,494852,1,8,0:0:0:0:
258,88,494945,1,0,0:0:0:0:
258,88,495038,1,0,0:0:0:0:
258,88,495132,1,8,0:0:0:0:
258,88,495225,1,8,0:0:0:0:
258,88,495318,1,0,0:0:0:0:
258,88,495411,1,0,0:0:0:0:
178,128,495504,1,0,0:0:0:0:
178,128,495597,1,0,0:0:0:0:
240,112,495691,1,8,0:0:0:0:
240,112,495784,1,8,0:0:0:0:
240,112,495877,1,8,0:0:0:0:
240,112,495970,1,8,0:0:0:0:
240,112,496063,1,0,0:0:0:0:
240,112,496156,1,0,0:0:0:0:
240,112,496250,1,0,0:0:0:0:
240,112,496343,1,0,0:0:0:0:
240,112,496436,1,8,0:0:0:0:
240,112,496529,1,8,0:0:0:0:
240,112,496622,1,8,0:0:0:0:
240,112,496715,1,8,0:0:0:0:
240,112,496809,1,0,0:0:0:0:
240,112,496902,1,0,0:0:0:0:
240,112,496995,1,0,0:0:0:0:
240,112,497088,1,0,0:0:0:0:
233,120,497181,1,8,0:0:0:0:
233,120,497274,1,8,0:0:0:0:
233,120,497368,1,0,0:0:0:0:
233,120,497461,1,0,0:0:0:0:
233,120,497554,1,8,0:0:0:0:
233,120,497647,1,0,0:0:0:0:
233,120,497740,1,0,0:0:0:0:
233,120,497833,1,0,0:0:0:0:
233,120,497927,1,8,0:0:0:0:
233,120,498020,1,8,0:0:0:0:
233,120,498113,1,0,0:0:0:0:
166,162,498299,1,12,0:0:0:0:
283,160,498486,1,0,0:0:0:0:
283,160,498579,1,0,0:0:0:0:
283,160,498672,1,8,0:0:0:0:
283,160,498765,1,8,0:0:0:0:
283,160,498858,1,8,0:0:0:0:
283,160,498951,1,8,0:0:0:0:
258,88,499045,1,0,0:0:0:0:
258,88,499138,1,0,0:0:0:0:
258,88,499231,1,0,0:0:0:0:
258,88,499324,1,0,0:0:0:0:
258,88,499417,1,8,0:0:0:0:
258,88,499510,1,8,0:0:0:0:
258,88,499604,1,8,0:0:0:0:
258,88,499697,1,8,0:0:0:0:
258,88,499790,1,0,0:0:0:0:
258,88,499883,1,0,0:0:0:0:
258,88,499976,1,0,0:0:0:0:
258,88,500069,1,0,0:0:0:0:
258,88,500163,1,8,0:0:0:0:
258,88,500256,1,0,0:0:0:0:
258,88,500349,1,0,0:0:0:0:
258,88,500442,1,0,0:0:0:0:
258,88,500535,1,8,0:0:0:0:
258,88,500628,1,0,0:0:0:0:
258,88,500722,1,8,0:0:0:0:
258,88,500815,1,8,0:0:0:0:
258,88,500908,1,0,0:0:0:0:
258,88,501001,1,0,0:0:0:0:
258,88,501094,1,8,0:0:0:0:
258,88,501187,1,8,0:0:0:0:
258,88,501281,1,0,0:0:0:0:
258,88,501374,1,0,0:0:0:0:
178,128,501467,1,0,0:0:0:0:
178,128,501560,1,0,0:0:0:0:
240,112,501653,1,8,0:0:0:0:
240,112,501746,1,8,0:0:0:0:
240,112,501840,1,8,0:0:0:0:
240,112,501933,1,8,0:0:0:0:
240,112,502026,1,0,0:0:0:0:
240,112,502119,1,0,0:0:0:0:
240,112,502212,1,0,0:0:0:0:
240,112,502305,1,0,0:0:0:0:
240,112,502399,1,8,0:0:0:0:
240,112,502492,1,8,0:0:0:0:
240,112,502585,1,8,0:0:0:0:
240,112,502678,1,8,0:0:0:0:
240,112,502771,1,0,0:0:0:0:
240,112,502864,1,0,0:0:0:0:
240,112,502958,1,0,0:0:0:0:
240,112,503051,1,0,0:0:0:0:
233,120,503144,1,8,0:0:0:0:
233,120,503237,1,8,0:0:0:0:
233,120,503330,1,0,0:0:0:0:
233,120,503423,1,0,0:0:0:0:
233,120,503517,1,8,0:0:0:0:
233,120,503610,1,0,0:0:0:0:
233,120,503703,1,0,0:0:0:0:
233,120,503796,1,0,0:0:0:0:
233,120,503889,1,8,0:0:0:0:
233,120,503982,1,8,0:0:0:0:
233,120,504076,1,0,0:0:0:0:
166,162,504262,1,12,0:0:0:0:
283,160,504448,1,0,0:0:0:0:
283,160,504541,1,0,0:0:0:0:
283,160,504635,1,8,0:0:0:0:
283,160,504728,1,8,0:0:0:0:
283,160,504821,1,8,0:0:0:0:
283,160,504914,1,8,0:0:0:0:
258,88,505007,1,0,0:0:0:0:
258,88,505100,1,0,0:0:0:0:
258,88,505194,1,0,0:0:0:0:
258,88,505287,1,0,0:0:0:0:
258,88,505380,1,8,0:0:0:0:
258,88,505473,1,8,0:0:0:0:
258,88,505566,1,8,0:0:0:0:
258,88,505659,1,8,0:0:0:0:
258,88,505753,1,0,0:0:0:0:
258,88,505846,1,0,0:0:0:0:
258,88,505939,1,0,0:0:0:0:
258,88,506032,1,0,0:0:0:0:
258,88,506125,1,8,0:0:0:0:
258,88,506218,1,0,0:0:0:0:
258,88,506312,1,0,0:0:0:0:
258,88,506405,1,0,0:0:0:0:
258,88,506498,1,8,0:0:0:0:
258,88,506591,1,0,0:0:0:0:
258,88,506684,1,8,0:0:0:0:
258,88,506777,1,8,0:0:0:0:
258,88,506871,1,0,0:0:0:0:
258,88,506964,1,0,0:0:0:0:
258,88,507057,1,8,0:0:0:0:
258,88,507150,1,8,0:0:0:0:
258,88,507243,1,0,0:0:0:0:
258,88,507337,1,0,0:0:0:0:
178,128,507430,1,0,0:0:0:0:
178,128,507523,1,0,0:0:0:0:
240,112,507616,1,8,0:0:0:0:
240,112,507709,1,8,0:0:0:0:
240,112,507802,1,8,0:0:0:0:
240,112,507896,1,8,0:0:0:0:
240,112,507989,1,0,0:0:0:0:
240,112,508082,1,0,0:0:0:0:
240,112,508175,1,0,0:0:0:0:
240,112,508268,1,0,0:0:0:0:
240,112,508361,1,8,0:0:0:0:
240,112,508455,1,8,0:0:0:0:
240,112,508548,1,8,0:0:0:0:
240,112,508641,1,8,0:0:0:0:
240,112,508734,1,0,0:0:0:0:
240,112,508827,1,0,0:0:0:0:
240,112,508920,1,0,0:0:0:0:
240,112,509014,1,0,0:0:0:0:
233,120,509107,1,8,0:0:0:0:
233,120,509200,1,8,0:0:0:0:
233,120,509293,1,0,0:0:0:0:
233,120,509386,1,0,0:0:0:0:
233,120,509479,1,8,0:0:0:0:
233,120,509573,1,0,0:0:0:0:
233,120,509666,1,0,0:0:0:0:
233,120,509759,1,0,0:0:0:0:
233,120,509852,1,8,0:0:0:0:
233,120,509945,1,8,0:0:0:0:
233,120,510038,1,0,0:0:0:0:
198,117,510225,1,6,0:0:0:0:
214,98,510597,1,8,0:0:0:0:
