osu file format v14

[General]
AudioFilename: audio.mp3
AudioLeadIn: 0
PreviewTime: -1
Countdown: 1
SampleSet: None
StackLeniency: 0.7
Mode: 0
LetterboxInBreaks: 0
WidescreenStoryboard: 0

[Editor]
DistanceSpacing: 0.7
BeatDivisor: 4
GridSize: 4
TimelineZoom: 1

[Metadata]
Title:The One That Gets Away
TitleUnicode:The One That Gets Away
Artist:Bury the Wren
ArtistUnicode:Bury the Wren
Creator:tuturox91
Version:Normal
Source:
Tags:Bury the Wren, The One That Gets Away, The, One, That, Gets, Away, Bury, the, wren,
BeatmapID:1266058
BeatmapSetID:598982

[Difficulty]
HPDrainRate:4
CircleSize:4
OverallDifficulty:6
ApproachRate:4
SliderMultiplier:1.00000000596046
SliderTickRate:1

[Events]
//Background and Video events
0,0,"og_og_1449509150296944267.jpg",0,0
//Break Periods
2,50892,52040
//Storyboard Layer 0 (Background)
//Storyboard Layer 1 (Fail)
//Storyboard Layer 2 (Pass)
//Storyboard Layer 3 (Foreground)
//Storyboard Sound Samples

[TimingPoints]
0,667.008231368187,4,1,0,100,1,0

[Colours]
Combo1 : 255,192,0
Combo2 : 255,119,53
Combo3 : 241,176,112
Combo4 : 242,24,57

[HitObjects]
250,200,0,5,0,0:0:0:0:
232,156,1334,1,0,0:0:0:0:
296,180,2001,1,0,0:0:0:0:
352,220,2668,1,0,0:0:0:0:
320,284,3335,2,4,P|200:300|136:248,1,200.000001192092
160,240,5336,5,0,0:0:0:0:
144,208,5669,1,0,0:0:0:0:
128,176,6003,1,0,0:0:0:0:
120,144,6336,2,0,L|136:72,3,50.000000298023
200,92,8004,1,0,0:0:0:0:
268,76,8671,1,4,0:0:0:0:
288,104,9004,6,0,L|336:136,3,50.000000298023
352,156,10338,1,0,0:0:0:0:
352,156,10505,1,0,0:0:0:0:
352,156,10672,1,4,0:0:0:0:
420,180,11339,5,0,0:0:0:0:
448,196,11672,2,4,L|484:236,1,50.000000298023
456,276,12339,1,0,0:0:0:0:
416,308,12673,1,0,0:0:0:0:
364,320,13006,2,0,P|296:328|200:300,1,150.000000894069
184,280,14340,1,0,0:0:0:0:
148,248,14674,1,4,0:0:0:0:
128,220,15007,6,0,L|96:176,1,50.000000298023
116,172,15507,2,0,L|80:104,1,75.0000004470345
136,64,16341,1,0,0:0:0:0:
156,56,16508,1,0,0:0:0:0:
172,48,16675,2,0,P|288:48|344:116,2,200.000001192092
120,88,19676,1,0,0:0:0:0:
88,120,20010,1,4,0:0:0:0:
340,80,21344,5,0,0:0:0:0:
416,120,22011,1,0,0:0:0:0:
432,172,22678,1,0,0:0:0:0:
432,172,22845,1,0,0:0:0:0:
432,172,23011,1,0,0:0:0:0:
416,216,23345,1,0,0:0:0:0:
384,272,23678,2,4,P|352:312|348:240,1,150.000000894069
356,192,25012,5,0,0:0:0:0:
380,148,25346,1,4,0:0:0:0:
352,192,25679,1,0,0:0:0:0:
376,140,26013,1,4,0:0:0:0:
352,192,26346,1,0,0:0:0:0:
328,232,26680,2,0,P|224:288|156:248,1,200.000001192092
128,204,28347,1,0,0:0:0:0:
112,144,28681,1,4,0:0:0:0:
156,116,29014,6,0,L|208:104,5,50.000000298023
268,92,31015,1,0,0:0:0:0:
324,100,31349,1,4,0:0:0:0:
256,192,32016,12,0,34017,0:0:0:0:
256,192,34350,5,0,0:0:0:0:
256,192,34684,12,0,37352,0:0:0:0:
252,192,37685,5,0,0:0:0:0:
256,192,38019,12,0,38686,0:0:0:0:
256,192,39019,5,0,0:0:0:0:
256,144,39353,1,4,0:0:0:0:
256,192,39686,1,0,0:0:0:0:
256,232,40020,1,4,0:0:0:0:
320,236,40687,6,0,L|320:132,3,100.000000596046
256,152,43355,1,0,0:0:0:0:
188,152,43689,1,0,0:0:0:0:
256,152,44022,1,0,0:0:0:0:
324,152,44356,1,0,0:0:0:0:
256,152,44689,1,4,0:0:0:0:
324,152,45356,5,0,0:0:0:0:
248,220,45690,1,0,0:0:0:0:
328,224,46023,1,0,0:0:0:0:
248,144,46357,1,0,0:0:0:0:
328,140,46690,2,0,P|440:140|456:228,1,200.000001192092
416,260,48358,1,0,0:0:0:0:
416,260,48524,1,0,0:0:0:0:
416,260,48691,2,0,P|316:320|240:296,1,200.000001192092
252,260,50192,2,0,L|160:236,1,75.0000004470345
252,192,53360,6,0,L|308:192,4,50.000000298023
216,192,55028,1,0,0:0:0:0:
160,236,55361,1,0,0:0:0:0:
224,248,55695,1,0,0:0:0:0:
164,180,56028,1,0,0:0:0:0:
336,92,56695,1,0,0:0:0:0:
340,320,57362,1,0,0:0:0:0:
152,320,58029,1,0,0:0:0:0:
148,136,58696,1,4,0:0:0:0:
148,108,59363,6,0,P|264:108|164:160,1,300.000001788138
120,168,61698,1,0,0:0:0:0:
80,188,62031,1,0,0:0:0:0:
88,236,62365,2,0,L|120:280,1,50.000000298023
140,296,62865,2,0,L|200:312,1,50.000000298023
228,320,63365,1,0,0:0:0:0:
312,320,63699,1,0,0:0:0:0:
412,320,64032,1,4,0:0:0:0:
256,192,64366,12,0,66700,0:0:0:0:
