osu file format v14

[General]
AudioFilename: audio.mp3
AudioLeadIn: 0
PreviewTime: 53739
Countdown: 0
SampleSet: Normal
StackLeniency: 0.7
Mode: 1
LetterboxInBreaks: 0
WidescreenStoryboard: 1

[Editor]
Bookmarks: 165,11815,21135,30456,35116,44436,53757,63077,72398,84048
DistanceSpacing: 0.8
BeatDivisor: 2
GridSize: 32
TimelineZoom: 1

[Metadata]
Title:MY BOY (TV Size)
TitleUnicode:MY BOY (TV Size)
Artist:Buono!
ArtistUnicode:Buono!
Creator:arien666
Version:MY KANTAN
Source:しゅごキャラ!! どきっ
Tags:japanese pop jpop j-pop anime animation shugo chara!! doki ed 3rd ending ed3 つんく Tsunku 寺田光男 Terada Mitsuo 鈴木愛理 Suzuki Airi 夏焼雅 Natsuyaki Miyabi 嗣永桃子 Tsugunaga Momoko つんく♂ Tsunku♂
BeatmapID:3839546
BeatmapSetID:1864856

[Difficulty]
HPDrainRate:8.6
CircleSize:5
OverallDifficulty:3
ApproachRate:5
SliderMultiplier:1.4
SliderTickRate:1

[Events]
//Background and Video events
Video,0,"shugodokied.mp4"
0,0,"helloBNpleasedonotrequestmeanimebg_output.png",0,0
//Break Periods
//Storyboard Layer 0 (Background)
//Storyboard Layer 1 (Fail)
//Storyboard Layer 2 (Pass)
//Storyboard Layer 3 (Foreground)
//Storyboard Layer 4 (Overlay)
//Storyboard Sound Samples

[TimingPoints]
148,291.26213592233,4,1,0,75,1,0
148,-128.205128205128,4,1,0,75,0,0
11798,291.26213592233,4,1,0,75,1,0
11798,-128.205128205128,4,1,0,75,0,0
53739,-128.205128205128,4,1,0,75,0,1
72380,-128.205128205128,4,1,0,75,0,0

[HitObjects]
256,192,148,5,8,0:0:0:0:
256,192,730,1,0,0:0:0:0:
256,192,1313,1,8,0:0:0:0:
256,192,1895,1,0,0:0:0:0:
256,192,2186,1,0,0:0:0:0:
256,192,2478,1,8,0:0:0:0:
256,192,3060,1,0,0:0:0:0:
256,192,3643,1,8,0:0:0:0:
256,192,4808,1,8,0:0:0:0:
256,192,5390,1,0,0:0:0:0:
256,192,5973,1,8,0:0:0:0:
256,192,6555,1,0,0:0:0:0:
256,192,6847,1,0,0:0:0:0:
256,192,7138,1,8,0:0:0:0:
256,192,7720,1,0,0:0:0:0:
256,192,8303,1,8,0:0:0:0:
256,192,9468,1,8,0:0:0:0:
256,192,10050,1,0,0:0:0:0:
256,192,10633,1,8,0:0:0:0:
256,192,10924,1,12,0:0:0:0:
256,192,11798,1,4,0:0:0:0:
256,192,12380,1,0,0:0:0:0:
256,192,12963,1,8,0:0:0:0:
256,192,13254,1,8,0:0:0:0:
256,192,13545,1,8,0:0:0:0:
256,192,14128,1,0,0:0:0:0:
256,192,14710,1,8,0:0:0:0:
256,192,15293,1,0,0:0:0:0:
256,192,16458,1,0,0:0:0:0:
256,192,17040,1,0,0:0:0:0:
256,192,17623,1,8,0:0:0:0:
256,192,17914,1,8,0:0:0:0:
256,192,18205,1,8,0:0:0:0:
256,192,18788,1,0,0:0:0:0:
256,192,19370,1,8,0:0:0:0:
256,192,19953,1,0,0:0:0:0:
256,192,21118,1,4,0:0:0:0:
256,192,21700,1,8,0:0:0:0:
256,192,22283,1,0,0:0:0:0:
256,192,22574,1,0,0:0:0:0:
256,192,22865,1,8,0:0:0:0:
256,192,23448,1,0,0:0:0:0:
256,192,24031,1,8,0:0:0:0:
256,192,24613,1,0,0:0:0:0:
256,192,25778,1,0,0:0:0:0:
256,192,26361,1,8,0:0:0:0:
256,192,26943,1,8,0:0:0:0:
256,192,27234,1,8,0:0:0:0:
256,192,27526,1,0,0:0:0:0:
256,192,28108,1,0,0:0:0:0:
256,192,28691,1,8,0:0:0:0:
256,192,29273,1,0,0:0:0:0:
256,192,30438,8,0,32186,0:0:0:0:
256,192,32768,5,8,0:0:0:0:
256,192,33351,1,8,0:0:0:0:
256,192,33933,1,0,0:0:0:0:
256,192,34225,1,4,0:0:0:0:
256,192,35098,1,8,0:0:0:0:
256,192,35681,1,0,0:0:0:0:
256,192,36264,1,8,0:0:0:0:
256,192,36846,1,0,0:0:0:0:
256,192,37137,1,0,0:0:0:0:
256,192,37720,1,8,0:0:0:0:
256,192,38011,1,8,0:0:0:0:
256,192,38594,1,0,0:0:0:0:
256,192,39176,1,8,0:0:0:0:
256,192,39759,1,0,0:0:0:0:
256,192,41797,1,0,0:0:0:0:
256,192,42089,1,0,0:0:0:0:
256,192,43254,1,0,0:0:0:0:
256,192,43836,1,8,0:0:0:0:
256,192,44419,1,8,0:0:0:0:
256,192,45001,1,0,0:0:0:0:
256,192,45584,1,8,0:0:0:0:
256,192,46166,1,0,0:0:0:0:
256,192,46458,1,0,0:0:0:0:
256,192,47040,1,8,0:0:0:0:
256,192,47331,1,8,0:0:0:0:
256,192,47914,1,8,0:0:0:0:
256,192,48205,1,0,0:0:0:0:
256,192,48497,1,8,0:0:0:0:
256,192,49079,1,4,0:0:0:0:
256,192,49953,1,12,0:0:0:0:
256,192,50244,1,4,0:0:0:0:
256,192,51118,1,12,0:0:0:0:
256,192,51409,1,4,0:0:0:0:
256,192,52283,1,12,0:0:0:0:
256,192,52865,1,12,0:0:0:0:
256,192,53739,1,0,0:0:0:0:
256,192,54322,1,8,0:0:0:0:
256,192,54904,1,8,0:0:0:0:
256,192,55196,1,0,0:0:0:0:
256,192,55487,1,8,0:0:0:0:
256,192,56069,1,0,0:0:0:0:
256,192,56361,1,8,0:0:0:0:
256,192,56652,1,0,0:0:0:0:
256,192,57234,1,0,0:0:0:0:
256,192,58399,1,0,0:0:0:0:
256,192,58982,1,8,0:0:0:0:
256,192,59564,1,0,0:0:0:0:
256,192,59856,1,0,0:0:0:0:
256,192,60147,1,8,0:0:0:0:
256,192,60730,1,8,0:0:0:0:
256,192,61021,1,8,0:0:0:0:
256,192,61312,1,0,0:0:0:0:
256,192,61895,1,0,0:0:0:0:
256,192,63060,1,0,0:0:0:0:
256,192,63642,1,8,0:0:0:0:
256,192,64225,1,8,0:0:0:0:
256,192,64516,1,0,0:0:0:0:
256,192,64807,1,8,0:0:0:0:
256,192,65390,1,0,0:0:0:0:
256,192,65681,1,8,0:0:0:0:
256,192,65972,1,0,0:0:0:0:
256,192,66555,1,0,0:0:0:0:
256,192,67720,1,0,0:0:0:0:
256,192,68302,1,8,0:0:0:0:
256,192,68885,1,0,0:0:0:0:
256,192,69176,1,8,0:0:0:0:
256,192,69467,1,8,0:0:0:0:
256,192,70050,1,8,0:0:0:0:
256,192,70341,1,0,0:0:0:0:
256,192,70632,1,0,0:0:0:0:
256,192,71215,1,0,0:0:0:0:
256,192,72380,1,0,0:0:0:0:
256,192,72963,1,8,0:0:0:0:
256,192,73836,1,0,0:0:0:0:
256,192,74128,1,0,0:0:0:0:
256,192,74419,1,8,0:0:0:0:
256,192,74710,1,8,0:0:0:0:
256,192,75293,1,0,0:0:0:0:
256,192,76166,1,8,0:0:0:0:
256,192,76458,1,8,0:0:0:0:
256,192,76749,1,0,0:0:0:0:
256,192,77040,1,0,0:0:0:0:
256,192,77623,1,8,0:0:0:0:
256,192,78497,1,8,0:0:0:0:
256,192,78788,1,0,0:0:0:0:
256,192,79079,1,8,0:0:0:0:
256,192,79370,8,0,81118,0:0:0:0:
256,192,81700,5,12,0:0:0:0:
256,192,84031,1,8,0:0:0:0:
256,192,84613,1,0,0:0:0:0:
256,192,85196,1,8,0:0:0:0:
256,192,85778,1,0,0:0:0:0:
256,192,86069,1,0,0:0:0:0:
256,192,86361,1,8,0:0:0:0:
256,192,86652,1,0,0:0:0:0:
256,192,86943,1,0,0:0:0:0:
256,192,87526,1,8,0:0:0:0:
256,192,87817,1,12,0:0:0:0:
