osu file format v14

[General]
AudioFilename: audio.mp3
AudioLeadIn: 0
PreviewTime: 53739
Countdown: 0
SampleSet: Normal
StackLeniency: 0.7
Mode: 1
LetterboxInBreaks: 0
WidescreenStoryboard: 1

[Editor]
Bookmarks: 165,11815,21135,30456,35116,44436,53757,63077,72398,84048
DistanceSpacing: 0.8
BeatDivisor: 4
GridSize: 32
TimelineZoom: 2.2

[Metadata]
Title:MY BOY (TV Size)
TitleUnicode:MY BOY (TV Size)
Artist:Buono!
ArtistUnicode:Buono!
Creator:arien666
Version:MY INNER ONI
Source:しゅごキャラ!! どきっ
Tags:japanese pop jpop j-pop anime animation shugo chara!! doki ed 3rd ending ed3 つんく Tsunku 寺田光男 Terada Mitsuo 鈴木愛理 Suzuki Airi 夏焼雅 Natsuyaki Miyabi 嗣永桃子 Tsugunaga Momoko つんく♂ Tsunku♂
BeatmapID:3835448
BeatmapSetID:1864856

[Difficulty]
HPDrainRate:5.5
CircleSize:5
OverallDifficulty:6
ApproachRate:5
SliderMultiplier:1.4
SliderTickRate:1

[Events]
//Background and Video events
Video,0,"shugodokied.mp4"
0,0,"helloBNpleasedonotrequestmeanimebg_output.png",0,0
//Break Periods
//Storyboard Layer 0 (Background)
//Storyboard Layer 1 (Fail)
//Storyboard Layer 2 (Pass)
//Storyboard Layer 3 (Foreground)
//Storyboard Layer 4 (Overlay)
//Storyboard Sound Samples

[TimingPoints]
148,291.26213592233,4,1,0,75,1,0
11798,291.26213592233,4,1,0,75,1,0
35093,-111.111111111111,4,1,0,75,0,0
49074,-100,4,1,0,75,0,0
53739,-100,4,1,0,75,0,1
72380,-100,4,1,0,75,0,0

[HitObjects]
256,192,148,5,8,0:0:0:0:
256,192,439,1,0,0:0:0:0:
256,192,584,1,0,0:0:0:0:
256,192,730,1,8,0:0:0:0:
256,192,876,1,8,0:0:0:0:
256,192,1021,1,0,0:0:0:0:
256,192,1313,1,8,0:0:0:0:
256,192,1458,1,8,0:0:0:0:
256,192,1604,1,0,0:0:0:0:
256,192,1749,1,0,0:0:0:0:
256,192,1895,1,8,0:0:0:0:
256,192,1968,1,8,0:0:0:0:
256,192,2041,1,0,0:0:0:0:
256,192,2186,1,8,0:0:0:0:
256,192,2478,1,8,0:0:0:0:
256,192,2769,1,0,0:0:0:0:
256,192,2914,1,0,0:0:0:0:
256,192,3060,1,8,0:0:0:0:
256,192,3206,1,8,0:0:0:0:
256,192,3351,1,0,0:0:0:0:
256,192,3643,1,8,0:0:0:0:
256,192,3788,1,8,0:0:0:0:
256,192,3934,1,0,0:0:0:0:
256,192,4080,1,0,0:0:0:0:
256,192,4225,1,8,0:0:0:0:
256,192,4298,1,8,0:0:0:0:
256,192,4371,1,0,0:0:0:0:
256,192,4516,1,8,0:0:0:0:
256,192,4808,1,8,0:0:0:0:
256,192,5099,1,0,0:0:0:0:
256,192,5245,1,0,0:0:0:0:
256,192,5390,1,8,0:0:0:0:
256,192,5536,1,0,0:0:0:0:
256,192,5681,1,8,0:0:0:0:
256,192,5827,1,0,0:0:0:0:
256,192,5973,1,8,0:0:0:0:
256,192,6118,1,8,0:0:0:0:
256,192,6264,1,0,0:0:0:0:
256,192,6410,1,0,0:0:0:0:
256,192,6555,1,8,0:0:0:0:
256,192,6628,1,8,0:0:0:0:
256,192,6701,1,0,0:0:0:0:
256,192,6847,1,8,0:0:0:0:
256,192,7138,1,8,0:0:0:0:
256,192,7429,1,0,0:0:0:0:
256,192,7575,1,0,0:0:0:0:
256,192,7720,1,8,0:0:0:0:
256,192,7866,1,0,0:0:0:0:
256,192,8012,1,8,0:0:0:0:
256,192,8157,1,0,0:0:0:0:
256,192,8303,1,8,0:0:0:0:
256,192,8448,1,8,0:0:0:0:
256,192,8594,1,0,0:0:0:0:
256,192,8740,1,0,0:0:0:0:
256,192,8885,1,8,0:0:0:0:
256,192,8958,1,8,0:0:0:0:
256,192,9031,1,0,0:0:0:0:
256,192,9177,1,8,0:0:0:0:
256,192,9468,1,8,0:0:0:0:
256,192,9614,1,0,0:0:0:0:
256,192,9759,1,0,0:0:0:0:
256,192,9905,1,8,0:0:0:0:
256,192,10050,1,0,0:0:0:0:
256,192,10196,1,0,0:0:0:0:
256,192,10342,1,8,0:0:0:0:
256,192,10487,1,0,0:0:0:0:
256,192,10633,1,12,0:0:0:0:
256,192,10779,1,0,0:0:0:0:
256,192,10924,1,12,0:0:0:0:
256,192,11798,1,4,0:0:0:0:
256,192,12089,1,8,0:0:0:0:
256,192,12234,1,0,0:0:0:0:
256,192,12380,1,0,0:0:0:0:
256,192,12526,1,0,0:0:0:0:
256,192,12671,1,8,0:0:0:0:
256,192,12817,1,0,0:0:0:0:
256,192,12963,1,0,0:0:0:0:
256,192,13108,1,0,0:0:0:0:
256,192,13181,1,0,0:0:0:0:
256,192,13254,1,8,0:0:0:0:
256,192,13399,1,8,0:0:0:0:
256,192,13545,1,0,0:0:0:0:
256,192,13691,1,0,0:0:0:0:
256,192,13764,1,0,0:0:0:0:
256,192,13836,1,8,0:0:0:0:
256,192,13982,1,8,0:0:0:0:
256,192,14128,1,0,0:0:0:0:
256,192,14273,1,0,0:0:0:0:
256,192,14346,1,0,0:0:0:0:
256,192,14419,1,8,0:0:0:0:
256,192,14564,1,0,0:0:0:0:
256,192,14710,1,8,0:0:0:0:
256,192,14856,1,0,0:0:0:0:
256,192,15001,1,8,0:0:0:0:
256,192,15074,1,8,0:0:0:0:
256,192,15147,1,0,0:0:0:0:
256,192,15293,1,0,0:0:0:0:
256,192,15584,1,8,0:0:0:0:
256,192,15730,1,0,0:0:0:0:
256,192,15875,1,0,0:0:0:0:
256,192,15948,1,0,0:0:0:0:
256,192,16021,1,0,0:0:0:0:
256,192,16166,1,8,0:0:0:0:
256,192,16312,1,0,0:0:0:0:
256,192,16458,1,0,0:0:0:0:
256,192,16749,1,8,0:0:0:0:
256,192,16895,1,0,0:0:0:0:
256,192,17040,1,0,0:0:0:0:
256,192,17186,1,0,0:0:0:0:
256,192,17331,1,8,0:0:0:0:
256,192,17477,1,0,0:0:0:0:
256,192,17623,1,0,0:0:0:0:
256,192,17768,1,0,0:0:0:0:
256,192,17841,1,0,0:0:0:0:
256,192,17914,1,8,0:0:0:0:
256,192,18060,1,8,0:0:0:0:
256,192,18205,1,0,0:0:0:0:
256,192,18351,1,8,0:0:0:0:
256,192,18424,1,8,0:0:0:0:
256,192,18497,1,0,0:0:0:0:
256,192,18642,1,8,0:0:0:0:
256,192,18788,1,0,0:0:0:0:
256,192,18933,1,0,0:0:0:0:
256,192,19006,1,0,0:0:0:0:
256,192,19079,1,8,0:0:0:0:
256,192,19225,1,0,0:0:0:0:
256,192,19370,1,8,0:0:0:0:
256,192,19516,1,0,0:0:0:0:
256,192,19589,1,0,0:0:0:0:
256,192,19662,1,8,0:0:0:0:
256,192,19953,1,0,0:0:0:0:
256,192,20098,1,0,0:0:0:0:
256,192,20244,1,12,0:0:0:0:
256,192,20535,1,8,0:0:0:0:
256,192,20608,1,8,0:0:0:0:
256,192,20681,1,0,0:0:0:0:
256,192,20827,1,8,0:0:0:0:
256,192,20972,1,0,0:0:0:0:
256,192,21118,1,4,0:0:0:0:
256,192,21409,1,8,0:0:0:0:
256,192,21555,1,0,0:0:0:0:
256,192,21700,1,0,0:0:0:0:
256,192,21846,1,0,0:0:0:0:
256,192,21919,1,0,0:0:0:0:
256,192,21992,1,8,0:0:0:0:
256,192,22137,1,0,0:0:0:0:
256,192,22283,1,0,0:0:0:0:
256,192,22429,1,0,0:0:0:0:
256,192,22501,1,0,0:0:0:0:
256,192,22574,1,8,0:0:0:0:
256,192,22720,1,8,0:0:0:0:
256,192,22865,1,0,0:0:0:0:
256,192,23011,1,8,0:0:0:0:
256,192,23084,1,8,0:0:0:0:
256,192,23157,1,0,0:0:0:0:
256,192,23302,1,8,0:0:0:0:
256,192,23448,1,0,0:0:0:0:
256,192,23594,1,0,0:0:0:0:
256,192,23666,1,0,0:0:0:0:
256,192,23739,1,8,0:0:0:0:
256,192,23885,1,0,0:0:0:0:
256,192,24031,1,8,0:0:0:0:
256,192,24176,1,0,0:0:0:0:
256,192,24322,1,8,0:0:0:0:
256,192,24395,1,8,0:0:0:0:
256,192,24467,1,0,0:0:0:0:
256,192,24613,1,0,0:0:0:0:
256,192,24904,1,8,0:0:0:0:
256,192,25050,1,0,0:0:0:0:
256,192,25196,1,0,0:0:0:0:
256,192,25268,1,0,0:0:0:0:
256,192,25341,1,0,0:0:0:0:
256,192,25487,1,8,0:0:0:0:
256,192,25632,1,0,0:0:0:0:
256,192,25778,1,0,0:0:0:0:
256,192,26069,1,8,0:0:0:0:
256,192,26215,1,0,0:0:0:0:
256,192,26361,1,0,0:0:0:0:
256,192,26506,1,0,0:0:0:0:
256,192,26579,1,0,0:0:0:0:
256,192,26652,1,8,0:0:0:0:
256,192,26797,1,0,0:0:0:0:
256,192,26943,1,8,0:0:0:0:
256,192,27089,1,0,0:0:0:0:
256,192,27162,1,0,0:0:0:0:
256,192,27234,1,8,0:0:0:0:
256,192,27380,1,0,0:0:0:0:
256,192,27526,1,8,0:0:0:0:
256,192,27671,1,0,0:0:0:0:
256,192,27744,1,0,0:0:0:0:
256,192,27817,1,8,0:0:0:0:
256,192,27963,1,0,0:0:0:0:
256,192,28108,1,8,0:0:0:0:
256,192,28399,1,8,0:0:0:0:
256,192,28545,1,0,0:0:0:0:
256,192,28618,1,0,0:0:0:0:
256,192,28691,1,8,0:0:0:0:
256,192,28836,1,0,0:0:0:0:
256,192,28982,1,8,0:0:0:0:
256,192,29055,1,8,0:0:0:0:
256,192,29128,1,0,0:0:0:0:
256,192,29273,1,8,0:0:0:0:
256,192,29564,1,8,0:0:0:0:
256,192,29856,1,8,0:0:0:0:
256,192,29929,1,8,0:0:0:0:
256,192,30001,1,0,0:0:0:0:
256,192,30147,1,8,0:0:0:0:
256,192,30220,1,8,0:0:0:0:
256,192,30293,1,0,0:0:0:0:
256,192,30438,1,12,0:0:0:0:
256,192,30584,1,0,0:0:0:0:
256,192,30730,1,8,0:0:0:0:
256,192,30875,1,0,0:0:0:0:
256,192,30948,1,0,0:0:0:0:
256,192,31021,1,8,0:0:0:0:
256,192,31166,1,0,0:0:0:0:
256,192,31312,1,8,0:0:0:0:
256,192,31458,1,0,0:0:0:0:
256,192,31531,1,0,0:0:0:0:
256,192,31603,1,8,0:0:0:0:
256,192,31749,1,0,0:0:0:0:
256,192,31895,1,8,0:0:0:0:
256,192,32040,1,0,0:0:0:0:
256,192,32113,1,0,0:0:0:0:
256,192,32186,1,8,0:0:0:0:
256,192,32331,1,0,0:0:0:0:
256,192,32477,1,8,0:0:0:0:
256,192,32768,1,12,0:0:0:0:
256,192,32914,1,0,0:0:0:0:
256,192,33060,1,8,0:0:0:0:
256,192,33205,1,0,0:0:0:0:
256,192,33278,1,0,0:0:0:0:
256,192,33351,1,8,0:0:0:0:
256,192,33497,1,0,0:0:0:0:
256,192,33642,1,8,0:0:0:0:
256,192,33788,1,0,0:0:0:0:
256,192,33933,1,0,0:0:0:0:
256,192,34079,1,0,0:0:0:0:
256,192,34225,1,12,0:0:0:0:
256,192,34516,1,8,0:0:0:0:
256,192,34589,1,8,0:0:0:0:
256,192,34662,1,0,0:0:0:0:
256,192,34807,1,12,0:0:0:0:
256,192,35098,1,4,0:0:0:0:
256,192,35390,1,8,0:0:0:0:
256,192,35535,1,0,0:0:0:0:
256,192,35681,1,0,0:0:0:0:
256,192,35827,1,0,0:0:0:0:
256,192,35972,1,8,0:0:0:0:
256,192,36264,1,0,0:0:0:0:
256,192,36409,1,0,0:0:0:0:
256,192,36555,1,8,0:0:0:0:
256,192,36628,1,8,0:0:0:0:
256,192,36700,1,0,0:0:0:0:
256,192,36846,1,0,0:0:0:0:
256,192,36992,1,0,0:0:0:0:
256,192,37137,1,8,0:0:0:0:
256,192,37429,1,0,0:0:0:0:
256,192,37574,1,8,0:0:0:0:
256,192,37647,1,8,0:0:0:0:
256,192,37720,1,0,0:0:0:0:
256,192,37865,1,0,0:0:0:0:
256,192,38011,1,8,0:0:0:0:
256,192,38157,1,8,0:0:0:0:
256,192,38302,1,0,0:0:0:0:
256,192,38594,1,8,0:0:0:0:
256,192,38885,1,0,0:0:0:0:
256,192,39031,1,8,0:0:0:0:
256,192,39322,1,0,0:0:0:0:
256,192,39395,1,0,0:0:0:0:
256,192,39467,1,8,0:0:0:0:
256,192,39759,1,0,0:0:0:0:
256,192,39904,1,0,0:0:0:0:
256,192,39977,1,0,0:0:0:0:
256,192,40050,1,8,0:0:0:0:
256,192,40196,1,0,0:0:0:0:
256,192,40341,1,0,0:0:0:0:
256,192,40487,1,8,0:0:0:0:
256,192,40924,1,0,0:0:0:0:
256,192,41069,1,0,0:0:0:0:
256,192,41142,1,0,0:0:0:0:
256,192,41215,1,8,0:0:0:0:
256,192,41361,1,0,0:0:0:0:
256,192,41506,1,8,0:0:0:0:
256,192,41652,1,0,0:0:0:0:
256,192,41797,1,8,0:0:0:0:
256,192,41870,1,8,0:0:0:0:
256,192,41943,1,0,0:0:0:0:
256,192,42089,1,0,0:0:0:0:
256,192,42234,1,0,0:0:0:0:
256,192,42307,1,0,0:0:0:0:
256,192,42380,1,8,0:0:0:0:
256,192,42526,1,0,0:0:0:0:
256,192,42671,1,0,0:0:0:0:
256,192,42817,1,8,0:0:0:0:
256,192,43254,1,0,0:0:0:0:
256,192,43399,1,0,0:0:0:0:
256,192,43545,1,12,0:0:0:0:
256,192,43836,1,0,0:0:0:0:
256,192,43909,1,0,0:0:0:0:
256,192,43982,1,0,0:0:0:0:
256,192,44128,1,12,0:0:0:0:
256,192,44419,1,4,0:0:0:0:
256,192,44710,1,8,0:0:0:0:
256,192,44856,1,0,0:0:0:0:
256,192,45001,1,8,0:0:0:0:
256,192,45074,1,8,0:0:0:0:
256,192,45147,1,0,0:0:0:0:
256,192,45293,1,8,0:0:0:0:
256,192,45584,1,0,0:0:0:0:
256,192,45730,1,8,0:0:0:0:
256,192,45802,1,8,0:0:0:0:
256,192,45875,1,0,0:0:0:0:
256,192,45948,1,0,0:0:0:0:
256,192,46021,1,0,0:0:0:0:
256,192,46166,1,8,0:0:0:0:
256,192,46239,1,8,0:0:0:0:
256,192,46312,1,0,0:0:0:0:
256,192,46458,1,8,0:0:0:0:
256,192,46749,1,0,0:0:0:0:
256,192,46895,1,0,0:0:0:0:
256,192,46967,1,0,0:0:0:0:
256,192,47040,1,8,0:0:0:0:
256,192,47113,1,8,0:0:0:0:
256,192,47186,1,8,0:0:0:0:
256,192,47331,1,0,0:0:0:0:
256,192,47404,1,0,0:0:0:0:
256,192,47477,1,8,0:0:0:0:
256,192,47623,1,8,0:0:0:0:
256,192,47914,1,8,0:0:0:0:
256,192,48205,1,0,0:0:0:0:
256,192,48351,1,8,0:0:0:0:
256,192,48642,1,0,0:0:0:0:
256,192,48715,1,0,0:0:0:0:
256,192,48788,1,8,0:0:0:0:
256,192,49079,1,12,0:0:0:0:
256,192,49225,1,0,0:0:0:0:
256,192,49370,1,0,0:0:0:0:
256,192,49516,1,12,0:0:0:0:
256,192,49662,1,0,0:0:0:0:
256,192,49807,1,0,0:0:0:0:
256,192,49953,1,12,0:0:0:0:
256,192,50098,1,0,0:0:0:0:
256,192,50244,1,12,0:0:0:0:
256,192,50390,1,0,0:0:0:0:
256,192,50535,1,0,0:0:0:0:
256,192,50681,1,12,0:0:0:0:
256,192,50827,1,0,0:0:0:0:
256,192,50972,1,0,0:0:0:0:
256,192,51118,1,12,0:0:0:0:
256,192,51264,1,0,0:0:0:0:
256,192,51409,1,12,0:0:0:0:
256,192,51555,1,0,0:0:0:0:
256,192,51700,1,0,0:0:0:0:
256,192,51846,1,12,0:0:0:0:
256,192,51992,1,0,0:0:0:0:
256,192,52137,1,0,0:0:0:0:
256,192,52283,1,12,0:0:0:0:
256,192,52429,1,0,0:0:0:0:
256,192,52574,1,12,0:0:0:0:
256,192,52720,1,0,0:0:0:0:
256,192,52865,1,12,0:0:0:0:
256,192,53157,1,0,0:0:0:0:
256,192,53375,1,0,0:0:0:0:
256,192,53448,1,0,0:0:0:0:
256,192,53594,1,8,0:0:0:0:
256,192,53666,1,8,0:0:0:0:
256,192,53739,1,0,0:0:0:0:
256,192,53885,1,0,0:0:0:0:
256,192,54031,1,8,0:0:0:0:
256,192,54176,1,0,0:0:0:0:
256,192,54249,1,0,0:0:0:0:
256,192,54322,1,8,0:0:0:0:
256,192,54467,1,0,0:0:0:0:
256,192,54540,1,0,0:0:0:0:
256,192,54613,1,8,0:0:0:0:
256,192,54759,1,0,0:0:0:0:
256,192,54904,1,0,0:0:0:0:
256,192,55050,1,0,0:0:0:0:
256,192,55196,1,8,0:0:0:0:
256,192,55341,1,0,0:0:0:0:
256,192,55414,1,0,0:0:0:0:
256,192,55487,1,8,0:0:0:0:
256,192,55632,1,0,0:0:0:0:
256,192,55705,1,0,0:0:0:0:
256,192,55778,1,8,0:0:0:0:
256,192,55924,1,0,0:0:0:0:
256,192,56069,1,0,0:0:0:0:
256,192,56215,1,0,0:0:0:0:
256,192,56361,1,8,0:0:0:0:
256,192,56506,1,0,0:0:0:0:
256,192,56579,1,0,0:0:0:0:
256,192,56652,1,8,0:0:0:0:
256,192,56797,1,0,0:0:0:0:
256,192,56870,1,0,0:0:0:0:
256,192,56943,1,8,0:0:0:0:
256,192,57089,1,0,0:0:0:0:
256,192,57380,1,0,0:0:0:0:
256,192,57526,1,8,0:0:0:0:
256,192,57671,1,0,0:0:0:0:
256,192,57817,1,8,0:0:0:0:
256,192,57890,1,8,0:0:0:0:
256,192,57963,1,0,0:0:0:0:
256,192,58108,1,8,0:0:0:0:
256,192,58254,1,0,0:0:0:0:
256,192,58399,1,0,0:0:0:0:
256,192,58691,1,8,0:0:0:0:
256,192,58836,1,0,0:0:0:0:
256,192,58982,1,8,0:0:0:0:
256,192,59055,1,8,0:0:0:0:
256,192,59128,1,0,0:0:0:0:
256,192,59273,1,8,0:0:0:0:
256,192,59419,1,0,0:0:0:0:
256,192,59564,1,8,0:0:0:0:
256,192,59710,1,0,0:0:0:0:
256,192,59783,1,0,0:0:0:0:
256,192,59856,1,8,0:0:0:0:
256,192,60001,1,0,0:0:0:0:
256,192,60147,1,8,0:0:0:0:
256,192,60220,1,8,0:0:0:0:
256,192,60293,1,0,0:0:0:0:
256,192,60365,1,0,0:0:0:0:
256,192,60438,1,8,0:0:0:0:
256,192,60584,1,8,0:0:0:0:
256,192,60730,1,0,0:0:0:0:
256,192,61021,1,8,0:0:0:0:
256,192,61166,1,0,0:0:0:0:
256,192,61312,1,8,0:0:0:0:
256,192,61385,1,8,0:0:0:0:
256,192,61458,1,0,0:0:0:0:
256,192,61603,1,8,0:0:0:0:
256,192,61749,1,0,0:0:0:0:
256,192,61895,1,8,0:0:0:0:
256,192,61967,1,8,0:0:0:0:
256,192,62040,1,0,0:0:0:0:
256,192,62113,1,0,0:0:0:0:
256,192,62186,1,0,0:0:0:0:
256,192,62331,1,12,0:0:0:0:
256,192,62623,1,0,0:0:0:0:
256,192,62768,1,8,0:0:0:0:
256,192,62914,1,8,0:0:0:0:
256,192,62987,1,8,0:0:0:0:
256,192,63060,1,0,0:0:0:0:
256,192,63205,1,0,0:0:0:0:
256,192,63351,1,8,0:0:0:0:
256,192,63497,1,0,0:0:0:0:
256,192,63569,1,0,0:0:0:0:
256,192,63642,1,8,0:0:0:0:
256,192,63788,1,0,0:0:0:0:
256,192,63861,1,0,0:0:0:0:
256,192,63933,1,8,0:0:0:0:
256,192,64006,1,8,0:0:0:0:
256,192,64079,1,0,0:0:0:0:
256,192,64225,1,8,0:0:0:0:
256,192,64370,1,0,0:0:0:0:
256,192,64443,1,0,0:0:0:0:
256,192,64516,1,8,0:0:0:0:
256,192,64662,1,0,0:0:0:0:
256,192,64734,1,0,0:0:0:0:
256,192,64807,1,8,0:0:0:0:
256,192,64880,1,8,0:0:0:0:
256,192,64953,1,0,0:0:0:0:
256,192,65098,1,8,0:0:0:0:
256,192,65171,1,8,0:0:0:0:
256,192,65244,1,0,0:0:0:0:
256,192,65390,1,8,0:0:0:0:
256,192,65535,1,0,0:0:0:0:
256,192,65608,1,0,0:0:0:0:
256,192,65681,1,8,0:0:0:0:
256,192,65827,1,0,0:0:0:0:
256,192,65899,1,0,0:0:0:0:
256,192,65972,1,8,0:0:0:0:
256,192,66045,1,8,0:0:0:0:
256,192,66118,1,0,0:0:0:0:
256,192,66264,1,8,0:0:0:0:
256,192,66336,1,8,0:0:0:0:
256,192,66409,1,0,0:0:0:0:
256,192,66555,1,8,0:0:0:0:
256,192,66700,1,0,0:0:0:0:
256,192,66846,1,8,0:0:0:0:
256,192,66919,1,8,0:0:0:0:
256,192,66992,1,0,0:0:0:0:
256,192,67137,1,8,0:0:0:0:
256,192,67210,1,8,0:0:0:0:
256,192,67283,1,0,0:0:0:0:
256,192,67356,1,0,0:0:0:0:
256,192,67429,1,8,0:0:0:0:
256,192,67574,1,0,0:0:0:0:
256,192,67720,1,0,0:0:0:0:
256,192,68011,1,8,0:0:0:0:
256,192,68157,1,0,0:0:0:0:
256,192,68302,1,8,0:0:0:0:
256,192,68375,1,8,0:0:0:0:
256,192,68448,1,0,0:0:0:0:
256,192,68594,1,8,0:0:0:0:
256,192,68739,1,0,0:0:0:0:
256,192,68885,1,0,0:0:0:0:
256,192,69031,1,8,0:0:0:0:
256,192,69176,1,8,0:0:0:0:
256,192,69322,1,0,0:0:0:0:
256,192,69467,1,8,0:0:0:0:
256,192,69540,1,8,0:0:0:0:
256,192,69613,1,0,0:0:0:0:
256,192,69686,1,0,0:0:0:0:
256,192,69759,1,8,0:0:0:0:
256,192,69904,1,8,0:0:0:0:
256,192,70050,1,0,0:0:0:0:
256,192,70341,1,8,0:0:0:0:
256,192,70487,1,0,0:0:0:0:
256,192,70632,1,8,0:0:0:0:
256,192,70705,1,8,0:0:0:0:
256,192,70778,1,0,0:0:0:0:
256,192,70924,1,8,0:0:0:0:
256,192,71069,1,0,0:0:0:0:
256,192,71215,1,8,0:0:0:0:
256,192,71361,1,0,0:0:0:0:
256,192,71506,1,0,0:0:0:0:
256,192,71652,1,12,0:0:0:0:
256,192,71943,1,0,0:0:0:0:
256,192,72089,1,8,0:0:0:0:
256,192,72234,1,8,0:0:0:0:
256,192,72307,1,8,0:0:0:0:
256,192,72380,1,0,0:0:0:0:
256,192,72526,1,0,0:0:0:0:
256,192,72671,1,8,0:0:0:0:
256,192,72817,1,0,0:0:0:0:
256,192,72963,1,8,0:0:0:0:
256,192,73035,1,8,0:0:0:0:
256,192,73108,1,0,0:0:0:0:
256,192,73254,1,8,0:0:0:0:
256,192,73545,1,0,0:0:0:0:
256,192,73691,1,0,0:0:0:0:
256,192,73836,1,8,0:0:0:0:
256,192,73982,1,0,0:0:0:0:
256,192,74128,1,8,0:0:0:0:
256,192,74200,1,8,0:0:0:0:
256,192,74273,1,0,0:0:0:0:
256,192,74419,1,8,0:0:0:0:
256,192,74564,1,8,0:0:0:0:
256,192,74710,1,0,0:0:0:0:
256,192,74856,1,0,0:0:0:0:
256,192,75001,1,8,0:0:0:0:
256,192,75147,1,0,0:0:0:0:
256,192,75293,1,8,0:0:0:0:
256,192,75365,1,8,0:0:0:0:
256,192,75438,1,0,0:0:0:0:
256,192,75584,1,8,0:0:0:0:
256,192,75875,1,0,0:0:0:0:
256,192,76021,1,8,0:0:0:0:
256,192,76166,1,8,0:0:0:0:
256,192,76312,1,0,0:0:0:0:
256,192,76458,1,0,0:0:0:0:
256,192,76531,1,0,0:0:0:0:
256,192,76603,1,8,0:0:0:0:
256,192,76749,1,8,0:0:0:0:
256,192,76822,1,8,0:0:0:0:
256,192,76895,1,0,0:0:0:0:
256,192,77040,1,0,0:0:0:0:
256,192,77186,1,0,0:0:0:0:
256,192,77331,1,8,0:0:0:0:
256,192,77477,1,0,0:0:0:0:
256,192,77623,1,8,0:0:0:0:
256,192,77696,1,0,0:0:0:0:
256,192,77768,1,0,0:0:0:0:
256,192,77841,1,0,0:0:0:0:
256,192,77914,1,8,0:0:0:0:
256,192,78205,1,0,0:0:0:0:
256,192,78351,1,8,0:0:0:0:
256,192,78497,1,0,0:0:0:0:
256,192,78569,1,8,0:0:0:0:
256,192,78642,1,8,0:0:0:0:
256,192,78715,1,8,0:0:0:0:
256,192,78788,1,0,0:0:0:0:
256,192,78933,1,0,0:0:0:0:
256,192,79079,1,8,0:0:0:0:
256,192,79225,1,0,0:0:0:0:
256,192,79370,1,0,0:0:0:0:
256,192,79516,1,0,0:0:0:0:
256,192,79662,1,8,0:0:0:0:
256,192,79807,1,0,0:0:0:0:
256,192,79880,1,0,0:0:0:0:
256,192,79953,1,0,0:0:0:0:
256,192,80098,1,0,0:0:0:0:
256,192,80244,1,8,0:0:0:0:
256,192,80390,1,0,0:0:0:0:
256,192,80463,1,0,0:0:0:0:
256,192,80535,1,0,0:0:0:0:
256,192,80681,1,0,0:0:0:0:
256,192,80827,1,8,0:0:0:0:
256,192,80972,1,0,0:0:0:0:
256,192,81118,1,8,0:0:0:0:
256,192,81191,1,8,0:0:0:0:
256,192,81264,1,8,0:0:0:0:
256,192,81336,1,8,0:0:0:0:
256,192,81409,1,0,0:0:0:0:
256,192,81482,1,0,0:0:0:0:
256,192,81555,1,0,0:0:0:0:
256,192,81628,1,0,0:0:0:0:
256,192,81700,1,12,0:0:0:0:
256,192,81846,1,12,0:0:0:0:
256,192,82137,1,12,0:0:0:0:
256,192,82429,1,4,0:0:0:0:
256,192,82720,1,4,0:0:0:0:
256,192,83011,1,12,0:0:0:0:
256,192,83448,1,0,0:0:0:0:
256,192,84031,1,12,0:0:0:0:
256,192,84322,1,0,0:0:0:0:
256,192,84467,1,0,0:0:0:0:
256,192,84613,1,8,0:0:0:0:
256,192,84759,1,8,0:0:0:0:
256,192,84904,1,0,0:0:0:0:
256,192,85050,1,0,0:0:0:0:
256,192,85123,1,0,0:0:0:0:
256,192,85196,1,8,0:0:0:0:
256,192,85341,1,8,0:0:0:0:
256,192,85487,1,0,0:0:0:0:
256,192,85632,1,0,0:0:0:0:
256,192,85778,1,8,0:0:0:0:
256,192,85851,1,8,0:0:0:0:
256,192,85924,1,0,0:0:0:0:
256,192,86069,1,8,0:0:0:0:
256,192,86361,1,8,0:0:0:0:
256,192,86506,1,0,0:0:0:0:
256,192,86652,1,0,0:0:0:0:
256,192,86797,1,8,0:0:0:0:
256,192,86943,1,0,0:0:0:0:
256,192,87089,1,0,0:0:0:0:
256,192,87234,1,8,0:0:0:0:
256,192,87380,1,0,0:0:0:0:
256,192,87526,1,12,0:0:0:0:
256,192,87671,1,0,0:0:0:0:
256,192,87817,1,12,0:0:0:0:
