osu file format v14

[General]
AudioFilename: audio.mp3
AudioLeadIn: 0
PreviewTime: 53739
Countdown: 0
SampleSet: Normal
StackLeniency: 0.7
Mode: 1
LetterboxInBreaks: 0
WidescreenStoryboard: 1

[Editor]
Bookmarks: 165,11815,21135,30456,35116,44436,53757,63077,72398,84048
DistanceSpacing: 0.8
BeatDivisor: 2
GridSize: 32
TimelineZoom: 1

[Metadata]
Title:MY BOY (TV Size)
TitleUnicode:MY BOY (TV Size)
Artist:Buono!
ArtistUnicode:Buono!
Creator:arien666
Version:MY FUTSUU
Source:しゅごキャラ!! どきっ
Tags:japanese pop jpop j-pop anime animation shugo chara!! doki ed 3rd ending ed3 つんく Tsunku 寺田光男 Terada Mitsuo 鈴木愛理 Suzuki Airi 夏焼雅 Natsuyaki Miyabi 嗣永桃子 Tsugunaga Momoko つんく♂ Tsunku♂
BeatmapID:3839420
BeatmapSetID:1864856

[Difficulty]
HPDrainRate:8
CircleSize:5
OverallDifficulty:4
ApproachRate:5
SliderMultiplier:1.4
SliderTickRate:1

[Events]
//Background and Video events
Video,0,"shugodokied.mp4"
0,0,"helloBNpleasedonotrequestmeanimebg_output.png",0,0
//Break Periods
//Storyboard Layer 0 (Background)
//Storyboard Layer 1 (Fail)
//Storyboard Layer 2 (Pass)
//Storyboard Layer 3 (Foreground)
//Storyboard Layer 4 (Overlay)
//Storyboard Sound Samples

[TimingPoints]
148,291.26213592233,4,1,0,75,1,0
11798,291.26213592233,4,1,0,75,1,0
53739,-100,4,1,0,75,0,1
72380,-100,4,1,0,75,0,0

[HitObjects]
256,192,148,5,8,0:0:0:0:
256,192,730,1,8,0:0:0:0:
256,192,1021,1,0,0:0:0:0:
256,192,1313,1,8,0:0:0:0:
256,192,1604,1,0,0:0:0:0:
256,192,1895,1,8,0:0:0:0:
256,192,2186,1,8,0:0:0:0:
256,192,2478,1,8,0:0:0:0:
256,192,3060,1,8,0:0:0:0:
256,192,3351,1,0,0:0:0:0:
256,192,3643,1,8,0:0:0:0:
256,192,3934,1,0,0:0:0:0:
256,192,4225,1,8,0:0:0:0:
256,192,4516,1,8,0:0:0:0:
256,192,4808,1,8,0:0:0:0:
256,192,5390,1,8,0:0:0:0:
256,192,5681,1,0,0:0:0:0:
256,192,5973,1,8,0:0:0:0:
256,192,6264,1,0,0:0:0:0:
256,192,6555,1,8,0:0:0:0:
256,192,6847,1,8,0:0:0:0:
256,192,7138,1,8,0:0:0:0:
256,192,7720,1,8,0:0:0:0:
256,192,8012,1,0,0:0:0:0:
256,192,8303,1,8,0:0:0:0:
256,192,8594,1,0,0:0:0:0:
256,192,8885,1,8,0:0:0:0:
256,192,9031,1,8,0:0:0:0:
256,192,9177,1,8,0:0:0:0:
256,192,9468,1,8,0:0:0:0:
256,192,9905,1,8,0:0:0:0:
256,192,10342,1,8,0:0:0:0:
256,192,10633,1,4,0:0:0:0:
256,192,10924,1,12,0:0:0:0:
256,192,11798,1,4,0:0:0:0:
256,192,12089,1,8,0:0:0:0:
256,192,12671,1,8,0:0:0:0:
256,192,12963,1,0,0:0:0:0:
256,192,13254,1,8,0:0:0:0:
256,192,13836,1,8,0:0:0:0:
256,192,14128,1,0,0:0:0:0:
256,192,14419,1,8,0:0:0:0:
256,192,15001,1,8,0:0:0:0:
256,192,15293,1,0,0:0:0:0:
256,192,16458,1,0,0:0:0:0:
256,192,16749,1,8,0:0:0:0:
256,192,17331,1,8,0:0:0:0:
256,192,17623,1,0,0:0:0:0:
256,192,17914,1,8,0:0:0:0:
256,192,18497,1,8,0:0:0:0:
256,192,18788,1,0,0:0:0:0:
256,192,19079,1,8,0:0:0:0:
256,192,19662,1,8,0:0:0:0:
256,192,19953,1,0,0:0:0:0:
256,192,21118,1,4,0:0:0:0:
256,192,21409,1,8,0:0:0:0:
256,192,21992,1,8,0:0:0:0:
256,192,22283,1,0,0:0:0:0:
256,192,22429,1,0,0:0:0:0:
256,192,22574,1,0,0:0:0:0:
256,192,22865,1,8,0:0:0:0:
256,192,23157,1,8,0:0:0:0:
256,192,23448,1,0,0:0:0:0:
256,192,23739,1,8,0:0:0:0:
256,192,24322,1,8,0:0:0:0:
256,192,24613,1,0,0:0:0:0:
256,192,25778,1,0,0:0:0:0:
256,192,26069,1,8,0:0:0:0:
256,192,26652,1,8,0:0:0:0:
256,192,26943,1,0,0:0:0:0:
256,192,27089,1,0,0:0:0:0:
256,192,27234,1,0,0:0:0:0:
256,192,27526,1,8,0:0:0:0:
256,192,27817,1,8,0:0:0:0:
256,192,28108,1,0,0:0:0:0:
256,192,28399,1,8,0:0:0:0:
256,192,28982,1,8,0:0:0:0:
256,192,29273,1,0,0:0:0:0:
256,192,29856,1,8,0:0:0:0:
256,192,30438,8,0,32186,0:0:0:0:
256,192,32768,5,8,0:0:0:0:
256,192,33060,1,0,0:0:0:0:
256,192,33351,1,0,0:0:0:0:
256,192,33642,1,8,0:0:0:0:
256,192,33933,1,0,0:0:0:0:
256,192,34225,1,12,0:0:0:0:
256,192,35098,1,8,0:0:0:0:
256,192,35390,1,0,0:0:0:0:
256,192,35535,1,0,0:0:0:0:
256,192,35972,1,8,0:0:0:0:
256,192,36264,1,0,0:0:0:0:
256,192,36555,1,8,0:0:0:0:
256,192,36700,1,8,0:0:0:0:
256,192,37137,1,0,0:0:0:0:
256,192,37429,1,0,0:0:0:0:
256,192,37720,1,8,0:0:0:0:
256,192,37865,1,8,0:0:0:0:
256,192,38302,1,0,0:0:0:0:
256,192,38594,1,8,0:0:0:0:
256,192,38885,1,0,0:0:0:0:
256,192,39031,1,0,0:0:0:0:
256,192,39467,1,8,0:0:0:0:
256,192,39759,1,0,0:0:0:0:
256,192,40196,1,0,0:0:0:0:
256,192,40487,1,8,0:0:0:0:
256,192,40924,1,0,0:0:0:0:
256,192,41361,1,8,0:0:0:0:
256,192,41652,1,0,0:0:0:0:
256,192,42089,1,0,0:0:0:0:
256,192,42526,1,0,0:0:0:0:
256,192,42817,1,8,0:0:0:0:
256,192,43254,1,0,0:0:0:0:
256,192,44419,1,8,0:0:0:0:
256,192,44710,1,0,0:0:0:0:
256,192,44856,1,8,0:0:0:0:
256,192,45293,1,0,0:0:0:0:
256,192,45584,1,0,0:0:0:0:
256,192,45875,1,8,0:0:0:0:
256,192,46021,1,0,0:0:0:0:
256,192,46458,1,8,0:0:0:0:
256,192,46749,1,0,0:0:0:0:
256,192,47040,1,0,0:0:0:0:
256,192,47186,1,8,0:0:0:0:
256,192,47623,1,8,0:0:0:0:
256,192,47914,1,8,0:0:0:0:
256,192,48205,1,0,0:0:0:0:
256,192,48351,1,8,0:0:0:0:
256,192,48788,1,8,0:0:0:0:
256,192,49079,1,12,0:0:0:0:
256,192,49516,1,4,0:0:0:0:
256,192,49953,1,12,0:0:0:0:
256,192,50244,1,12,0:0:0:0:
256,192,50681,1,4,0:0:0:0:
256,192,51118,1,12,0:0:0:0:
256,192,51409,1,12,0:0:0:0:
256,192,51846,1,4,0:0:0:0:
256,192,52283,1,12,0:0:0:0:
256,192,52574,1,12,0:0:0:0:
256,192,52865,1,12,0:0:0:0:
256,192,53739,1,0,0:0:0:0:
256,192,54031,1,0,0:0:0:0:
256,192,54176,1,0,0:0:0:0:
256,192,54322,1,8,0:0:0:0:
256,192,54613,1,0,0:0:0:0:
256,192,54904,1,8,0:0:0:0:
256,192,55196,1,0,0:0:0:0:
256,192,55341,1,8,0:0:0:0:
256,192,55632,1,0,0:0:0:0:
256,192,55778,1,8,0:0:0:0:
256,192,56069,1,0,0:0:0:0:
256,192,56215,1,0,0:0:0:0:
256,192,56361,1,8,0:0:0:0:
256,192,56652,1,0,0:0:0:0:
256,192,56797,1,8,0:0:0:0:
256,192,57089,1,0,0:0:0:0:
256,192,58108,1,8,0:0:0:0:
256,192,58399,1,0,0:0:0:0:
256,192,58691,1,8,0:0:0:0:
256,192,58836,1,8,0:0:0:0:
256,192,58982,1,0,0:0:0:0:
256,192,59273,1,8,0:0:0:0:
256,192,59564,1,0,0:0:0:0:
256,192,59710,1,0,0:0:0:0:
256,192,59856,1,8,0:0:0:0:
256,192,60147,1,0,0:0:0:0:
256,192,60438,1,8,0:0:0:0:
256,192,60730,1,0,0:0:0:0:
256,192,61021,1,8,0:0:0:0:
256,192,61166,1,8,0:0:0:0:
256,192,61458,1,0,0:0:0:0:
256,192,61603,1,8,0:0:0:0:
256,192,61895,1,0,0:0:0:0:
256,192,62331,1,12,0:0:0:0:
256,192,63060,1,0,0:0:0:0:
256,192,63351,1,0,0:0:0:0:
256,192,63497,1,0,0:0:0:0:
256,192,63642,1,8,0:0:0:0:
256,192,63933,1,0,0:0:0:0:
256,192,64225,1,8,0:0:0:0:
256,192,64516,1,0,0:0:0:0:
256,192,64662,1,8,0:0:0:0:
256,192,64953,1,0,0:0:0:0:
256,192,65098,1,8,0:0:0:0:
256,192,65390,1,0,0:0:0:0:
256,192,65535,1,0,0:0:0:0:
256,192,65681,1,8,0:0:0:0:
256,192,65972,1,0,0:0:0:0:
256,192,66118,1,8,0:0:0:0:
256,192,66409,1,0,0:0:0:0:
256,192,67429,1,8,0:0:0:0:
256,192,67720,1,0,0:0:0:0:
256,192,68011,1,8,0:0:0:0:
256,192,68157,1,8,0:0:0:0:
256,192,68302,1,0,0:0:0:0:
256,192,68594,1,8,0:0:0:0:
256,192,68885,1,0,0:0:0:0:
256,192,69031,1,0,0:0:0:0:
256,192,69176,1,8,0:0:0:0:
256,192,69467,1,0,0:0:0:0:
256,192,69759,1,8,0:0:0:0:
256,192,70050,1,0,0:0:0:0:
256,192,70341,1,8,0:0:0:0:
256,192,70487,1,8,0:0:0:0:
256,192,70778,1,0,0:0:0:0:
256,192,70924,1,8,0:0:0:0:
256,192,71215,1,0,0:0:0:0:
256,192,71652,1,12,0:0:0:0:
256,192,72380,1,0,0:0:0:0:
256,192,72671,1,8,0:0:0:0:
256,192,72817,1,0,0:0:0:0:
256,192,73108,1,0,0:0:0:0:
256,192,73254,1,8,0:0:0:0:
256,192,73545,1,0,0:0:0:0:
256,192,73691,1,0,0:0:0:0:
256,192,73836,1,8,0:0:0:0:
256,192,74128,1,0,0:0:0:0:
256,192,74419,1,8,0:0:0:0:
256,192,74710,1,0,0:0:0:0:
256,192,75001,1,0,0:0:0:0:
256,192,75147,1,8,0:0:0:0:
256,192,75438,1,0,0:0:0:0:
256,192,75584,1,8,0:0:0:0:
256,192,76166,1,8,0:0:0:0:
256,192,76458,1,0,0:0:0:0:
256,192,76749,1,8,0:0:0:0:
256,192,77040,1,0,0:0:0:0:
256,192,77331,1,8,0:0:0:0:
256,192,77477,1,0,0:0:0:0:
256,192,77768,1,0,0:0:0:0:
256,192,77914,1,8,0:0:0:0:
256,192,78205,1,0,0:0:0:0:
256,192,78351,1,0,0:0:0:0:
256,192,78497,1,8,0:0:0:0:
256,192,78788,1,0,0:0:0:0:
256,192,79079,1,8,0:0:0:0:
256,192,79370,8,0,81409,0:0:0:0:
256,192,81700,5,12,0:0:0:0:
256,192,82137,1,12,0:0:0:0:
256,192,82429,1,4,0:0:0:0:
256,192,82720,1,4,0:0:0:0:
256,192,83011,1,12,0:0:0:0:
256,192,84031,1,12,0:0:0:0:
256,192,84322,1,0,0:0:0:0:
256,192,84613,1,8,0:0:0:0:
256,192,84904,1,0,0:0:0:0:
256,192,85196,1,8,0:0:0:0:
256,192,85341,1,8,0:0:0:0:
256,192,85487,1,0,0:0:0:0:
256,192,85778,1,8,0:0:0:0:
256,192,86069,1,0,0:0:0:0:
256,192,86361,1,8,0:0:0:0:
256,192,86652,1,0,0:0:0:0:
256,192,86797,1,8,0:0:0:0:
256,192,87089,1,0,0:0:0:0:
256,192,87234,1,8,0:0:0:0:
256,192,87526,1,4,0:0:0:0:
256,192,87817,1,12,0:0:0:0:
