osu file format v14

[General]
AudioFilename: audio.mp3
AudioLeadIn: 0
PreviewTime: 50011
Countdown: 0
SampleSet: Normal
StackLeniency: 0.7
Mode: 1
LetterboxInBreaks: 0
WidescreenStoryboard: 0

[Editor]
DistanceSpacing: 1.7
BeatDivisor: 4
GridSize: 32
TimelineZoom: 1

[Metadata]
Title:Kokoro no Tamago (TV Size)
TitleUnicode:こころのたまご (TV Size)
Artist:Buono!
ArtistUnicode:Buono!
Creator:Faputa
Version:My Heart, Unlock!
Source:しゅごキャラ!
Tags:ソング♪ベスト Song Best Shugo Chara! Kyara! My Guardian Characters 日奈森あむ Hinamori Amu ラン ミキ スゥ ダイヤ Ran Miki Suu Diamond Daiya OP Opening 1 Season one Anime Japanese
BeatmapID:1991183
BeatmapSetID:953653

[Difficulty]
HPDrainRate:6
CircleSize:2
OverallDifficulty:6
ApproachRate:10
SliderMultiplier:1.4
SliderTickRate:1

[Events]
//Background and Video events
0,0,"img_3.jpg",0,0
//Break Periods
//Storyboard Layer 0 (Background)
//Storyboard Layer 1 (Fail)
//Storyboard Layer 2 (Pass)
//Storyboard Layer 3 (Foreground)
//Storyboard Layer 4 (Overlay)
//Storyboard Sound Samples

[TimingPoints]
3957,468.75,4,1,0,60,1,0
3957,-95.2380952380952,4,1,0,60,0,0
10988,-66.6666666666667,4,1,0,70,0,0
11457,-90.9090909090909,4,1,0,70,0,0
18722,-95.2380952380952,4,1,0,70,0,0
33722,-100,4,1,0,70,0,0
41339,-95.2380952380952,4,1,0,70,0,0
43332,-90.9090909090909,4,1,0,70,0,0
44738,-90.0900900900901,4,1,0,70,0,0
44855,-89.2857142857143,4,1,0,70,0,0
44972,-88.4955752212389,4,1,0,70,0,0
45089,-87.719298245614,4,1,0,70,0,0
45207,-86.9565217391304,4,1,0,70,0,0
47082,-86.9565217391304,4,1,0,70,0,0
47199,-86.6425742548522,4,1,0,70,0,0
47316,-86.3309600952403,4,1,0,70,0,0
47433,-86.0215053763441,4,1,0,70,0,0
47550,-85.7142612244968,4,1,0,70,0,0
47667,-85.4092769848475,4,1,0,70,0,0
47785,-85.1063829787234,4,1,0,70,0,0
47902,-84.8056297369244,4,1,0,70,0,0
48019,-84.5070660583285,4,1,0,70,0,0
48136,-84.2105263157895,4,1,0,70,0,0
48253,-83.91606044306,4,1,0,70,0,0
48371,-83.6237166895378,4,1,0,70,0,0
48488,-83.3333333333333,4,1,0,70,0,0
48605,-83.0449597107378,4,1,0,70,0,0
48722,-82.7586435196258,4,1,0,70,0,0
48800,-82.5688149145702,4,1,0,70,0,0
48878,-82.3798551597387,4,1,0,70,0,0
48957,-82.1917583036279,4,1,0,70,0,0
49074,-81.9112851634908,4,1,0,70,0,0
49308,-81.3559101407701,4,1,0,70,0,0
49542,-80.8080808080808,4,1,0,70,0,0
49660,-80,4,1,0,70,0,0
49777,-80.2675800047037,4,1,0,70,0,0
49894,-80,4,1,0,70,0,0
50128,-66.6666666666667,4,1,0,70,0,0
50832,-90.9090909090909,4,1,0,80,0,1
82707,-90.9090909090909,4,1,0,60,0,0

[HitObjects]
256,192,3957,5,8,0:0:0:0:
256,192,4191,1,0,0:0:0:0:
256,192,4308,1,0,0:0:0:0:
256,192,4425,1,8,0:0:0:0:
256,192,4660,1,8,0:0:0:0:
256,192,4777,1,8,0:0:0:0:
256,192,5128,1,0,0:0:0:0:
256,192,5363,1,8,0:0:0:0:
256,192,5597,1,0,0:0:0:0:
256,192,5714,1,0,0:0:0:0:
256,192,5832,1,8,0:0:0:0:
256,192,6066,1,0,0:0:0:0:
256,192,6300,1,8,0:0:0:0:
256,192,6535,1,0,0:0:0:0:
256,192,6652,1,0,0:0:0:0:
256,192,7003,1,0,0:0:0:0:
256,192,7238,1,8,0:0:0:0:
256,192,7355,1,8,0:0:0:0:
256,192,7472,1,8,0:0:0:0:
256,192,7589,1,8,0:0:0:0:
256,192,7707,1,0,0:0:0:0:
256,192,7941,1,0,0:0:0:0:
256,192,8058,1,0,0:0:0:0:
256,192,8175,1,8,0:0:0:0:
256,192,8410,1,8,0:0:0:0:
256,192,8527,1,8,0:0:0:0:
256,192,8878,1,0,0:0:0:0:
256,192,9113,1,8,0:0:0:0:
256,192,9347,1,0,0:0:0:0:
256,192,9464,1,0,0:0:0:0:
256,192,9582,1,8,0:0:0:0:
256,192,9816,1,8,0:0:0:0:
256,192,10050,1,8,0:0:0:0:
256,192,10167,1,0,0:0:0:0:
256,192,10285,1,0,0:0:0:0:
256,192,10402,1,8,0:0:0:0:
256,192,10988,1,12,0:0:0:0:
256,192,11457,1,4,0:0:0:0:
256,192,11691,1,8,0:0:0:0:
256,192,11808,1,0,0:0:0:0:
256,192,11925,1,0,0:0:0:0:
256,192,12160,1,8,0:0:0:0:
256,192,12394,1,0,0:0:0:0:
256,192,12511,1,0,0:0:0:0:
256,192,12628,1,8,0:0:0:0:
256,192,12746,1,0,0:0:0:0:
256,192,12863,1,0,0:0:0:0:
256,192,13097,1,8,0:0:0:0:
256,192,13214,1,8,0:0:0:0:
256,192,13332,1,0,0:0:0:0:
256,192,13566,1,8,0:0:0:0:
256,192,13800,1,0,0:0:0:0:
256,192,13917,1,0,0:0:0:0:
256,192,14035,1,8,0:0:0:0:
256,192,14269,1,0,0:0:0:0:
256,192,14503,1,8,0:0:0:0:
256,192,14621,1,0,0:0:0:0:
256,192,14738,1,8,0:0:0:0:
256,192,14972,1,0,0:0:0:0:
256,192,15089,1,0,0:0:0:0:
256,192,15207,1,8,0:0:0:0:
256,192,15441,1,0,0:0:0:0:
256,192,15675,1,0,0:0:0:0:
256,192,15910,1,8,0:0:0:0:
256,192,16027,1,8,0:0:0:0:
256,192,16144,1,0,0:0:0:0:
256,192,16378,1,8,0:0:0:0:
256,192,16613,1,0,0:0:0:0:
256,192,16730,1,0,0:0:0:0:
256,192,16847,1,8,0:0:0:0:
256,192,16925,1,8,0:0:0:0:
256,192,17003,1,8,0:0:0:0:
256,192,17082,1,0,0:0:0:0:
256,192,17199,1,8,0:0:0:0:
256,192,17433,1,8,0:0:0:0:
256,192,17667,1,8,0:0:0:0:
256,192,17785,1,0,0:0:0:0:
256,192,17902,1,0,0:0:0:0:
256,192,18019,1,8,0:0:0:0:
256,192,18253,1,0,0:0:0:0:
256,192,18722,1,8,0:0:0:0:
256,192,18957,1,4,0:0:0:0:
256,192,19191,1,0,0:0:0:0:
256,192,19425,1,8,0:0:0:0:
256,192,19660,1,0,0:0:0:0:
256,192,19777,1,0,0:0:0:0:
256,192,19894,1,0,0:0:0:0:
256,192,20128,1,0,0:0:0:0:
256,192,20363,1,8,0:0:0:0:
256,192,20597,1,8,0:0:0:0:
256,192,20832,1,0,0:0:0:0:
256,192,21300,1,8,0:0:0:0:
256,192,21535,1,0,0:0:0:0:
256,192,21769,1,0,0:0:0:0:
256,192,21886,1,8,0:0:0:0:
256,192,22003,1,0,0:0:0:0:
256,192,22238,1,8,0:0:0:0:
256,192,22472,1,0,0:0:0:0:
256,192,22707,1,8,0:0:0:0:
256,192,22941,1,0,0:0:0:0:
256,192,23175,1,8,0:0:0:0:
256,192,23410,1,0,0:0:0:0:
256,192,23527,1,8,0:0:0:0:
256,192,23644,1,8,0:0:0:0:
256,192,23878,1,0,0:0:0:0:
256,192,24113,1,8,0:0:0:0:
256,192,24347,1,0,0:0:0:0:
256,192,24464,1,0,0:0:0:0:
256,192,24582,1,8,0:0:0:0:
256,192,24816,1,8,0:0:0:0:
256,192,24933,1,8,0:0:0:0:
256,192,25050,1,0,0:0:0:0:
256,192,25519,1,0,0:0:0:0:
256,192,25636,1,8,0:0:0:0:
256,192,25753,1,0,0:0:0:0:
256,192,25988,1,8,0:0:0:0:
256,192,26222,1,0,0:0:0:0:
256,192,26300,1,0,0:0:0:0:
256,192,26378,1,0,0:0:0:0:
256,192,26457,1,0,0:0:0:0:
256,192,26691,1,8,0:0:0:0:
256,192,26925,1,8,0:0:0:0:
256,192,27160,1,0,0:0:0:0:
256,192,27277,1,8,0:0:0:0:
256,192,27394,1,0,0:0:0:0:
256,192,27628,1,0,0:0:0:0:
256,192,27863,1,8,0:0:0:0:
256,192,28097,1,0,0:0:0:0:
256,192,28332,1,8,0:0:0:0:
256,192,28566,1,0,0:0:0:0:
256,192,28800,1,8,0:0:0:0:
256,192,29035,1,8,0:0:0:0:
256,192,29152,1,0,0:0:0:0:
256,192,29269,1,0,0:0:0:0:
256,192,29503,1,8,0:0:0:0:
256,192,29621,1,8,0:0:0:0:
256,192,29738,1,0,0:0:0:0:
256,192,29972,1,8,0:0:0:0:
256,192,30207,1,0,0:0:0:0:
256,192,30558,1,8,0:0:0:0:
256,192,30675,1,0,0:0:0:0:
256,192,30910,1,8,0:0:0:0:
256,192,31027,1,8,0:0:0:0:
256,192,31144,1,0,0:0:0:0:
256,192,31378,1,0,0:0:0:0:
256,192,31613,1,8,0:0:0:0:
256,192,31847,1,0,0:0:0:0:
256,192,32082,1,8,0:0:0:0:
256,192,32316,1,0,0:0:0:0:
256,192,32433,1,0,0:0:0:0:
256,192,32550,1,8,0:0:0:0:
256,192,32785,1,0,0:0:0:0:
256,192,32902,1,0,0:0:0:0:
256,192,33019,1,8,0:0:0:0:
256,192,33136,1,8,0:0:0:0:
256,192,33253,1,0,0:0:0:0:
256,192,33488,1,8,0:0:0:0:
256,192,33722,1,0,0:0:0:0:
256,192,33957,1,12,0:0:0:0:
256,192,34191,1,0,0:0:0:0:
256,192,34425,1,8,0:0:0:0:
256,192,34660,1,0,0:0:0:0:
256,192,34777,1,0,0:0:0:0:
256,192,35128,1,0,0:0:0:0:
256,192,35363,1,8,0:0:0:0:
256,192,35480,1,0,0:0:0:0:
256,192,35597,1,8,0:0:0:0:
256,192,35832,1,0,0:0:0:0:
256,192,36066,1,8,0:0:0:0:
256,192,36300,1,0,0:0:0:0:
256,192,36535,1,8,0:0:0:0:
256,192,36652,1,8,0:0:0:0:
256,192,37003,1,0,0:0:0:0:
256,192,37238,1,8,0:0:0:0:
256,192,37472,1,0,0:0:0:0:
256,192,37589,1,0,0:0:0:0:
256,192,37707,1,8,0:0:0:0:
256,192,38058,1,8,0:0:0:0:
256,192,38175,1,0,0:0:0:0:
256,192,38410,1,8,0:0:0:0:
256,192,38527,1,8,0:0:0:0:
256,192,38644,1,0,0:0:0:0:
256,192,38878,1,8,0:0:0:0:
256,192,39113,1,0,0:0:0:0:
256,192,39347,1,8,0:0:0:0:
256,192,39582,1,0,0:0:0:0:
256,192,39933,1,0,0:0:0:0:
256,192,40050,1,8,0:0:0:0:
256,192,40285,1,0,0:0:0:0:
256,192,40402,1,0,0:0:0:0:
256,192,40519,1,0,0:0:0:0:
256,192,40636,1,8,0:0:0:0:
256,192,40753,1,0,0:0:0:0:
256,192,40988,1,8,0:0:0:0:
256,192,41105,1,0,0:0:0:0:
256,192,41222,1,0,0:0:0:0:
256,192,41457,1,12,0:0:0:0:
256,192,41691,1,0,0:0:0:0:
256,192,41925,1,8,0:0:0:0:
256,192,42160,1,0,0:0:0:0:
256,192,42277,1,8,0:0:0:0:
256,192,42511,1,8,0:0:0:0:
256,192,42628,1,0,0:0:0:0:
256,192,42863,1,8,0:0:0:0:
256,192,42980,1,8,0:0:0:0:
256,192,43097,1,8,0:0:0:0:
256,192,43332,1,0,0:0:0:0:
256,192,43566,1,8,0:0:0:0:
256,192,43800,1,0,0:0:0:0:
256,192,44035,1,8,0:0:0:0:
256,192,44152,1,0,0:0:0:0:
256,192,44386,1,0,0:0:0:0:
256,192,44503,1,8,0:0:0:0:
256,192,44738,1,8,0:0:0:0:
256,192,44855,1,8,0:0:0:0:
256,192,44972,1,0,0:0:0:0:
256,192,45089,1,0,0:0:0:0:
256,192,45207,1,8,0:0:0:0:
256,192,45441,1,0,0:0:0:0:
256,192,45558,1,8,0:0:0:0:
256,192,45675,1,0,0:0:0:0:
256,192,45910,1,8,0:0:0:0:
256,192,46144,1,0,0:0:0:0:
256,192,46378,1,8,0:0:0:0:
256,192,46496,1,0,0:0:0:0:
256,192,46613,1,8,0:0:0:0:
256,192,46847,1,0,0:0:0:0:
256,192,47082,1,8,0:0:0:0:
256,192,47199,1,0,0:0:0:0:
256,192,47316,1,0,0:0:0:0:
256,192,47433,1,0,0:0:0:0:
256,192,47550,1,8,0:0:0:0:
256,192,47667,1,0,0:0:0:0:
256,192,47785,1,0,0:0:0:0:
256,192,47902,1,0,0:0:0:0:
256,192,48019,1,8,0:0:0:0:
256,192,48136,1,8,0:0:0:0:
256,192,48253,1,0,0:0:0:0:
256,192,48371,1,0,0:0:0:0:
256,192,48488,1,8,0:0:0:0:
256,192,48605,1,8,0:0:0:0:
256,192,48722,1,0,0:0:0:0:
256,192,48800,1,0,0:0:0:0:
256,192,48878,1,0,0:0:0:0:
256,192,48957,1,8,0:0:0:0:
256,192,49074,1,8,0:0:0:0:
256,192,49308,1,8,0:0:0:0:
256,192,49542,1,8,0:0:0:0:
256,192,49660,1,0,0:0:0:0:
256,192,49777,1,0,0:0:0:0:
256,192,49894,1,8,0:0:0:0:
256,192,50128,1,4,0:0:0:0:
256,192,50363,1,4,0:0:0:0:
256,192,50832,1,12,0:0:0:0:
256,192,51066,1,0,0:0:0:0:
256,192,51300,1,8,0:0:0:0:
256,192,51417,1,8,0:0:0:0:
256,192,51535,1,0,0:0:0:0:
256,192,51769,1,8,0:0:0:0:
256,192,51886,1,8,0:0:0:0:
256,192,52003,1,0,0:0:0:0:
256,192,52121,1,0,0:0:0:0:
256,192,52238,1,8,0:0:0:0:
256,192,52472,1,8,0:0:0:0:
256,192,52589,1,0,0:0:0:0:
256,192,52707,1,0,0:0:0:0:
256,192,52941,1,8,0:0:0:0:
256,192,53175,1,0,0:0:0:0:
256,192,53292,1,0,0:0:0:0:
256,192,53410,1,8,0:0:0:0:
256,192,53644,1,0,0:0:0:0:
256,192,53878,1,8,0:0:0:0:
256,192,53996,1,0,0:0:0:0:
256,192,54113,1,8,0:0:0:0:
256,192,54230,1,8,0:0:0:0:
256,192,54347,1,0,0:0:0:0:
256,192,54464,1,0,0:0:0:0:
256,192,54582,1,0,0:0:0:0:
256,192,54816,1,8,0:0:0:0:
256,192,55050,1,8,0:0:0:0:
256,192,55285,1,0,0:0:0:0:
256,192,55402,1,0,0:0:0:0:
256,192,55519,1,8,0:0:0:0:
256,192,55636,1,8,0:0:0:0:
256,192,55753,1,0,0:0:0:0:
256,192,55988,1,8,0:0:0:0:
256,192,56105,1,8,0:0:0:0:
256,192,56222,1,0,0:0:0:0:
256,192,56339,1,0,0:0:0:0:
256,192,56457,1,8,0:0:0:0:
256,192,56691,1,0,0:0:0:0:
256,192,56925,1,8,0:0:0:0:
256,192,57160,1,8,0:0:0:0:
256,192,57394,1,0,0:0:0:0:
256,192,57511,1,8,0:0:0:0:
256,192,57628,1,0,0:0:0:0:
256,192,57863,1,4,0:0:0:0:
256,192,58097,1,0,0:0:0:0:
256,192,58332,1,12,0:0:0:0:
256,192,58566,1,0,0:0:0:0:
256,192,58800,1,8,0:0:0:0:
256,192,58917,1,8,0:0:0:0:
256,192,59035,1,0,0:0:0:0:
256,192,59269,1,8,0:0:0:0:
256,192,59386,1,0,0:0:0:0:
256,192,59503,1,0,0:0:0:0:
256,192,59621,1,0,0:0:0:0:
256,192,59738,1,8,0:0:0:0:
256,192,59972,1,8,0:0:0:0:
256,192,60089,1,0,0:0:0:0:
256,192,60207,1,0,0:0:0:0:
256,192,60441,1,8,0:0:0:0:
256,192,60675,1,8,0:0:0:0:
256,192,60792,1,0,0:0:0:0:
256,192,60910,1,8,0:0:0:0:
256,192,61144,1,0,0:0:0:0:
256,192,61261,1,0,0:0:0:0:
256,192,61378,1,8,0:0:0:0:
256,192,61496,1,8,0:0:0:0:
256,192,61613,1,0,0:0:0:0:
256,192,61847,1,8,0:0:0:0:
256,192,61964,1,8,0:0:0:0:
256,192,62082,1,8,0:0:0:0:
256,192,62316,1,0,0:0:0:0:
256,192,62550,1,0,0:0:0:0:
256,192,62785,1,8,0:0:0:0:
256,192,62902,1,8,0:0:0:0:
256,192,63019,1,0,0:0:0:0:
256,192,63253,1,0,0:0:0:0:
256,192,63371,1,0,0:0:0:0:
256,192,63488,1,8,0:0:0:0:
256,192,63605,1,0,0:0:0:0:
256,192,63722,1,8,0:0:0:0:
256,192,63839,1,8,0:0:0:0:
256,192,63957,1,0,0:0:0:0:
256,192,64191,1,8,0:0:0:0:
256,192,64425,1,0,0:0:0:0:
256,192,64542,1,0,0:0:0:0:
256,192,64660,1,8,0:0:0:0:
256,192,64894,1,12,0:0:0:0:
256,192,65363,1,4,0:0:0:0:
256,192,65597,1,0,0:0:0:0:
256,192,65832,1,12,0:0:0:0:
256,192,66066,1,0,0:0:0:0:
256,192,66300,1,8,0:0:0:0:
256,192,66417,1,8,0:0:0:0:
256,192,66535,1,0,0:0:0:0:
256,192,66769,1,8,0:0:0:0:
256,192,66886,1,8,0:0:0:0:
256,192,67003,1,0,0:0:0:0:
256,192,67121,1,0,0:0:0:0:
256,192,67238,1,8,0:0:0:0:
256,192,67472,1,8,0:0:0:0:
256,192,67589,1,0,0:0:0:0:
256,192,67707,1,0,0:0:0:0:
256,192,67941,1,8,0:0:0:0:
256,192,68058,1,8,0:0:0:0:
256,192,68175,1,0,0:0:0:0:
256,192,68292,1,0,0:0:0:0:
256,192,68410,1,8,0:0:0:0:
256,192,68644,1,0,0:0:0:0:
256,192,68878,1,8,0:0:0:0:
256,192,68996,1,0,0:0:0:0:
256,192,69113,1,8,0:0:0:0:
256,192,69230,1,8,0:0:0:0:
256,192,69347,1,0,0:0:0:0:
256,192,69464,1,0,0:0:0:0:
256,192,69582,1,0,0:0:0:0:
256,192,69816,1,8,0:0:0:0:
256,192,70050,1,8,0:0:0:0:
256,192,70285,1,0,0:0:0:0:
256,192,70402,1,0,0:0:0:0:
256,192,70519,1,8,0:0:0:0:
256,192,70636,1,8,0:0:0:0:
256,192,70753,1,0,0:0:0:0:
256,192,70988,1,8,0:0:0:0:
256,192,71105,1,0,0:0:0:0:
256,192,71222,1,8,0:0:0:0:
256,192,71339,1,8,0:0:0:0:
256,192,71457,1,0,0:0:0:0:
256,192,71691,1,0,0:0:0:0:
256,192,71925,1,8,0:0:0:0:
256,192,72042,1,0,0:0:0:0:
256,192,72160,1,8,0:0:0:0:
256,192,72394,1,0,0:0:0:0:
256,192,72511,1,8,0:0:0:0:
256,192,72628,1,0,0:0:0:0:
256,192,72863,1,4,0:0:0:0:
256,192,73097,1,0,0:0:0:0:
256,192,73332,1,12,0:0:0:0:
256,192,73566,1,0,0:0:0:0:
256,192,73800,1,8,0:0:0:0:
256,192,73917,1,8,0:0:0:0:
256,192,74035,1,0,0:0:0:0:
256,192,74269,1,8,0:0:0:0:
256,192,74386,1,0,0:0:0:0:
256,192,74503,1,0,0:0:0:0:
256,192,74621,1,0,0:0:0:0:
256,192,74738,1,8,0:0:0:0:
256,192,74972,1,8,0:0:0:0:
256,192,75089,1,0,0:0:0:0:
256,192,75207,1,0,0:0:0:0:
256,192,75441,1,8,0:0:0:0:
256,192,75675,1,8,0:0:0:0:
256,192,75792,1,0,0:0:0:0:
256,192,75910,1,8,0:0:0:0:
256,192,76144,1,0,0:0:0:0:
256,192,76261,1,0,0:0:0:0:
256,192,76378,1,8,0:0:0:0:
256,192,76496,1,8,0:0:0:0:
256,192,76613,1,0,0:0:0:0:
256,192,76847,1,8,0:0:0:0:
256,192,76964,1,0,0:0:0:0:
256,192,77082,1,8,0:0:0:0:
256,192,77316,1,0,0:0:0:0:
256,192,77433,1,0,0:0:0:0:
256,192,77550,1,0,0:0:0:0:
256,192,77785,1,8,0:0:0:0:
256,192,78019,1,8,0:0:0:0:
256,192,78136,1,8,0:0:0:0:
256,192,78253,1,0,0:0:0:0:
256,192,78488,1,4,0:0:0:0:
256,192,78722,1,0,0:0:0:0:
256,192,78957,1,12,0:0:0:0:
256,192,79191,1,0,0:0:0:0:
256,192,79308,1,0,0:0:0:0:
256,192,79425,1,8,0:0:0:0:
256,192,79660,1,0,0:0:0:0:
256,192,79894,1,12,0:0:0:0:
256,192,80128,1,0,0:0:0:0:
256,192,80246,1,0,0:0:0:0:
256,192,80363,1,8,0:0:0:0:
256,192,80480,1,8,0:0:0:0:
256,192,80597,1,0,0:0:0:0:
256,192,80832,1,12,0:0:0:0:
256,192,81066,1,12,0:0:0:0:
256,192,81300,1,12,0:0:0:0:
256,192,81535,1,12,0:0:0:0:
256,192,81769,12,0,82472,0:0:0:0:
256,192,82707,5,8,0:0:0:0:
256,192,82941,1,0,0:0:0:0:
256,192,83058,1,0,0:0:0:0:
256,192,83175,1,8,0:0:0:0:
256,192,83410,1,8,0:0:0:0:
256,192,83527,1,8,0:0:0:0:
256,192,83761,1,0,0:0:0:0:
256,192,83878,1,0,0:0:0:0:
256,192,84113,1,8,0:0:0:0:
256,192,84582,1,0,0:0:0:0:
256,192,84816,1,8,0:0:0:0:
256,192,84933,1,8,0:0:0:0:
256,192,85050,1,0,0:0:0:0:
256,192,85285,1,0,0:0:0:0:
256,192,85402,1,0,0:0:0:0:
256,192,85636,1,8,0:0:0:0:
256,192,85753,1,0,0:0:0:0:
256,192,85988,1,8,0:0:0:0:
256,192,86457,1,8,0:0:0:0:
256,192,86691,1,0,0:0:0:0:
256,192,86808,1,0,0:0:0:0:
256,192,86925,1,8,0:0:0:0:
256,192,87160,1,8,0:0:0:0:
256,192,87277,1,8,0:0:0:0:
256,192,87511,1,0,0:0:0:0:
256,192,87628,1,0,0:0:0:0:
256,192,87863,1,8,0:0:0:0:
256,192,88332,1,0,0:0:0:0:
256,192,88449,1,8,0:0:0:0:
256,192,88566,1,0,0:0:0:0:
256,192,88683,1,0,0:0:0:0:
256,192,88800,1,8,0:0:0:0:
256,192,89035,1,0,0:0:0:0:
256,192,89152,1,8,0:0:0:0:
