osu file format v14

[General]
AudioFilename: audio.mp3
AudioLeadIn: 0
PreviewTime: 20
Countdown: 0
SampleSet: Normal
StackLeniency: 0.7
Mode: 0
LetterboxInBreaks: 0
WidescreenStoryboard: 1

[Editor]
Bookmarks: 2389,8310,31796,52915,63967
DistanceSpacing: 0.5
BeatDivisor: 4
GridSize: 4
TimelineZoom: 2.3

[Metadata]
Title:DIMOOOOON
TitleUnicode:ДИМОООООН
Artist:Bumer
ArtistUnicode:Бумер
Creator:Nyarlothotep
Version:DIMOOON
Source:Bumer
Tags:bumer бумер мем dimon димон earrape russian -Spiroww
BeatmapID:1393145
BeatmapSetID:657706

[Difficulty]
HPDrainRate:7
CircleSize:5
OverallDifficulty:8
ApproachRate:9.5
SliderMultiplier:2.49999990463257
SliderTickRate:2

[Events]
//Background and Video events
0,0,"5d1154e8729a.png",0,0
//Break Periods
//Storyboard Layer 0 (Background)
//Storyboard Layer 1 (Fail)
//Storyboard Layer 2 (Pass)
//Storyboard Layer 3 (Foreground)
//Storyboard Sound Samples

[TimingPoints]
1007,394.736842105263,4,1,0,60,1,0
2389,394.736842105263,4,1,0,60,1,0
20152,-200,4,2,0,15,0,0
21336,-100,4,1,0,60,0,0
27652,-100,4,1,0,80,0,1
33967,-100,4,1,0,60,0,1
40283,-100,4,1,0,80,0,1
46599,-100,4,1,0,60,0,0
52915,-100,4,2,0,100,0,0
58046,-200,4,2,0,15,0,0
59231,-100,4,2,0,100,0,0

[Colours]
Combo1 : 0,64,128
Combo2 : 0,106,213
Combo3 : 106,106,106
Combo4 : 255,0,128

[HitObjects]
35,198,1007,6,2,B|172:188|230:60|234:53|243:44|305:86|-25:339|306:240|309:347|425:315|484:282|523:148|536:40|325:-1,1,874.999966621399,0|4,0:0|0:0,0:0:0:0:
90,60,2783,2,0,P|54:169|120:280,1,249.999990463257,0|4,0:0|0:0,0:0:0:0:
261,308,3573,1,0,0:0:0:0:
179,158,3770,1,0,0:0:0:0:
368,179,3967,6,0,P|369:70|207:22,1,249.999990463257,0|4,0:0|0:0,0:0:0:0:
72,79,4560,1,0,0:0:0:0:
72,79,4757,2,0,B|15:104|15:104|-16:170,2,124.999995231629,0|0|4,0:0|0:0|0:0,0:0:0:0:
192,156,5546,1,0,0:0:0:0:
153,311,5744,1,0,0:0:0:0:
319,274,5941,2,0,P|417:193|397:72,1,249.999990463257,0|4,0:0|0:0,0:0:0:0:
125,123,6731,37,0,0:0:0:0:
364,150,6928,1,0,0:0:0:0:
215,322,7125,2,2,B|7:340|-25:80|121:-35|249:0|364:258|494:15,1,749.999971389771,0|4,0:0|0:0,1:0:0:0:
401,201,8704,6,0,B|389:265|389:265|314:312,2,124.999995231629,4|4|4,0:0|0:0|0:0,0:0:0:0:
316,49,9494,1,8,0:0:0:0:
78,159,9889,1,0,0:0:0:0:
343,250,10086,1,0,0:0:0:0:
142,321,10283,2,0,B|220:284|220:280|176:147|178:147|237:85|262:93,1,249.999990463257
399,47,10875,1,0,0:0:0:0:
399,47,11073,22,0,B|465:40|465:40|521:81,2,124.999995231629
128,122,11862,1,0,0:0:0:0:
303,26,12060,1,0,0:0:0:0:
302,204,12257,2,0,B|225:182|170:308|46:222,1,249.999990463257
91,60,13046,1,0,0:0:0:0:
191,167,13244,1,0,0:0:0:0:
251,29,13441,2,2,B|331:93|162:257|357:338|483:337|517:211|468:135,1,499.999980926514,0|0,0:0|0:0,0:0:0:0:
415,53,14428,5,0,0:0:0:0:
389,34,14527,1,0,0:0:0:0:
357,29,14625,1,0,0:0:0:0:
303,60,14724,1,0,0:0:0:0:
272,68,14823,1,0,0:0:0:0:
241,62,14921,1,0,0:0:0:0:
180,39,15020,6,0,B|116:37|116:37|39:72,2,124.999995231629,4|4|4,0:0|0:0|0:0,0:0:0:0:
322,118,15810,1,8,0:0:0:0:
227,253,16204,1,0,0:0:0:0:
48,207,16402,1,0,0:0:0:0:
315,314,16599,2,0,P|440:280|476:153,1,249.999990463257,0|4,0:0|0:0,0:0:0:0:
289,37,17191,1,0,0:0:0:0:
289,37,17388,38,0,P|379:26|433:72,2,124.999995231629,0|0|4,0:0|0:0|0:0,0:0:0:0:
201,142,18178,1,0,0:0:0:0:
467,195,18375,1,0,0:0:0:0:
295,268,18573,2,0,P|185:301|116:177,1,249.999990463257,0|4,0:0|0:0,0:0:0:0:
216,202,19362,2,0,B|263:160|263:160|347:158,2,124.999995231629,4|4|4,0:0|0:0|0:0,0:0:0:0:
83,209,20152,6,0,L|155:170,1,62.4999976158143,8|0,0:0|0:0,0:0:0:0:
83,138,20546,2,0,L|148:78,1,62.4999976158143,8|0,0:0|0:0,0:0:0:0:
46,83,20941,2,0,L|88:7,1,62.4999976158143,8|4,0:0|0:0,0:0:0:0:
9,158,21336,21,0,0:0:0:0:
174,90,21533,1,0,0:0:0:0:
286,203,21731,2,2,P|299:231|498:230,2,249.999990463257,0|0|0,0:0|0:0|0:0,0:0:0:0:
446,120,22717,1,0,0:0:0:0:
304,30,22915,6,0,P|148:23|48:94,1,249.999990463257,0|4,0:0|0:0,0:0:0:0:
24,253,23507,1,0,0:0:0:0:
195,175,23704,2,0,P|229:281|203:319,2,124.999995231629,4|4|4,0:0|0:0|0:0,0:0:0:0:
62,238,24494,5,0,0:0:0:0:
229,165,24691,1,0,0:0:0:0:
225,339,24888,2,0,P|303:343|407:197,1,249.999990463257
305,86,25678,1,0,0:0:0:0:
139,326,25875,1,0,0:0:0:0:
72,149,26073,2,2,B|137:163|184:213|226:346|386:346|485:237|448:141,1,499.999980926514,0|4,0:0|0:0,0:0:0:0:
396,78,27060,6,2,B|384:88|384:88|368:72|368:72|352:88|352:88|336:72|336:72|320:88|320:88|304:72|304:72|288:88|288:88|272:72|272:72|256:88|256:88|240:72|240:72|224:88|224:88|208:72,1,249.999990463257,0|4,0:0|0:0,0:0:0:0:
127,72,27652,5,0,0:0:0:0:
105,248,27849,1,0,0:0:0:0:
257,335,28046,2,2,P|333:308|397:151,2,249.999990463257,0|0|4,0:0|0:0|0:0,0:0:0:0:
238,195,29033,1,0,0:0:0:0:
238,195,29231,2,0,P|294:159|331:90,2,124.999995231629
129,239,29823,5,0,0:0:0:0:
129,239,30020,2,0,P|101:220|188:47,1,249.999990463257,0|4,0:0|0:0,0:0:0:0:
395,64,30612,1,0,0:0:0:0:
395,64,30810,2,2,P|412:199|60:157,1,624.999976158143,0|4,0:0|0:0,0:0:0:0:
168,67,31994,1,0,0:0:0:0:
333,86,32191,1,0,0:0:0:0:
333,86,32388,2,2,P|428:120|443:262,2,249.999990463257,4|4|4,0:0|0:0|0:0,0:0:0:0:
352,195,33375,22,2,B|340:205|340:205|324:189|324:189|308:205|308:205|292:189|292:189|276:205|276:205|260:189|260:189|244:205|244:205|228:189|228:189|212:205|212:205|196:189|196:189|180:205|180:205|164:189,1,249.999990463257,0|4,0:0|0:0,0:0:0:0:
55,265,33967,37,0,0:0:0:0:
82,79,34165,1,0,0:0:0:0:
241,189,34362,2,2,P|336:237|473:201,2,249.999990463257,0|0|4,0:0|0:0|0:0,0:0:0:0:
127,73,35349,1,0,0:0:0:0:
244,265,35546,1,0,0:0:0:0:
244,265,35744,2,0,P|174:318|44:218,1,249.999990463257,0|4,0:0|0:0,0:0:0:0:
68,85,36336,2,0,B|98:31|98:31|161:22,2,124.999995231629,4|4|4,0:0|0:0|0:0,0:0:0:0:
136,224,37125,6,0,B|152:208|152:208|168:240|168:240|184:208|184:208|200:240|200:240|216:208|216:208|232:240|232:240|248:208|248:208|264:240|264:240|280:208|280:208|296:240|296:240|312:208|312:208|328:240|328:240|344:208|344:208|352:240|352:240|368:224,1,499.999980926514
400,112,38310,37,0,0:0:0:0:
217,39,38507,1,0,0:0:0:0:
232,224,38704,2,2,P|160:322|40:350,2,249.999990463257,0|0|4,0:0|0:0|0:0,0:0:0:0:
282,148,39691,6,0,B|288:154|288:154|304:138|304:138|320:154|320:154|336:138|336:138|352:154|352:154|368:138|368:138|384:154|384:154|400:138|400:138|416:154|416:154|432:138|432:138|448:154|448:154|460:144,1,249.999990463257
472,256,40283,5,0,0:0:0:0:
216,328,40481,1,0,0:0:0:0:
272,80,40678,2,0,P|176:56|48:128,1,249.999990463257,0|4,0:0|0:0,0:0:0:0:
8,246,41467,1,0,0:0:0:0:
206,319,41665,1,0,0:0:0:0:
394,245,41862,2,0,P|440:190|455:133,2,124.999995231629
206,319,42454,1,8,0:0:0:0:
206,319,42652,5,8,0:0:0:0:
47,115,42849,1,8,0:0:0:0:
312,59,43046,1,8,0:0:0:0:
480,215,43244,1,8,0:0:0:0:
480,215,43441,2,2,B|441:242|357:300|355:120|211:32|36:167|27:258,1,499.999980926514,8|4,0:0|0:0,0:0:0:0:
153,335,44625,1,0,0:0:0:0:
347,305,44823,1,0,0:0:0:0:
421,152,45020,2,0,P|398:95|219:47,1,249.999990463257,0|4,0:0|0:0,0:0:0:0:
88,134,45810,22,0,B|104:118|104:118|120:150|120:150|136:118|136:118|152:150|152:150|168:118|168:118|184:150|184:150|200:118|200:118|216:150|216:150|232:118|232:118|248:150|248:150|264:118|264:118|280:150|280:150|296:118|296:118|304:150|304:150|314:139,1,499.999980926514
441,212,46796,37,0,0:0:0:0:
349,317,46994,2,0,P|293:186|172:122,1,249.999990463257,0|4,0:0|0:0,0:0:0:0:
106,74,47783,2,0,B|157:34|157:34|263:53,2,124.999995231629,4|4|4,0:0|0:0|0:0,0:0:0:0:
50,210,48375,1,0,0:0:0:0:
237,108,48573,1,0,0:0:0:0:
279,315,48770,1,0,0:0:0:0:
279,315,48967,22,0,B|334:342|334:342|410:314,2,124.999995231629,4|4|4,0:0|0:0|0:0,0:0:0:0:
138,326,49757,2,2,B|31:258|64:80|281:21|281:280|461:172,1,499.999980926514,0|4,0:0|0:0,0:0:0:0:
132,82,50941,1,0,0:0:0:0:
362,43,51138,1,0,0:0:0:0:
103,291,51336,2,0,P|195:342|357:317,1,249.999990463257
468,152,52125,38,2,B|456:162|456:162|440:146|440:146|424:162|424:162|408:146|408:146|392:162|392:162|376:146|376:146|360:162|360:162|344:146|344:146|328:162|328:162|312:146|312:146|296:162|296:162|290:156,1,249.999990463257,0|4,0:0|0:0,0:0:0:0:
139,59,52915,5,8,0:0:0:0:
139,59,53310,2,0,P|75:165|75:289,1,249.999990463257,8|4,0:0|0:0,0:0:0:0:
255,65,54099,1,8,0:0:0:0:
231,318,54494,1,8,0:0:0:0:
409,79,54888,1,8,0:0:0:0:
409,79,55283,2,0,P|428:198|350:326,1,249.999990463257,8|4,0:0|0:0,0:0:0:0:
200,334,56073,6,0,B|135:338|135:338|65:278,2,124.999995231629,4|4|4,0:0|0:0|0:0,0:0:0:0:
256,192,56862,1,8,0:0:0:0:
200,50,57257,6,0,B|135:45|135:45|65:105,2,124.999995231629,4|4|4,0:0|0:0|0:0,0:0:0:0:
359,130,58046,6,0,L|435:159,1,62.4999976158143,8|0,0:0|0:0,0:0:0:0:
372,198,58441,2,0,L|437:253,1,62.4999976158143,8|0,0:0|0:0,0:0:0:0:
355,266,58836,2,0,L|390:329,1,62.4999976158143,8|0,0:0|0:0,0:0:0:0:
303,169,59231,21,12,0:0:0:0:
241,78,59625,2,2,B|135:22|35:77|25:197,2,249.999990463257,0|0|4,0:0|0:0|0:0,0:0:0:0:
300,145,60612,1,8,0:0:0:0:
300,145,60810,2,0,B|353:210|254:284|323:353|392:341,1,249.999990463257,0|4,0:0|0:0,0:0:0:0:
472,206,61402,5,8,0:0:0:0:
334,190,61599,2,0,P|280:221|219:221,1,124.999995231629,0|0,0:0|0:0,3:0:0:0:
56,215,61994,2,8,P|97:169|156:151,1,124.999995231629
140,294,62388,2,2,P|359:309|477:66,1,499.999980926514,0|4,0:0|0:0,0:0:0:0:
194,40,63573,1,8,0:0:0:0:
479,210,63770,1,8,0:0:0:0:
223,353,63967,2,2,B|27:370|-48:188|25:83|115:26|207:52,1,499.999980926514,8|4,0:0|0:0,0:0:0:0:
