osu file format v14

[General]
AudioFilename: audio.mp3
AudioLeadIn: 0
PreviewTime: 23
Countdown: 3
SampleSet: Normal
StackLeniency: 0.2
Mode: 0
LetterboxInBreaks: 0
WidescreenStoryboard: 1

[Editor]
Bookmarks: 18178
DistanceSpacing: 1.5
BeatDivisor: 4
GridSize: 4
TimelineZoom: 3.799998

[Metadata]
Title:Real
TitleUnicode:Real
Artist:Bumblefoot
ArtistUnicode:Bumblefoot
Creator:Zrktr85
Version:ayy 1
Source:
Tags:
BeatmapID:1003943
BeatmapSetID:452190

[Difficulty]
HPDrainRate:4
CircleSize:4
OverallDifficulty:8.5
ApproachRate:10
SliderMultiplier:2.69999990463257
SliderTickRate:1

[Events]
//Background and Video events
0,0,"2005 - USA CD Edition - Front.jpg",0,0
//Break Periods
//Storyboard Layer 0 (Background)
//Storyboard Layer 1 (Fail)
//Storyboard Layer 2 (Pass)
//Storyboard Layer 3 (Foreground)
//Storyboard Sound Samples

[TimingPoints]
494,315.789473684211,4,1,0,100,1,0
28283,-66.6666666666667,4,1,0,100,0,0
30809,-100,4,1,0,100,0,0
35862,-200,4,1,0,100,0,0
38388,-100,4,1,0,100,0,0
58599,-200,4,1,0,100,0,0
61125,-100,4,1,0,100,0,0
63684,285.035629453682,4,1,0,100,1,0
67107,273.972602739726,4,1,0,100,1,0
68202,275.229357798165,4,1,0,100,1,0
72605,258.620689655172,4,1,0,100,1,0
72605,-66.6666666666667,4,1,0,100,0,0
72734,-100,4,1,0,100,0,0
73380,-66.6666666666667,4,1,0,100,0,0
76742,254.237288135593,4,1,0,100,1,0
78775,240,4,1,0,100,1,0
80695,240.480961923848,4,1,0,100,1,1
81656,223.048327137546,4,1,0,100,1,1
82548,234.375,4,1,0,100,1,1
83485,221.40221402214,4,1,0,100,1,1
84370,233.463035019455,4,1,0,100,1,0
86237,228.136882129278,4,1,0,100,1,0
87605,-200,4,1,0,100,0,0
88062,218.181818181818,4,1,0,100,1,1
91552,211.640211640212,4,1,0,100,1,0
94091,225.563909774436,4,1,0,100,1,0
94993,229.003984819734,4,1,0,100,1,0
105011,315.789473684211,4,1,0,100,1,0
110063,-200,4,1,0,100,0,0
112589,-100,4,1,0,100,0,0

[HitObjects]
256,192,178,12,0,415,0:0:0:0:
79,285,494,6,0,P|70:245|103:169,1,67.4999976158142
121,330,651,1,0,0:0:0:0:
185,349,730,1,0,0:0:0:0:
246,321,809,2,0,P|221:342|184:348,2,67.4999976158142
412,120,1125,6,0,P|387:80|313:50,1,67.4999976158142
427,175,1282,1,0,0:0:0:0:
412,241,1362,1,0,0:0:0:0:
358,281,1441,2,0,P|391:265|418:227,2,67.4999976158142
169,93,1757,6,0,P|199:67|239:60,1,67.4999976158142
127,132,1914,1,0,0:0:0:0:
111,198,1994,1,0,0:0:0:0:
144,256,2073,2,0,P|120:229|112:200,2,67.4999976158142
350,87,2388,6,0,P|392:113|422:160,1,67.4999976158142
292,76,2545,1,0,0:0:0:0:
224,84,2625,1,0,0:0:0:0:
173,129,2704,2,0,P|192:104|224:86,2,67.4999976158142
395,267,3020,6,0,P|429:250|449:200,1,67.4999976158142
339,307,3177,1,0,0:0:0:0:
395,267,3257,1,0,0:0:0:0:
445,226,3336,2,0,P|404:260|374:271,2,67.4999976158142
179,173,3651,6,0,P|195:131|235:89,1,67.4999976158142
176,244,3808,1,0,0:0:0:0:
179,173,3888,1,0,0:0:0:0:
208,112,3967,2,0,P|186:140|181:191,2,67.4999976158142
415,287,4283,6,0,P|381:259|373:220,1,67.4999976158142
482,318,4441,1,0,0:0:0:0:
415,287,4520,1,0,0:0:0:0:
375,237,4599,2,0,P|388:271|424:293,2,67.4999976158142
133,112,4915,6,0,P|162:78|201:72,1,67.4999976158142
100,178,5073,1,0,0:0:0:0:
133,112,5152,1,0,0:0:0:0:
184,74,5231,2,0,P|143:84|126:121,2,67.4999976158142
291,321,5546,5,0,0:0:0:0:
352,293,5625,1,0,0:0:0:0:
382,228,5704,2,0,P|372:263|314:310,2,67.4999976158142
376,159,5941,2,0,P|390:193|380:229,1,67.4999976158142
113,257,6178,5,0,0:0:0:0:
173,227,6257,1,0,0:0:0:0:
242,245,6336,2,0,P|208:230|135:246,2,67.4999976158142
291,293,6573,2,0,P|273:261|239:246,1,67.4999976158142
376,10,6809,5,0,0:0:0:0:
308,13,6888,1,0,0:0:0:0:
256,62,6967,2,0,P|278:33|349:11,2,67.4999976158142
236,128,7204,2,0,P|235:92|258:62,1,67.4999976158142
139,313,7441,5,0,0:0:0:0:
203,290,7520,1,0,0:0:0:0:
239,228,7599,2,0,P|225:261|164:303,2,67.4999976158142
239,159,7836,2,0,P|249:193|236:228,1,67.4999976158142
61,316,8072,5,0,3:0:0:0:
74,113,8230,1,0,3:0:0:0:
276,123,8388,1,0,3:0:0:0:
246,323,8546,1,0,3:0:0:0:
73,224,8704,1,0,3:0:0:0:
190,58,8862,1,0,3:0:0:0:
250,251,9020,1,0,3:0:0:0:
448,208,9178,1,0,3:0:0:0:
402,10,9336,1,0,3:0:0:0:
107,287,9809,5,0,0:0:0:0:
107,287,9888,1,0,0:0:0:0:
107,287,9967,1,0,0:0:0:0:
107,287,10046,1,0,0:0:0:0:
107,287,10125,1,0,0:0:0:0:
129,301,10204,1,0,0:0:0:0:
162,293,10283,1,0,0:0:0:0:
181,257,10362,1,0,0:0:0:0:
168,211,10441,1,0,0:0:0:0:
122,181,10520,1,0,0:0:0:0:
186,201,10599,6,0,P|222:208|247:194,1,67.4999976158142
290,140,10757,1,0,0:0:0:0:
247,193,10836,1,0,0:0:0:0:
290,140,10915,2,0,P|300:100|272:46,2,67.4999976158142
481,331,11230,6,0,P|445:338|420:324,1,67.4999976158142
377,270,11388,1,0,0:0:0:0:
420,323,11467,1,0,0:0:0:0:
377,270,11546,2,0,P|367:230|395:176,2,67.4999976158142
282,9,11862,6,0,P|302:39|299:67,1,67.4999976158142
266,128,12020,1,0,0:0:0:0:
298,68,12099,1,0,0:0:0:0:
266,128,12178,2,0,P|233:152|172:148,2,67.4999976158142
115,354,12494,6,0,P|151:361|176:347,1,67.4999976158142
219,293,12652,1,0,0:0:0:0:
176,346,12731,1,0,0:0:0:0:
219,293,12810,2,0,P|229:253|201:199,2,67.4999976158142
451,156,13125,6,0,P|463:206|455:247,1,67.4999976158142
397,198,13283,1,0,0:0:0:0:
451,156,13362,1,0,0:0:0:0:
461,221,13441,2,0,P|457:183|450:153,2,67.4999976158142
211,113,13757,6,0,P|199:63|207:22,1,67.4999976158142
265,71,13915,1,0,0:0:0:0:
211,113,13994,1,0,0:0:0:0:
201,48,14073,2,0,P|205:86|212:116,2,67.4999976158142
356,269,14388,6,0,P|403:248|431:217,1,67.4999976158142
356,201,14546,1,0,0:0:0:0:
356,269,14625,1,0,0:0:0:0:
414,238,14704,2,0,P|381:257|353:270,2,67.4999976158142
142,229,15020,6,0,P|193:232|230:251,1,67.4999976158142
166,292,15178,1,0,0:0:0:0:
142,229,15257,1,0,0:0:0:0:
207,238,15336,2,0,P|169:230|138:228,2,67.4999976158142
455,343,15651,5,0,0:0:0:0:
483,281,15730,1,0,0:0:0:0:
485,209,15809,2,0,P|477:175|453:143,2,67.4999976158142
458,148,16046,2,0,P|478:179|483:217,1,67.4999976158142
216,261,16283,5,0,0:0:0:0:
179,318,16362,1,0,0:0:0:0:
119,358,16441,2,0,P|85:369|46:365,2,67.4999976158142
53,367,16678,2,0,P|89:367|124:351,1,67.4999976158142
133,84,16915,5,0,0:0:0:0:
132,153,16994,1,0,0:0:0:0:
158,219,17073,2,0,P|178:247|213:267,2,67.4999976158142
206,265,17310,2,0,P|175:244|156:211,1,67.4999976158142
384,70,17546,5,0,0:0:0:0:
322,99,17625,1,0,0:0:0:0:
250,102,17704,2,0,P|215:94|183:71,2,67.4999976158142
189,76,17941,2,0,P|220:95|258:99,1,67.4999976158142
152,329,18178,5,8,3:0:0:0:
216,308,18257,1,8,3:0:0:0:
270,268,18336,2,0,P|290:235|290:189,1,67.4999976158142,8|0,3:0|3:0,3:0:0:0:
429,220,18494,5,8,3:0:0:0:
378,175,18573,1,8,3:0:0:0:
317,148,18652,2,0,P|278:147|238:170,1,67.4999976158142,8|0,3:0|3:0,3:0:0:0:
197,35,18809,5,8,3:0:0:0:
183,101,18888,1,8,3:0:0:0:
190,167,18967,2,0,P|208:200|248:223,1,67.4999976158142,8|0,3:0|3:0,3:0:0:0:
258,142,19125,5,8,3:0:0:0:
305,193,19204,1,8,3:0:0:0:
254,236,19283,1,8,3:0:0:0:
207,187,19362,2,0,L|268:136,1,67.4999976158142,8|0,3:0|3:0,3:0:0:0:
256,192,19599,12,0,20388,0:0:0:0:
255,234,20704,5,0,0:0:0:0:
167,337,21020,1,0,0:0:0:0:
321,115,21178,1,0,0:0:0:0:
322,249,21494,1,0,0:0:0:0:
72,149,21651,1,0,0:0:0:0:
257,345,21967,5,0,0:0:0:0:
123,325,22283,1,0,0:0:0:0:
210,69,22441,1,0,0:0:0:0:
117,167,22757,1,0,0:0:0:0:
372,85,22914,1,0,0:0:0:0:
255,328,23230,5,0,0:0:0:0:
348,230,23546,1,0,0:0:0:0:
84,289,23704,1,0,0:0:0:0:
217,312,24020,1,0,0:0:0:0:
368,90,24177,1,0,0:0:0:0:
255,336,24494,5,0,0:0:0:0:
174,227,24810,1,0,0:0:0:0:
435,157,24968,1,0,0:0:0:0:
356,267,25284,1,0,0:0:0:0:
102,178,25441,1,0,0:0:0:0:
113,278,25757,5,0,0:0:0:0:
154,149,25915,2,0,P|179:93|169:157,2,134.999995231628
224,264,26388,5,0,0:0:0:0:
359,266,26546,2,0,P|362:327|342:265,2,134.999995231628
228,226,27020,5,0,0:0:0:0:
318,125,27178,2,0,P|379:126|316:141,2,134.999995231628
187,91,27651,5,0,0:0:0:0:
127,212,27809,2,0,P|152:268|142:204,2,134.999995231628
398,205,28283,6,0,P|405:256|375:318,1,101.250000286102
339,353,28441,1,0,0:0:0:0:
398,205,28599,1,0,0:0:0:0:
309,102,28757,1,0,0:0:0:0:
176,103,28915,6,0,P|131:130|98:189,1,101.250000286102
96,202,29073,1,0,0:0:0:0:
176,103,29231,1,0,0:0:0:0:
309,102,29389,1,0,0:0:0:0:
398,205,29546,6,0,P|405:256|375:318,1,101.250000286102
256,192,29862,12,0,30494,0:0:0:0:
364,287,30809,5,0,0:0:0:0:
261,198,31125,1,0,0:0:0:0:
495,64,31283,1,0,0:0:0:0:
472,197,31599,1,0,0:0:0:0:
234,70,31756,1,0,0:0:0:0:
385,293,32072,5,0,0:0:0:0:
250,304,32388,1,0,0:0:0:0:
150,52,32546,1,0,0:0:0:0:
60,153,32862,1,0,0:0:0:0:
323,204,33019,1,0,0:0:0:0:
52,195,33336,5,0,0:0:0:0:
77,327,33652,1,0,0:0:0:0:
349,128,33810,1,0,0:0:0:0:
239,282,34126,1,0,0:0:0:0:
19,28,34283,1,0,0:0:0:0:
155,261,34599,5,0,0:0:0:0:
325,343,34915,1,0,0:0:0:0:
148,54,35073,1,0,0:0:0:0:
197,236,35389,1,0,0:0:0:0:
439,4,35546,1,0,0:0:0:0:
256,192,35862,5,0,0:0:0:0:
143,271,36020,2,0,L|73:324,2,67.4999976158142
256,192,36494,5,0,0:0:0:0:
367,113,36651,2,0,L|438:58,2,67.4999976158142
256,192,37125,5,0,0:0:0:0:
158,94,37283,2,0,L|93:34,2,67.4999976158142
256,192,37757,5,0,0:0:0:0:
353,287,37915,2,0,L|418:347,2,67.4999976158142
256,192,38388,5,6,0:0:0:0:
224,176,38467,1,0,0:0:0:0:
192,176,38546,1,0,0:0:0:0:
164,192,38625,1,0,0:0:0:0:
188,216,38704,5,0,0:0:0:0:
164,192,38783,1,0,0:0:0:0:
132,188,38862,1,0,0:0:0:0:
100,200,38941,1,0,0:0:0:0:
128,220,39020,5,6,0:0:0:0:
132,188,39099,1,0,0:0:0:0:
112,160,39178,1,0,0:0:0:0:
84,144,39257,1,0,0:0:0:0:
84,176,39336,5,0,0:0:0:0:
84,144,39415,1,0,0:0:0:0:
112,124,39494,1,0,0:0:0:0:
144,124,39572,2,0,P|176:128|208:160,1,67.4999976158142,0|10,0:0|0:0,0:0:0:0:
256,192,39730,12,0,40599,0:0:0:0:
100,304,40915,5,0,0:0:0:0:
172,44,41230,1,0,0:0:0:0:
172,44,41388,1,0,0:0:0:0:
312,276,41704,1,0,0:0:0:0:
312,276,41862,1,0,0:0:0:0:
436,332,42178,5,0,0:0:0:0:
88,264,42494,1,0,0:0:0:0:
224,32,42651,1,0,0:0:0:0:
352,268,42809,1,0,0:0:0:0:
116,140,42967,1,0,0:0:0:0:
352,268,43125,1,0,0:0:0:0:
220,292,43441,5,0,0:0:0:0:
60,76,43756,1,0,0:0:0:0:
60,76,43914,1,0,0:0:0:0:
324,140,44230,1,0,0:0:0:0:
324,140,44388,1,0,0:0:0:0:
332,276,44704,5,0,0:0:0:0:
68,332,45020,1,0,0:0:0:0:
144,76,45177,1,0,0:0:0:0:
416,72,45335,1,0,0:0:0:0:
144,76,45493,1,0,0:0:0:0:
344,256,45651,1,0,0:0:0:0:
208,260,45967,5,0,0:0:0:0:
404,76,46282,1,0,0:0:0:0:
404,76,46440,1,0,0:0:0:0:
136,64,46756,1,0,0:0:0:0:
136,64,46914,1,0,0:0:0:0:
272,60,47230,5,0,0:0:0:0:
52,220,47546,1,0,0:0:0:0:
316,176,47703,1,0,0:0:0:0:
56,100,47861,1,0,0:0:0:0:
188,336,48019,1,0,0:0:0:0:
356,124,48177,1,0,0:0:0:0:
140,288,48494,6,0,B|140:332|152:128|-68:264|272:256|236:84|156:88,1,269.999990463257
128,136,49125,2,0,B|344:352|200:268|264:184|252:128,1,269.999990463257
208,124,49757,2,0,B|192:164|304:324|108:-56|12:152|72:252|172:204,1,269.999990463257
180,232,50388,2,0,B|332:48|88:264|68:56|292:80|300:128,1,269.999990463257
412,328,51020,5,0,0:0:0:0:
152,252,51336,1,0,0:0:0:0:
124,312,51494,1,0,0:0:0:0:
296,104,51809,1,0,0:0:0:0:
340,156,51967,1,0,0:0:0:0:
96,36,52283,5,0,0:0:0:0:
220,276,52599,1,0,0:0:0:0:
196,212,52757,1,0,0:0:0:0:
332,212,52915,1,0,0:0:0:0:
160,104,53072,1,0,0:0:0:0:
136,128,53151,1,0,0:0:0:0:
168,136,53230,1,0,0:0:0:0:
380,304,53546,5,0,0:0:0:0:
136,192,53862,1,0,0:0:0:0:
112,176,54020,1,0,0:0:0:0:
348,308,54336,1,0,0:0:0:0:
372,292,54494,1,0,0:0:0:0:
104,320,54809,5,0,0:0:0:0:
368,268,55125,1,0,0:0:0:0:
344,280,55283,1,0,0:0:0:0:
208,48,55599,1,0,0:0:0:0:
204,76,55757,1,0,0:0:0:0:
500,352,56072,5,0,0:0:0:0:
144,156,56388,1,0,0:0:0:0:
88,120,56546,1,0,0:0:0:0:
320,268,56862,1,0,0:0:0:0:
360,216,57020,1,0,0:0:0:0:
112,324,57336,5,0,0:0:0:0:
372,264,57652,1,0,0:0:0:0:
392,200,57810,1,0,0:0:0:0:
128,136,58126,1,0,0:0:0:0:
96,76,58283,1,0,0:0:0:0:
145,171,58599,6,0,B|179:129|179:129|226:120|226:120|256:77,1,134.999995231628
191,217,59230,6,0,B|225:175|225:175|272:166|272:166|302:123,1,134.999995231628
237,262,59862,6,0,B|271:220|271:220|318:211|318:211|348:168,1,134.999995231628
284,308,60494,6,0,B|318:266|318:266|365:257|365:257|395:214,1,134.999995231628
7,207,61125,5,0,0:0:0:0:
105,45,61283,1,0,0:0:0:0:
276,125,61441,1,0,0:0:0:0:
185,291,61599,1,0,0:0:0:0:
185,291,61757,1,0,0:0:0:0:
368,246,61915,1,0,0:0:0:0:
322,63,62072,1,0,0:0:0:0:
137,106,62230,1,0,0:0:0:0:
256,192,62388,12,0,63336,0:0:0:0:
332,302,63684,6,0,P|355:299|347:230,1,67.4999976158142
313,236,63826,1,0,0:0:0:0:
263,281,63897,1,0,0:0:0:0:
313,236,63969,2,0,P|352:245|377:268,2,67.4999976158142
202,157,64254,6,0,P|208:179|142:199,1,67.4999976158142
134,166,64396,1,0,0:0:0:0:
155,102,64467,1,0,0:0:0:0:
134,166,64539,2,0,P|158:197|189:211,2,67.4999976158142
336,153,64824,6,0,P|339:176|408:168,1,67.4999976158142
402,134,64966,1,0,0:0:0:0:
357,84,65037,1,0,0:0:0:0:
402,134,65109,2,0,P|393:173|370:198,2,67.4999976158142
219,222,65394,6,0,P|242:225|234:294,1,67.4999976158142
200,288,65536,1,0,0:0:0:0:
150,243,65607,1,0,0:0:0:0:
200,288,65679,2,0,P|239:279|264:256,2,67.4999976158142
418,205,65964,6,0,B|448:167|448:167|370:176,1,67.4999976158142
376,258,66106,1,0,0:0:0:0:
335,311,66178,1,0,0:0:0:0:
313,246,66249,2,0,L|341:335,2,67.4999976158142
166,162,66534,6,0,B|210:179|210:179|178:107,1,67.4999976158142
106,132,66676,1,0,0:0:0:0:
43,109,66748,1,0,0:0:0:0:
98,68,66819,2,0,L|22:122,2,67.4999976158142
227,210,67107,6,0,B|178:214|178:214|240:264,1,67.4999976158142
294,205,67244,1,0,0:0:0:0:
360,196,67312,1,0,0:0:0:0:
330,258,67380,2,0,L|370:175,2,67.4999976158142
155,194,67654,6,0,B|195:167|195:167|117:153,1,67.4999976158142
96,229,67796,1,0,0:0:0:0:
42,269,67860,1,0,0:0:0:0:
39,200,67928,2,0,L|43:288,2,67.4999976158142
297,280,68202,5,0,0:0:0:0:
302,284,68270,1,0,0:0:0:0:
306,289,68339,1,0,0:0:0:0:
124,87,68477,1,0,0:0:0:0:
120,81,68546,1,0,0:0:0:0:
116,75,68614,1,0,0:0:0:0:
245,312,68752,5,0,0:0:0:0:
249,317,68822,1,0,0:0:0:0:
252,322,68890,1,0,0:0:0:0:
420,112,69027,1,0,0:0:0:0:
424,107,69096,1,0,0:0:0:0:
428,101,69165,1,0,0:0:0:0:
170,176,69302,5,0,0:0:0:0:
162,177,69371,1,0,0:0:0:0:
155,178,69440,1,0,0:0:0:0:
376,21,69578,1,0,0:0:0:0:
379,15,69646,1,0,0:0:0:0:
382,9,69715,1,0,0:0:0:0:
360,265,69853,5,0,0:0:0:0:
361,272,69922,1,0,0:0:0:0:
361,278,69990,1,0,0:0:0:0:
160,97,70128,1,0,0:0:0:0:
155,92,70197,1,0,0:0:0:0:
150,86,70266,1,0,0:0:0:0:
256,194,70403,5,0,0:0:0:0:
458,202,70541,1,0,0:0:0:0:
306,66,70679,1,0,0:0:0:0:
365,258,70816,1,0,0:0:0:0:
417,61,70954,1,0,0:0:0:0:
417,61,71091,5,0,0:0:0:0:
365,258,71229,1,0,0:0:0:0:
171,197,71367,1,0,0:0:0:0:
236,6,71504,1,0,0:0:0:0:
124,266,71917,5,0,0:0:0:0:
124,252,71986,1,0,0:0:0:0:
124,238,72055,1,0,0:0:0:0:
125,224,72124,1,0,0:0:0:0:
126,210,72192,1,0,0:0:0:0:
126,196,72261,1,0,0:0:0:0:
124,238,72330,5,0,0:0:0:0:
124,210,72399,1,0,0:0:0:0:
125,182,72468,1,0,0:0:0:0:
125,155,72536,1,0,0:0:0:0:
127,125,72605,2,0,L|127:13,1,101.250000286102
234,142,72734,5,0,0:0:0:0:
285,264,72863,2,0,L|311:190,1,67.4999976158142
330,137,72992,1,0,0:0:0:0:
308,201,73057,1,0,0:0:0:0:
330,137,73122,2,0,L|305:206,2,67.4999976158142
375,333,73380,6,0,P|452:271|448:213,1,101.250000286102
475,174,73510,1,0,0:0:0:0:
452,73,73639,2,0,P|376:76|342:110,1,67.5000001907349
324,99,73725,1,0,0:0:0:0:
314,108,73768,1,0,0:0:0:0:
309,120,73811,1,0,0:0:0:0:
307,133,73855,1,0,0:0:0:0:
288,113,73898,5,0,0:0:0:0:
274,136,73941,1,0,0:0:0:0:
271,162,73984,1,0,0:0:0:0:
277,188,74027,1,0,0:0:0:0:
293,208,74070,1,0,0:0:0:0:
316,221,74113,1,0,0:0:0:0:
305,229,74156,5,0,0:0:0:0:
315,237,74199,1,0,0:0:0:0:
328,237,74242,1,0,0:0:0:0:
340,231,74286,1,0,0:0:0:0:
350,222,74329,1,0,0:0:0:0:
357,210,74372,1,0,0:0:0:0:
369,233,74415,5,0,0:0:0:0:
373,206,74458,1,0,0:0:0:0:
360,182,74501,1,0,0:0:0:0:
335,169,74544,1,0,0:0:0:0:
308,171,74587,1,0,0:0:0:0:
282,180,74630,1,0,0:0:0:0:
244,190,74673,6,0,P|196:216|152:254,1,101.250000286102
124,296,74803,1,0,0:0:0:0:
100,240,74867,1,0,0:0:0:0:
161,248,74932,2,0,P|234:249|250:188,2,101.250000286102
88,180,75191,6,0,P|80:120|100:68,1,101.250000286102
128,44,75320,1,0,0:0:0:0:
96,84,75385,1,0,0:0:0:0:
144,100,75449,2,0,P|216:116|232:172,2,101.250000286102
72,200,75708,6,0,P|40:260|40:324,1,101.250000286102
28,352,75837,1,0,0:0:0:0:
36,292,75902,1,0,0:0:0:0:
52,232,75967,2,0,P|76:192|120:160,2,101.250000286102
28,352,76225,6,0,P|96:324|132:276,1,101.250000286102
144,252,76355,1,0,0:0:0:0:
164,196,76419,1,0,0:0:0:0:
184,140,76484,2,0,L|144:248,2,101.250000286102
224,68,76742,6,0,B|264:32|264:32|300:60,1,67.4999976158142
284,48,76869,1,0,0:0:0:0:
292,56,76932,1,0,0:0:0:0:
292,68,76996,1,0,0:0:0:0:
284,80,77059,1,0,0:0:0:0:
272,84,77123,1,0,0:0:0:0:
260,76,77186,1,0,0:0:0:0:
272,68,77250,5,0,0:0:0:0:
284,72,77314,1,0,0:0:0:0:
292,84,77377,1,0,0:0:0:0:
292,96,77441,1,0,0:0:0:0:
284,108,77504,1,0,0:0:0:0:
276,120,77568,1,0,0:0:0:0:
264,128,77631,1,0,0:0:0:0:
252,132,77695,1,0,0:0:0:0:
232,132,77758,5,0,0:0:0:0:
212,124,77822,1,0,0:0:0:0:
204,104,77886,1,0,0:0:0:0:
216,88,77949,1,0,0:0:0:0:
236,88,78013,1,0,0:0:0:0:
252,104,78076,1,0,0:0:0:0:
256,124,78140,1,0,0:0:0:0:
244,140,78203,1,0,0:0:0:0:
224,156,78267,5,0,0:0:0:0:
200,164,78330,1,0,0:0:0:0:
176,152,78394,1,0,0:0:0:0:
164,128,78458,1,0,0:0:0:0:
184,108,78521,1,0,0:0:0:0:
208,120,78585,1,0,0:0:0:0:
204,148,78648,1,0,0:0:0:0:
184,168,78712,1,0,0:0:0:0:
148,172,78775,5,0,0:0:0:0:
128,180,78815,1,0,0:0:0:0:
116,200,78855,1,0,0:0:0:0:
124,220,78895,1,0,0:0:0:0:
144,228,78935,1,0,0:0:0:0:
168,228,78975,1,0,0:0:0:0:
192,220,79015,5,0,0:0:0:0:
212,200,79055,1,0,0:0:0:0:
224,176,79095,1,0,0:0:0:0:
228,152,79133,1,0,0:0:0:0:
220,124,79175,1,0,0:0:0:0:
204,100,79215,1,0,0:0:0:0:
172,100,79255,5,0,0:0:0:0:
144,116,79295,1,0,0:0:0:0:
124,140,79335,1,0,0:0:0:0:
116,172,79375,1,0,0:0:0:0:
124,204,79415,1,0,0:0:0:0:
148,224,79455,1,0,0:0:0:0:
184,236,79495,5,0,0:0:0:0:
220,240,79535,1,0,0:0:0:0:
256,236,79575,1,0,0:0:0:0:
292,224,79615,1,0,0:0:0:0:
322,204,79655,1,0,0:0:0:0:
348,179,79695,1,0,0:0:0:0:
369,144,79735,5,0,0:0:0:0:
369,144,79975,1,0,0:0:0:0:
368,220,80215,2,0,L|368:356,1,134.999995231628
368,220,80455,1,0,0:0:0:0:
255,293,80695,5,0,0:0:0:0:
130,240,80815,1,0,0:0:0:0:
252,185,80935,1,0,0:0:0:0:
127,133,81055,1,0,0:0:0:0:
288,139,81175,1,0,0:0:0:0:
123,233,81296,1,0,0:0:0:0:
257,234,81416,1,0,0:0:0:0:
141,304,81536,1,0,0:0:0:0:
328,195,81656,5,0,0:0:0:0:
120,141,81767,1,0,0:0:0:0:
311,72,81879,1,0,0:0:0:0:
220,171,81990,1,0,0:0:0:0:
183,40,82102,1,0,0:0:0:0:
75,119,82213,1,0,0:0:0:0:
120,246,82325,1,0,0:0:0:0:
232,172,82436,1,0,0:0:0:0:
349,272,82548,5,0,0:0:0:0:
352,137,82665,1,0,0:0:0:0:
264,239,82782,1,0,0:0:0:0:
258,104,82899,1,0,0:0:0:0:
189,250,83016,1,0,0:0:0:0:
198,61,83133,1,0,0:0:0:0:
125,176,83251,1,0,0:0:0:0:
129,41,83368,1,0,0:0:0:0:
42,188,83485,5,0,0:0:0:0:
217,255,83595,1,0,0:0:0:0:
91,305,83706,1,0,0:0:0:0:
131,175,83817,1,0,0:0:0:0:
287,138,83927,1,0,0:0:0:0:
114,59,84038,1,0,0:0:0:0:
199,164,84149,1,0,0:0:0:0:
256,42,84259,1,0,0:0:0:0:
354,278,84370,6,0,L|429:347,1,67.4999976158142
302,235,84486,5,0,0:0:0:0:
193,77,84603,2,0,L|146:-13,1,67.4999976158142
227,135,84719,5,0,0:0:0:0:
275,320,84836,2,0,L|288:422,1,67.4999976158142
263,254,84952,5,0,0:0:0:0:
281,64,85070,2,0,L|303:-35,1,67.4999976158142
270,130,85187,5,0,0:0:0:0:
188,303,85303,2,0,L|133:389,1,67.4999976158142
221,244,85420,5,0,0:0:0:0:
357,110,85537,2,0,L|438:48,1,67.4999976158142
306,154,85654,5,0,0:0:0:0:
132,233,85770,2,0,L|35:264,1,67.4999976158142
195,210,85887,5,0,0:0:0:0:
386,194,86004,2,0,L|488:199,1,67.4999976158142
318,195,86120,5,0,0:0:0:0:
126,190,86237,6,0,L|26:181,1,67.4999976158142
193,195,86351,1,0,0:0:0:0:
260,200,86408,1,0,0:0:0:0:
327,206,86465,6,0,L|443:175,1,67.4999976158142
261,222,86579,1,0,0:0:0:0:
197,245,86636,1,0,0:0:0:0:
137,277,86693,6,0,L|15:267,1,67.4999976158142
204,283,86807,1,0,0:0:0:0:
271,287,86864,1,0,0:0:0:0:
337,295,86921,6,0,L|430:268,1,67.4999976158142
271,312,87035,1,0,0:0:0:0:
205,328,87092,1,0,0:0:0:0:
139,344,87149,6,0,L|68:367,1,67.4999976158142
274,378,87375,1,0,0:0:0:0:
307,366,87434,1,0,0:0:0:0:
331,342,87491,1,0,0:0:0:0:
343,310,87548,1,0,0:0:0:0:
350,277,87605,2,0,L|352:222,7,33.7499988079071
356,99,88062,5,0,0:0:0:0:
356,99,88116,1,0,0:0:0:0:
356,99,88171,1,0,0:0:0:0:
212,239,88225,1,0,0:0:0:0:
114,52,88280,1,0,0:0:0:0:
212,239,88334,1,0,0:0:0:0:
114,52,88389,1,0,0:0:0:0:
304,188,88443,1,0,0:0:0:0:
64,150,88498,5,0,0:0:0:0:
64,150,88552,1,0,0:0:0:0:
64,150,88607,1,0,0:0:0:0:
259,285,88662,1,0,0:0:0:0:
222,53,88716,1,0,0:0:0:0:
429,170,88771,1,0,0:0:0:0:
429,170,88825,1,0,0:0:0:0:
191,181,88880,1,0,0:0:0:0:
427,57,88934,5,0,0:0:0:0:
427,57,88989,1,0,0:0:0:0:
427,57,89043,1,0,0:0:0:0:
354,283,89098,1,0,0:0:0:0:
190,116,89152,1,0,0:0:0:0:
400,226,89207,1,0,0:0:0:0:
165,181,89262,1,0,0:0:0:0:
397,152,89316,1,0,0:0:0:0:
191,330,89371,5,0,0:0:0:0:
191,330,89425,1,0,0:0:0:0:
191,330,89480,1,0,0:0:0:0:
408,243,89534,1,0,0:0:0:0:
178,178,89589,1,0,0:0:0:0:
376,301,89643,1,0,0:0:0:0:
146,238,89698,1,0,0:0:0:0:
335,100,89752,1,0,0:0:0:0:
65,131,89807,5,0,0:0:0:0:
65,131,89862,1,0,0:0:0:0:
65,131,89916,1,0,0:0:0:0:
173,343,89971,1,0,0:0:0:0:
241,119,90025,1,0,0:0:0:0:
378,313,90080,1,0,0:0:0:0:
412,81,90134,1,0,0:0:0:0:
258,263,90189,1,0,0:0:0:0:
83,60,90243,5,0,0:0:0:0:
83,60,90298,1,0,0:0:0:0:
83,60,90352,1,0,0:0:0:0:
308,136,90407,1,0,0:0:0:0:
100,253,90462,1,0,0:0:0:0:
238,64,90516,1,0,0:0:0:0:
372,260,90571,1,0,0:0:0:0:
153,343,90625,1,0,0:0:0:0:
158,70,90680,5,0,0:0:0:0:
158,70,90734,1,0,0:0:0:0:
158,70,90789,1,0,0:0:0:0:
287,264,90843,1,0,0:0:0:0:
336,30,90898,1,0,0:0:0:0:
182,206,90952,1,0,0:0:0:0:
412,144,91007,1,0,0:0:0:0:
183,76,91062,1,0,0:0:0:0:
361,226,91116,5,0,0:0:0:0:
361,226,91171,1,0,0:0:0:0:
361,226,91225,1,0,0:0:0:0:
131,289,91280,1,0,0:0:0:0:
303,130,91334,1,0,0:0:0:0:
424,334,91389,1,0,0:0:0:0:
234,196,91443,1,0,0:0:0:0:
467,150,91498,1,0,0:0:0:0:
257,279,91552,6,0,L|155:348,1,67.4999976158142
313,241,91657,1,0,0:0:0:0:
368,201,91710,1,0,0:0:0:0:
416,246,91763,6,0,L|494:318,1,67.4999976158142
368,201,91869,1,0,0:0:0:0:
314,158,91922,1,0,0:0:0:0:
258,196,91975,6,0,L|166:258,1,67.4999976158142
314,158,92081,1,0,0:0:0:0:
372,124,92134,1,0,0:0:0:0:
423,167,92186,6,0,L|495:232,1,67.4999976158142
372,124,92292,1,0,0:0:0:0:
317,83,92345,1,0,0:0:0:0:
377,51,92398,6,0,L|456:14,1,67.4999976158142
317,83,92504,1,0,0:0:0:0:
257,116,92557,1,0,0:0:0:0:
197,84,92610,6,0,L|118:47,1,67.4999976158142
257,116,92716,1,0,0:0:0:0:
317,149,92768,1,0,0:0:0:0:
377,117,92821,6,0,L|456:80,1,67.4999976158142
317,149,92927,1,0,0:0:0:0:
257,182,92980,1,0,0:0:0:0:
197,150,93033,6,0,L|118:113,1,67.4999976158142
257,182,93138,1,0,0:0:0:0:
317,215,93192,1,0,0:0:0:0:
377,183,93245,6,0,L|456:146,1,67.4999976158142
317,215,93350,1,0,0:0:0:0:
257,248,93403,1,0,0:0:0:0:
197,216,93456,6,0,L|118:179,1,67.4999976158142
257,248,93562,1,0,0:0:0:0:
317,281,93615,1,0,0:0:0:0:
377,249,93668,6,0,L|456:212,1,67.4999976158142
317,281,93774,1,0,0:0:0:0:
257,314,93827,1,0,0:0:0:0:
197,282,93880,6,0,L|118:245,1,67.4999976158142
257,314,93985,1,0,0:0:0:0:
317,347,94038,1,0,0:0:0:0:
377,377,94091,1,0,0:0:0:0:
135,253,94316,5,0,0:0:0:0:
135,253,94372,1,0,0:0:0:0:
135,253,94429,1,0,0:0:0:0:
135,253,94485,1,0,0:0:0:0:
135,253,94542,2,0,B|134:143|134:143|176:83,1,134.999995231628
196,74,94767,6,0,P|347:64|511:123,1,269.999990463257
464,231,95222,1,0,0:0:0:0:
464,231,95336,1,0,0:0:0:0:
337,279,95451,1,0,0:0:0:0:
275,251,95565,1,0,0:0:0:0:
330,212,95680,1,0,0:0:0:0:
486,62,95909,6,0,P|346:38|195:97,1,269.999990463257
107,141,96252,1,0,0:0:0:0:
57,186,96367,1,0,0:0:0:0:
105,232,96481,1,0,0:0:0:0:
157,188,96596,1,0,0:0:0:0:
317,43,96825,6,0,P|440:128|400:257,1,269.999990463257
365,309,97168,1,0,0:0:0:0:
313,353,97283,1,0,0:0:0:0:
263,307,97397,1,0,0:0:0:0:
312,260,97512,1,0,0:0:0:0:
400,63,97741,6,0,P|286:81|164:203,1,269.999990463257
92,288,98084,1,0,0:0:0:0:
61,348,98199,1,0,0:0:0:0:
121,378,98313,1,0,0:0:0:0:
153,318,98428,1,0,0:0:0:0:
207,108,98657,6,0,P|365:77|415:201,1,269.999990463257
443,286,99003,1,0,0:0:0:0:
452,351,99115,1,0,0:0:0:0:
385,358,99229,1,0,0:0:0:0:
375,290,99344,1,0,0:0:0:0:
304,85,99573,6,0,P|150:90|93:227,1,269.999990463257
64,308,99916,1,0,0:0:0:0:
56,375,100031,1,0,0:0:0:0:
122,382,100145,1,0,0:0:0:0:
135,315,100260,1,0,0:0:0:0:
265,142,100489,5,0,0:0:0:0:
455,76,100603,1,0,0:0:0:0:
347,249,100718,1,0,0:0:0:0:
337,43,100836,1,0,0:0:0:0:
456,198,100947,1,0,0:0:0:0:
456,198,101176,1,0,0:0:0:0:
456,198,101405,1,0,0:0:0:0:
456,198,101634,1,0,0:0:0:0:
456,198,101863,1,0,0:0:0:0:
351,128,102321,5,0,0:0:0:0:
300,84,102378,1,0,0:0:0:0:
237,60,102435,1,0,0:0:0:0:
168,71,102494,1,0,0:0:0:0:
114,109,102550,1,0,0:0:0:0:
84,169,102607,1,0,0:0:0:0:
81,236,102664,1,0,0:0:0:0:
116,292,102721,1,0,0:0:0:0:
170,295,102779,5,0,0:0:0:0:
191,245,102836,1,0,0:0:0:0:
157,203,102893,1,0,0:0:0:0:
105,187,102950,1,0,0:0:0:0:
83,137,103007,1,0,0:0:0:0:
109,88,103065,1,0,0:0:0:0:
162,81,103122,1,0,0:0:0:0:
208,107,103179,1,0,0:0:0:0:
226,143,103237,5,0,0:0:0:0:
235,182,103294,1,0,0:0:0:0:
224,221,103351,1,0,0:0:0:0:
196,251,103408,1,0,0:0:0:0:
158,264,103466,1,0,0:0:0:0:
118,259,103523,1,0,0:0:0:0:
91,230,103580,1,0,0:0:0:0:
90,189,103637,1,0,0:0:0:0:
105,166,103695,5,0,0:0:0:0:
133,166,103752,1,0,0:0:0:0:
141,192,103809,1,0,0:0:0:0:
125,211,103866,1,0,0:0:0:0:
114,236,103924,1,0,0:0:0:0:
115,263,103981,1,0,0:0:0:0:
129,285,104038,1,0,0:0:0:0:
154,296,104095,1,0,0:0:0:0:
180,290,104153,5,0,0:0:0:0:
191,281,104210,1,0,0:0:0:0:
200,272,104267,1,0,0:0:0:0:
209,260,104324,1,0,0:0:0:0:
218,249,104382,1,0,0:0:0:0:
224,236,104439,1,0,0:0:0:0:
233,225,104496,1,0,0:0:0:0:
240,213,104553,1,0,0:0:0:0:
244,207,104611,5,0,0:0:0:0:
248,201,104668,1,0,0:0:0:0:
252,196,104725,1,0,0:0:0:0:
255,190,104782,1,0,0:0:0:0:
260,185,104840,1,0,0:0:0:0:
264,179,104897,1,0,0:0:0:0:
267,173,104954,1,0,0:0:0:0:
269,168,105011,5,0,0:0:0:0:
204,288,105326,1,0,0:0:0:0:
48,68,105484,1,0,0:0:0:0:
52,204,105800,1,0,0:0:0:0:
260,32,105958,1,0,0:0:0:0:
348,288,106274,5,0,0:0:0:0:
228,352,106589,1,0,0:0:0:0:
392,140,106747,1,0,0:0:0:0:
468,252,107063,1,0,0:0:0:0:
280,56,107221,1,0,0:0:0:0:
28,372,107537,5,0,0:0:0:0:
188,356,107853,1,0,0:0:0:0:
412,104,108011,1,0,0:0:0:0:
320,240,108326,1,0,0:0:0:0:
40,48,108484,1,0,0:0:0:0:
212,256,108800,5,0,0:0:0:0:
84,356,109116,1,0,0:0:0:0:
416,304,109274,1,0,0:0:0:0:
264,360,109589,1,0,0:0:0:0:
400,52,109747,1,0,0:0:0:0:
240,120,110063,6,0,B|206:162|206:162|159:171|159:171|129:214,1,134.999995231628
280,148,110695,6,0,B|246:190|246:190|199:199|199:199|169:242,1,134.999995231628
320,176,111326,6,0,B|286:218|286:218|239:227|239:227|209:270,1,134.999995231628
360,200,111958,6,0,B|326:242|326:242|279:251|279:251|249:294,1,134.999995231628
88,344,112589,5,0,0:0:0:0:
48,76,112747,1,0,0:0:0:0:
316,32,112905,1,0,0:0:0:0:
368,296,113063,1,0,0:0:0:0:
368,296,113221,5,0,0:0:0:0:
236,144,113379,1,0,0:0:0:0:
244,348,113537,1,0,0:0:0:0:
352,176,113695,1,0,0:0:0:0:
148,260,113853,1,0,0:0:0:0:
