osu file format v14

[General]
AudioFilename: audio.mp3
AudioLeadIn: 0
PreviewTime: 23
Countdown: 1
SampleSet: Normal
StackLeniency: 0.7
Mode: 0
LetterboxInBreaks: 0
WidescreenStoryboard: 0

[Editor]
Bookmarks: 63721,65986,88339
DistanceSpacing: 1.1
BeatDivisor: 8
GridSize: 4
TimelineZoom: 4.499998

[Metadata]
Title:Real
TitleUnicode:Real
Artist:Bumblefoot
ArtistUnicode:Bumblefoot
Creator:Zrktr85
Version:Hard
Source:
Tags:
BeatmapID:969985
BeatmapSetID:452190

[Difficulty]
HPDrainRate:4
CircleSize:4
OverallDifficulty:8.5
ApproachRate:9
SliderMultiplier:1.6
SliderTickRate:1

[Events]
//Background and Video events
0,0,"2005 - USA CD Edition - Front.jpg",0,0
//Break Periods
//Storyboard Layer 0 (Background)
//Storyboard Layer 1 (Fail)
//Storyboard Layer 2 (Pass)
//Storyboard Layer 3 (Foreground)
//Storyboard Sound Samples

[TimingPoints]
494,315.789473684211,4,1,0,100,1,0
5507,-133.333333333333,4,1,0,100,0,0
8033,-100,4,1,0,100,0,0
8744,-200,4,1,0,100,0,0
9455,-100,4,1,0,100,0,0
15612,-133.333333333333,4,1,0,100,0,0
16283,-59.1715976331361,4,1,0,100,0,0
16915,-133.333333333333,4,1,0,100,0,0
17546,-76.3358778625954,4,1,0,100,0,0
18139,-100,4,1,0,100,0,0
20665,-133.333333333333,4,1,0,100,0,0
38347,-100,4,1,0,100,0,0
58560,-133.333333333333,4,1,0,100,0,0
63684,285.035629453682,4,1,0,100,1,0
63684,-80,4,1,0,100,0,0
67107,273.972602739726,4,1,0,100,1,0
67107,-80,4,1,0,100,0,0
68202,275.229357798165,4,1,0,100,1,0
68202,-133.333333333333,4,1,0,100,0,0
70403,-133.333333333333,4,1,0,100,0,0
70816,-80,4,1,0,100,0,0
71091,-100,4,1,0,100,0,0
72468,-66.6666666666667,4,1,0,100,0,0
72605,258.620689655172,4,1,0,100,1,0
72605,-66.6666666666667,4,1,0,100,0,0
73380,-100,4,1,0,100,0,0
74673,-66.6666666666667,4,1,0,100,0,0
76742,254.237288135593,4,1,0,100,1,0
76742,-66.6666666666667,4,1,0,100,0,0
78775,240,4,1,0,100,1,0
78775,-66.6666666666667,4,1,0,100,0,0
80700,240.480961923848,4,1,0,100,1,1
80700,-57.1428571428571,4,1,0,100,0,1
81663,223.048327137546,4,1,0,100,1,1
81663,-57.1428571428571,4,1,0,100,0,1
82555,234.375,4,1,0,100,1,1
82555,-57.1428571428571,4,1,0,100,0,1
83498,221.40221402214,4,1,0,100,1,1
83498,-57.1428571428571,4,1,0,100,0,1
84383,233.463035019455,4,1,0,100,1,0
86255,228.136882129278,4,1,0,100,1,0
87395,-57.1428571428571,4,1,0,100,0,0
88080,218.181818181818,4,1,0,100,1,0
88080,-100,4,1,0,100,0,1
91568,206.896551724138,4,1,0,100,1,0
91568,-80,4,1,0,100,0,0
94050,250,4,1,0,100,1,0
95050,227.272727272727,4,1,0,100,1,0
95726,-200,4,1,0,100,0,0
105049,315.789473684211,4,1,0,100,1,0
105049,-133.333333333333,4,1,0,100,0,0

[HitObjects]
161,327,494,6,0,P|202:320|235:262,1,80
96,308,809,2,0,P|65:278|74:212,1,80
198,263,1125,2,0,P|238:256|271:198,1,80
132,244,1441,2,0,P|101:214|110:148,1,80
120,51,1757,2,0,P|160:41|212:81,1,80
66,94,2072,2,0,P|49:133|83:190,1,80
178,95,2388,2,0,P|218:85|270:125,1,80
124,139,2704,2,0,P|107:178|141:235,1,80
308,51,3020,6,0,P|346:68|360:133,1,80
423,74,3336,2,0,P|428:115|380:162,1,80
457,188,3651,2,0,P|423:212|359:193,1,80
378,277,3967,2,0,P|339:259|325:194,1,80
110,229,4283,6,0,P|98:188|137:134,1,80
51,126,4599,2,0,P|79:94|145:99,1,80
114,26,4915,2,0,P|155:35|182:96,1,80
234,26,5230,2,0,P|245:66|206:120,1,80
183,327,5546,6,0,P|243:343|314:315,1,120.000004577637
301,260,6178,2,0,P|240:276|169:248,1,120.000004577637
182,196,6809,2,0,P|242:212|313:184,1,120.000004577637
303,129,7441,2,0,P|242:145|171:117,1,120.000004577637
251,39,8072,5,0,0:0:0:0:
354,108,8230,2,0,L|287:178,1,80
410,219,8546,2,0,L|345:288,1,80
212,276,8862,2,0,L|180:248,3,40
281,140,9809,2,0,L|230:170,2,40
345,150,9967,2,0,L|380:193,2,40
321,92,10125,2,0,L|333:31,2,40
316,125,10441,5,0,0:0:0:0:
100,74,10599,6,0,L|162:133,1,80
77,223,10915,2,0,L|139:282,1,80
203,68,11230,2,0,L|265:127,1,80
180,217,11546,2,0,L|242:276,1,80
412,310,11862,2,0,L|350:251,1,80
435,161,12178,2,0,L|373:102,1,80
309,316,12494,2,0,L|247:257,1,80
335,172,12809,2,0,L|273:113,1,80
76,317,13125,6,0,L|191:296,1,80
321,217,13441,2,0,L|215:230,1,80
114,173,13757,2,0,L|221:152,1,80
359,74,14072,2,0,L|248:98,1,80
109,67,14388,6,0,L|214:89,1,80
354,167,14704,2,0,L|248:154,1,80
147,210,15020,2,0,L|254:231,1,80
390,308,15336,2,0,L|289:279,1,80
168,288,15651,6,0,L|168:153,1,120.000004577637
172,104,16283,2,0,L|364:304,1,270.000010299683
356,244,16915,2,0,L|356:109,1,120.000004577637
356,52,17546,2,0,L|140:52,1,210.000008010865
245,134,18178,6,0,L|210:180,3,40
149,260,18494,2,0,L|184:214,3,40
128,145,18809,2,0,L|174:180,3,40
262,242,19125,2,0,L|216:207,3,40
197,191,19441,5,0,0:0:0:0:
256,192,19757,12,0,20388,0:0:0:0:
178,124,20704,5,0,0:0:0:0:
337,164,21020,2,0,B|366:178|366:178|338:202|338:202,1,60.0000022888184
253,288,21494,2,0,B|231:312|231:312|215:278|215:278,1,60.0000022888184
275,90,21967,5,0,0:0:0:0:
320,248,22283,2,0,B|322:281|322:281|287:268|287:268,1,60.0000022888184
171,237,22757,2,0,B|138:230|138:230|160:200|160:200,1,60.0000022888184
87,147,23230,5,0,0:0:0:0:
84,330,23546,2,0,L|150:289,1,60.0000022888184
262,222,24020,2,0,L|191:177,1,60.0000022888184
255,56,24494,1,0,0:0:0:0:
116,286,24809,2,0,L|190:285,1,60.0000022888184
389,284,25283,2,0,L|348:221,1,60.0000022888184
234,213,25757,6,0,P|255:168|275:215,2,120.000004577637
255,193,26704,1,0,0:0:0:0:
209,223,27020,2,0,B|254:283|275:166|318:221,2,120.000004577637
255,191,27967,1,0,0:0:0:0:
128,108,28283,5,0,0:0:0:0:
132,211,28441,2,0,L|128:287,2,60.0000022888184
128,108,28915,1,0,0:0:0:0:
210,161,29072,2,0,L|269:194,2,60.0000022888184
128,108,29546,1,0,0:0:0:0:
256,192,29704,12,0,30494,0:0:0:0:
340,65,30809,5,0,0:0:0:0:
220,161,31125,2,0,L|158:204,1,60.0000022888184
310,207,31599,2,0,L|289:283,1,60.0000022888184
340,65,32072,1,0,0:0:0:0:
170,195,32388,2,0,L|99:238,1,60.0000022888184
294,264,32862,2,0,L|273:345,1,60.0000022888184
48,98,33336,5,0,0:0:0:0:
196,139,33651,2,0,L|270:155,1,60.0000022888184
132,217,34125,2,0,L|181:279,1,60.0000022888184
48,98,34599,1,0,0:0:0:0:
256,151,34915,2,0,L|338:163,1,60.0000022888184
169,263,35388,2,0,L|220:329,1,60.0000022888184
254,137,35862,6,0,B|193:181|311:203|256:246,2,120.000004577637
255,53,36809,1,0,0:0:0:0:
264,237,37125,2,0,B|324:281|207:303|261:346,2,120.000004577637
255,53,38072,1,0,0:0:0:0:
154,65,38388,6,0,L|85:49,3,40
197,128,38704,2,0,L|209:83,3,40
287,152,39020,2,0,L|227:137,3,40
332,210,39336,2,0,L|345:155,3,40
217,250,39651,2,0,P|121:194|136:123,2,160
332,210,40599,1,0,0:0:0:0:
412,132,40915,5,0,0:0:0:0:
332,210,41230,2,0,P|295:237|236:246,1,80
162,243,41704,2,0,P|135:202|135:150,1,80
185,87,42178,1,0,0:0:0:0:
307,124,42494,1,0,0:0:0:0:
307,124,42651,2,0,L|225:194,2,80
307,124,43125,1,0,0:0:0:0:
246,175,43441,5,0,0:0:0:0:
355,235,43757,2,0,P|405:206|402:158,1,80
339,107,44230,2,0,P|303:77|247:95,1,80
176,142,44704,1,0,0:0:0:0:
150,218,45020,1,0,0:0:0:0:
150,218,45178,2,0,L|123:294,2,80
150,218,45651,1,0,0:0:0:0:
176,142,45967,5,0,0:0:0:0:
280,63,46283,2,0,P|327:44|381:71,1,80
368,168,46757,2,0,P|381:217|347:267,1,80
256,300,47230,1,0,0:0:0:0:
152,244,47546,1,0,0:0:0:0:
152,244,47704,2,0,P|133:205|130:166,2,80
152,244,48178,1,0,0:0:0:0:
256,200,48494,6,0,P|336:212|424:164,2,160
128,140,49441,1,0,0:0:0:0:
224,64,49757,2,0,P|308:32|412:32,2,160
128,140,50704,1,0,0:0:0:0:
256,192,51020,12,0,53230,0:0:0:0:
128,140,53546,5,0,0:0:0:0:
124,280,53862,2,0,P|152:312|207:307,1,80
280,216,54336,2,0,P|272:174|222:149,1,80
128,140,54809,1,0,0:0:0:0:
232,76,55125,2,0,P|274:71|312:112,1,80
280,212,55599,2,0,P|245:237|192:221,1,80
128,140,56072,5,0,0:0:0:0:
184,236,56388,2,0,P|228:260|292:260,1,80
329,234,56862,2,0,P|289:258|221:258,1,80
128,144,57336,1,0,0:0:0:0:
252,264,57651,2,0,P|208:252|172:216,1,80
252,264,58125,2,0,P|296:252|336:212,1,80
128,144,58599,6,0,P|164:88|236:76,2,120.000004577637
136,252,59546,1,0,0:0:0:0:
216,312,59862,2,0,P|282:319|336:270,2,120.000004577637
136,252,60809,1,0,0:0:0:0:
192,192,61125,6,0,L|240:136,1,60.0000022888184
272,100,61441,2,0,L|264:36,2,60.0000022888184
272,100,61915,2,0,L|352:88,2,60.0000022888184
124,292,63704,6,0,P|171:319|237:303,1,100
272,300,63969,2,0,P|329:277|366:241,1,100
376,200,64254,2,0,P|336:164|280:168,1,100
224,164,64539,2,0,P|180:188|128:180,1,100
80,140,64824,2,0,P|70:92|121:115,1,100
176,96,65109,2,0,P|220:116|280:156,1,100
324,172,65394,2,0,P|366:184|328:214,1,100
296,264,65679,2,0,P|256:296|180:312,1,100
152,312,65964,6,0,P|132:260|152:204,1,100
180,160,66249,2,0,P|230:172|267:227,1,100
308,256,66534,2,0,P|352:272|368:224,1,100
360,168,66819,2,0,P|322:124|263:108,1,100
216,112,67104,2,0,P|176:140|137:201,1,100
128,236,67380,2,0,P|136:280|185:272,1,100
216,228,67654,2,0,P|253:185|312:168,1,100
344,128,67928,2,0,P|383:120|370:169,1,100
344,220,68202,6,0,L|268:332,2,120.000004577637
404,128,69027,1,0,0:0:0:0:
276,144,69302,2,0,L|144:160,2,120.000004577637
408,128,70128,1,0,0:0:0:0:
328,68,70403,6,0,P|308:48|268:56,2,60.0000022888184
348,112,70816,2,0,P|366:157|316:167,1,100
276,176,71091,2,0,P|252:140|268:96,3,80
340,88,71917,6,0,L|372:28,3,40
368,128,72192,2,0,L|416:116,3,40
380,180,72468,2,0,P|380:208|348:212,1,60.0000022888184
288,200,72605,6,0,P|232:168|172:104,1,120.000004577637
144,80,72863,2,0,P|84:61|68:124,1,120.000004577637
84,156,73122,2,0,P|129:194|212:208,1,120.000004577637
264,228,73380,6,0,L|292:268,3,40
300,192,73639,2,0,L|340:208,3,40
312,144,73898,2,0,L|380:128,3,40
288,92,74156,2,0,L|340:56,3,40
240,72,74415,2,0,L|252:24,3,40
200,224,74673,6,0,P|150:245|140:180,1,120.000004577637
148,136,74932,2,0,P|204:96|280:100,1,120.000004577637
312,108,75191,2,0,P|364:148|388:228,1,120.000004577637
400,256,75449,2,0,P|347:288|274:271,1,120.000004577637
248,260,75708,2,0,P|188:228|144:184,1,120.000004577637
116,144,75967,2,0,P|55:142|60:209,1,120.000004577637
72,248,76225,2,0,P|120:284|196:292,1,120.000004577637
236,268,76484,2,0,P|265:209|205:140,1,120.000004577637,0|0,0:0|0:0,3:0:0:0:
196,84,76742,6,0,L|204:44,5,40.000001525879
144,84,76996,2,0,L|126:48,5,40.000001525879
112,124,77250,2,0,L|65:112,5,40.000001525879
128,176,77504,2,0,L|94:213,5,40.000001525879
176,196,77758,2,0,L|171:246,5,40.000001525879
236,188,78013,2,0,L|247:246,5,40.000001525879
280,168,78267,2,0,L|314:217,5,40.000001525879
328,128,78521,2,0,P|341:107|310:98,1,60.0000022888184
184,156,78775,6,0,L|126:162,5,40.000001525879
184,104,79015,2,0,L|129:84,5,40.000001525879
212,68,79255,2,0,L|185:27,5,40.000001525879
268,64,79495,2,0,L|268:15,5,40.000001525879
316,84,79735,1,0,0:0:0:0:
368,216,79975,6,0,P|228:200|164:100,1,240.000009155274
92,244,80695,6,0,P|132:296|216:292,1,120.000004577637
244,304,80940,2,0,P|320:288|376:248,1,140.000001335144
416,204,81180,2,0,P|412:136|348:136,1,140.000001335144
304,160,81421,2,0,P|245:206|184:161,1,140.000001335144
172,104,81661,6,0,P|220:48|308:44,1,140.000001335144
352,80,81886,2,0,P|420:132|424:236,1,140.000001335144
424,268,82109,2,0,P|358:307|278:290,1,140.000001335144
220,280,82332,2,0,P|160:256|216:212,1,140.000001335144
292,168,82555,6,0,P|332:116|272:100,1,140.000001335144
176,112,82789,2,0,P|100:136|76:204,1,140.000001335144
84,284,83023,2,0,P|120:344|220:308,1,140.000001335144
279,313,83258,2,0,P|328:276|367:158,1,140.000001335144
368,96,83492,6,0,P|320:48|308:112,1,140.000001335144
276,224,83719,2,0,P|244:296|176:280,1,140.000001335144
88,204,83940,2,0,P|68:130|136:64,1,140.000001335144
216,32,84162,2,0,P|292:22|368:103,1,140.000001335144
416,180,84383,6,0,L|480:192,3,40
392,220,84616,2,0,L|432:240,3,40
364,256,84849,2,0,L|416:292,3,40
320,280,85083,2,0,L|348:328,3,40
180,248,85316,6,0,L|150:276,3,40
147,197,85550,2,0,L|92:208,3,40
149,134,85783,2,0,L|84:108,3,40
195,95,86017,2,0,L|169:40,3,40
304,176,86255,6,0,L|292:224,3,40
294,214,86483,2,0,L|248:216,3,40
256,224,86711,2,0,L|288:268,3,40
279,256,86939,2,0,L|220:264,3,40
239,261,87167,1,0,0:0:0:0:
120,144,87395,6,0,B|80:113|80:113|160:113|72:0,2,140.000001335144
176,288,87851,1,0,0:0:0:0:
64,284,88080,6,0,L|55:265,7,20
40,224,88298,2,0,L|36:204,7,20
40,160,88516,2,0,L|61:141,7,20
96,136,88734,2,0,L|114:144,7,20
152,168,88952,6,0,L|167:180,7,20
200,212,89170,2,0,L|218:227,7,20
248,252,89389,2,0,L|265:261,7,20
308,284,89607,2,0,L|324:261,7,20
348,232,89825,6,0,L|354:212,7,20
356,168,90043,2,0,L|340:139,7,20
324,112,90261,2,0,L|303:99,7,20
264,88,90480,2,0,L|245:96,7,20
208,112,90698,6,0,L|186:123,7,20
156,148,90916,2,0,L|128:143,7,20
92,140,91134,2,0,L|76:121,7,20
56,88,91352,2,0,L|66:71,5,20
200,64,91568,6,0,L|212:24,5,33.3333333333333
204,128,91774,2,0,L|200:80,5,33.3333333333333
256,168,91981,2,0,L|216:136,5,33.3333333333333
316,192,92188,2,0,L|276:176,5,33.3333333333333
304,256,92395,6,0,L|364:268,5,33.3333333333333
240,248,92602,2,0,L|292:252,5,33.3333333333333
176,264,92809,2,0,L|232:248,5,33.3333333333333
128,308,93016,2,0,L|168:272,3,33.3333333333333
136,112,93223,6,0,P|172:92|201:97,3,50
154,61,93430,2,0,P|180:73|168:101,3,50
219,66,93636,2,0,P|193:74|174:105,3,50
216,120,93843,2,0,P|200:92|168:96,3,50
172,136,94050,2,0,L|178:94,1,40
312,91,94300,6,0,B|320:64|325:120|331:87,3,40
440,184,94800,5,0,0:0:0:0:
196,264,95050,1,0,0:0:0:0:
116,196,95731,2,0,P|95:149|108:115,1,80
200,80,96413,2,0,P|240:96|260:132,1,80
268,232,96868,1,0,0:0:0:0:
264,256,97322,1,0,0:0:0:0:
260,276,97777,1,0,0:0:0:0:
156,236,98230,2,0,P|112:236|112:192,1,80
108,120,98686,1,0,0:0:0:0:
192,152,99197,2,0,P|280:152|320:100,1,160
292,252,100504,6,0,L|252:236,3,40
224,216,100959,1,0,0:0:0:0:
196,192,101186,1,0,0:0:0:0:
176,160,101413,1,0,0:0:0:0:
168,124,101640,1,0,0:0:0:0:
180,92,101868,1,0,0:0:0:0:
288,44,102322,6,0,L|292:68,3,20
168,128,102550,2,0,L|172:152,3,20
272,128,102777,2,0,L|276:152,3,20
64,260,103004,2,0,L|68:284,3,20
16,72,103231,2,0,L|20:96,3,20
68,148,103459,2,0,L|72:172,3,20
304,32,103686,2,0,L|308:56,3,20
76,48,103913,2,0,L|80:72,3,20
168,128,104140,2,0,L|172:152,3,20
376,168,104368,2,0,L|380:192,3,20
79,67,104595,2,0,L|83:91,3,20
240,60,104822,2,0,L|244:84,3,20
232,180,105049,5,0,0:0:0:0:
