osu file format v14

[General]
AudioFilename: audio.mp3
AudioLeadIn: 0
PreviewTime: -1
Countdown: 1
SampleSet: Normal
StackLeniency: 0.2
Mode: 0
LetterboxInBreaks: 0
WidescreenStoryboard: 1

[Editor]
Bookmarks: 631,20525,30631,38525
DistanceSpacing: 0.7
BeatDivisor: 4
GridSize: 8
TimelineZoom: 2.1

[Metadata]
Title:Real
TitleUnicode:Real
Artist:Bumblefoot
ArtistUnicode:Bumblefoot
Creator:Remyria
Version:What is real?
Source:
Tags:
BeatmapID:2901001
BeatmapSetID:683911

[Difficulty]
HPDrainRate:5.5
CircleSize:4
OverallDifficulty:8
ApproachRate:9.3
SliderMultiplier:1.4
SliderTickRate:2

[Events]
//Background and Video events
0,0,"Sans titre.jpg",0,0
//Break Periods
//Storyboard Layer 0 (Background)
//Storyboard Layer 1 (Fail)
//Storyboard Layer 2 (Pass)
//Storyboard Layer 3 (Foreground)
//Storyboard Layer 4 (Overlay)
//Storyboard Sound Samples

[TimingPoints]
431,315.789473684211,4,1,0,50,1,0
52746,-100,4,1,0,5,0,0
52931,-100,4,1,0,50,0,0
63588,285.714285714286,4,1,0,50,1,0
68159,272.727272727273,4,1,0,50,1,0
72522,260.869565217391,4,1,0,50,1,0
76695,250,4,1,0,50,1,0
78695,240,4,1,0,50,1,0
82535,222.222222222222,4,1,0,50,1,0
84312,230.769230769231,4,1,0,50,1,0
86158,236.220472440945,4,1,0,50,1,0
87102,229.007633587786,4,1,0,50,1,0
88018,215.827338129496,4,1,0,50,1,0
91471,206.896551724138,4,1,0,50,1,0
93126,228.136882129278,4,1,0,50,1,0
94038,230.769230769231,4,1,0,50,1,0
99576,223.880597014925,4,1,0,50,1,0
104951,315.789473684211,4,1,0,50,1,0

[Colours]
Combo1 : 255,192,0
Combo2 : 255,128,0
Combo3 : 128,64,0
Combo4 : 242,24,57

[HitObjects]
288,72,431,5,0,0:3:0:0:
431,105,588,2,0,L|489:137,2,35,0|0|0,0:3|0:3|0:3,0:3:0:0:
244,124,904,1,0,0:3:0:0:
288,72,1062,1,0,0:0:0:0:
353,224,1220,2,0,L|387:281,2,35,0|0|0,0:3|0:3|0:3,0:3:0:0:
181,146,1536,1,0,0:3:0:0:
244,124,1694,1,0,0:0:0:0:
225,288,1852,2,0,L|225:355,2,35,0|0|0,0:3|0:3|0:3,0:3:0:0:
115,133,2167,1,0,0:3:0:0:
181,146,2325,1,0,0:0:0:0:
82,277,2483,2,0,L|48:336,2,35,0|0|0,0:3|0:3|0:3,0:3:0:0:
230,63,2798,5,0,0:0:0:0:
288,112,2956,1,0,0:0:0:0:
97,116,3114,1,0,0:0:0:0:
89,148,3193,1,0,0:0:0:0:
107,177,3272,1,0,0:0:0:0:
214,98,3430,1,0,0:0:0:0:
288,112,3588,1,0,0:0:0:0:
125,210,3746,1,0,0:0:0:0:
133,243,3825,1,0,0:0:0:0:
165,260,3904,1,0,0:0:0:0:
218,137,4061,1,0,0:0:0:0:
288,112,4219,1,0,0:0:0:0:
196,279,4377,1,0,0:0:0:0:
220,302,4456,1,0,0:0:0:0:
256,303,4535,1,0,0:0:0:0:
240,168,4693,1,0,0:0:0:0:
288,112,4851,1,0,0:0:0:0:
292,302,5009,1,0,0:0:0:0:
325,311,5088,1,0,0:0:0:0:
358,293,5167,1,0,0:0:0:0:
288,112,5325,1,0,0:0:0:0:
220,47,5483,6,0,L|273:47,2,35
288,349,5799,2,0,L|235:349,2,35
123,114,6115,2,0,L|160:77,2,35
385,280,6431,2,0,L|347:318,2,35
104,232,6746,2,0,L|104:179,2,35
405,165,7062,2,0,L|405:216,2,35
171,327,7378,2,0,L|134:291,2,35
337,67,7694,2,0,L|373:104,2,35
255,307,8009,5,0,0:0:0:0:
330,275,8167,1,0,0:0:0:0:
363,198,8325,1,0,0:0:0:0:
330,121,8483,1,0,0:0:0:0:
255,89,8641,1,0,0:0:0:0:
177,121,8799,1,0,0:0:0:0:
146,198,8957,1,0,0:0:0:0:
177,275,9115,1,0,0:0:0:0:
255,307,9273,1,0,0:0:0:0:
271,114,9720,5,0,0:3:0:0:
255,131,9799,1,0,0:3:0:0:
271,147,9878,1,0,0:3:0:0:
255,165,9957,1,0,0:3:0:0:
271,181,10036,1,0,0:3:0:0:
255,198,10115,1,0,0:3:0:0:
271,214,10194,1,0,0:3:0:0:
255,232,10273,1,0,0:3:0:0:
271,248,10352,1,0,0:3:0:0:
255,265,10431,1,0,0:3:0:0:
271,281,10509,5,0,0:3:0:0:
363,365,10694,2,0,L|422:365,2,35
255,248,11009,1,0,0:3:0:0:
204,298,11167,1,0,0:0:0:0:
425,227,11325,2,0,L|474:197,2,35
222,230,11641,1,0,0:3:0:0:
204,298,11799,1,0,0:0:0:0:
359,125,11957,2,0,L|388:73,2,35
184,230,12273,1,0,0:3:0:0:
204,298,12431,1,0,0:0:0:0:
251,70,12588,2,0,L|251:12,2,35
288,240,12904,5,0,0:0:0:0:
350,265,13062,1,0,0:3:0:0:
290,109,13220,1,0,0:0:0:0:
269,83,13299,1,0,0:0:0:0:
235,71,13378,1,0,0:0:0:0:
288,240,13536,1,0,0:0:0:0:
356,242,13693,1,0,0:0:0:0:
224,125,13851,1,0,0:0:0:0:
192,115,13930,1,0,0:0:0:0:
157,120,14009,1,0,0:0:0:0:
288,240,14167,1,0,0:0:0:0:
347,208,14325,1,0,0:0:0:0:
173,174,14483,1,0,0:0:0:0:
143,180,14562,1,0,0:0:0:0:
115,203,14641,1,0,0:0:0:0:
288,240,14799,1,0,0:0:0:0:
324,184,14957,1,0,0:0:0:0:
155,239,15114,1,0,0:0:0:0:
134,261,15193,1,0,0:0:0:0:
119,295,15272,1,0,0:0:0:0:
288,240,15430,1,0,0:0:0:0:
360,304,15588,6,0,L|387:278,2,35
152,87,15904,2,0,L|125:112,2,35
407,198,16220,2,0,L|407:163,2,35
106,193,16536,2,0,L|105:229,2,35
364,91,16851,2,0,L|339:65,2,35
148,300,17167,2,0,L|173:325,2,35
259,43,17483,2,0,L|222:43,2,35
253,347,17799,2,0,L|290:347,2,35
128,256,18115,5,0,0:0:0:0:
111,226,18194,1,0,0:0:0:0:
120,192,18273,1,0,0:0:0:0:
120,159,18352,1,0,0:0:0:0:
146,132,18431,1,0,0:0:0:0:
162,104,18510,1,0,0:0:0:0:
196,95,18588,1,0,0:0:0:0:
226,78,18667,1,0,0:0:0:0:
254,47,18746,1,0,0:0:0:0:
280,78,18825,1,0,0:0:0:0:
310,95,18904,1,0,0:0:0:0:
343,104,18982,1,0,0:0:0:0:
361,132,19061,1,0,0:0:0:0:
387,159,19140,1,0,0:0:0:0:
387,192,19219,1,0,0:0:0:0:
396,226,19298,1,0,0:0:0:0:
378,256,19377,1,0,0:0:0:0:
256,336,20325,6,0,L|256:190,1,140
423,224,20957,1,0,0:0:0:0:
423,224,21115,1,0,0:0:0:0:
88,157,21431,1,0,0:0:0:0:
88,157,21588,1,0,0:0:0:0:
256,190,21904,1,0,0:0:0:0:
330,307,22220,1,0,0:0:0:0:
256,336,22378,1,0,0:0:0:0:
180,73,22694,1,0,0:0:0:0:
256,44,22852,6,0,L|256:190,1,140
408,266,23483,1,0,0:0:0:0:
408,266,23641,1,0,0:0:0:0:
102,114,23957,1,0,0:0:0:0:
102,114,24115,1,0,0:0:0:0:
256,190,24431,1,0,0:0:0:0:
289,31,24746,1,0,0:0:0:0:
330,97,24904,1,0,0:0:0:0:
221,349,25220,1,0,0:0:0:0:
181,277,25378,6,0,L|196:131,1,140
314,131,26009,1,0,0:0:0:0:
314,247,26325,1,0,0:0:0:0:
196,248,26641,1,0,0:0:0:0:
256,73,26957,1,0,0:0:0:0:
372,190,27273,1,0,0:0:0:0:
256,307,27588,1,0,0:0:0:0:
138,190,27904,1,0,0:0:0:0:
256,73,28220,1,0,0:0:0:0:
314,131,28378,1,0,0:0:0:0:
372,190,28536,1,0,0:0:0:0:
314,248,28694,1,0,0:0:0:0:
256,307,28852,1,0,0:0:0:0:
196,248,29009,1,0,0:0:0:0:
138,190,29167,1,0,0:0:0:0:
196,131,29325,1,0,0:0:0:0:
256,73,29483,1,0,0:0:0:0:
257,342,30431,6,0,L|257:196,1,140
110,50,31062,1,0,0:0:0:0:
110,50,31220,1,0,0:0:0:0:
403,50,31536,1,0,0:0:0:0:
403,50,31694,1,0,0:0:0:0:
257,196,32009,1,0,0:0:0:0:
110,342,32325,1,0,0:0:0:0:
110,342,32483,1,0,0:0:0:0:
403,342,32799,1,0,0:0:0:0:
403,342,32957,6,0,L|403:196,1,140
47,163,33588,1,0,0:0:0:0:
97,221,33746,1,0,0:0:0:0:
466,230,34062,1,0,0:0:0:0:
415,170,34220,1,0,0:0:0:0:
273,212,34536,1,0,0:0:0:0:
97,329,34852,1,0,0:0:0:0:
159,278,35009,1,0,0:0:0:0:
415,62,35325,1,0,0:0:0:0:
352,112,35483,6,0,L|315:254,1,140
197,254,36115,1,0,0:0:0:0:
197,137,36431,1,0,0:0:0:0:
315,137,36746,1,0,0:0:0:0:
257,363,37062,1,0,0:0:0:0:
89,196,37378,1,0,0:3:0:0:
257,28,37694,1,0,0:0:0:0:
424,196,38009,1,0,0:3:0:0:
256,344,38325,5,0,0:0:0:0:
235,296,38404,1,0,0:0:0:0:
198,250,38483,1,0,0:0:0:0:
148,221,38562,1,0,0:0:0:0:
104,192,38641,1,0,0:3:0:0:
148,165,38720,1,0,0:0:0:0:
198,137,38799,1,0,0:0:0:0:
235,90,38878,1,0,0:0:0:0:
256,40,38957,1,0,0:0:0:0:
274,90,39036,1,0,0:0:0:0:
311,137,39115,1,0,0:0:0:0:
362,165,39194,1,0,0:0:0:0:
408,192,39273,1,0,0:3:0:0:
362,221,39352,1,0,0:0:0:0:
311,250,39431,1,0,0:0:0:0:
274,296,39509,1,0,0:0:0:0:
256,352,39588,5,0,0:0:0:0:
96,192,39904,1,0,0:0:0:0:
256,33,40220,1,0,0:0:0:0:
413,192,40536,1,0,0:0:0:0:
256,192,40852,5,0,0:0:0:0:
154,24,41167,1,0,0:0:0:0:
79,159,41325,1,0,0:0:0:0:
356,24,41641,1,0,0:0:0:0:
431,159,41799,1,0,0:0:0:0:
256,192,42115,1,0,0:0:0:0:
431,351,42431,1,0,0:0:0:0:
431,351,42588,1,0,0:0:0:0:
79,351,42904,1,0,0:0:0:0:
79,351,43061,1,0,0:0:0:0:
256,192,43378,5,0,0:0:0:0:
473,41,43694,1,0,0:0:0:0:
414,175,43852,1,0,0:0:0:0:
38,41,44167,1,0,0:0:0:0:
96,175,44325,1,0,0:0:0:0:
256,292,44641,1,0,0:0:0:0:
481,192,44957,1,0,0:0:0:0:
481,192,45115,1,0,0:0:0:0:
29,192,45431,1,0,0:0:0:0:
29,192,45588,1,0,0:0:0:0:
256,33,45904,5,0,0:0:0:0:
456,234,46220,1,0,0:0:0:0:
398,351,46378,1,0,0:0:0:0:
54,234,46694,1,0,0:0:0:0:
113,351,46852,1,0,0:0:0:0:
256,205,47167,2,0,L|256:351,1,140
256,351,47641,1,0,0:0:0:0:
256,58,47957,1,0,0:0:0:0:
256,58,48115,1,0,0:0:0:0:
339,275,48431,1,0,0:0:0:0:
172,275,48746,1,0,0:0:0:0:
172,108,49062,1,0,0:0:0:0:
339,108,49377,1,0,0:0:0:0:
256,359,49694,1,0,0:0:0:0:
88,192,50009,1,0,0:0:0:0:
256,24,50325,1,0,0:0:0:0:
423,192,50640,1,0,0:0:0:0:
256,192,50957,12,0,52746,0:0:0:0:
256,208,52931,6,0,L|256:159,3,35
256,41,53483,5,0,0:0:0:0:
456,192,53799,1,0,0:0:0:0:
389,368,53957,1,0,0:0:0:0:
54,192,54273,1,0,0:0:0:0:
121,368,54431,1,0,0:0:0:0:
256,141,54746,1,0,0:0:0:0:
473,317,55062,1,0,0:0:0:0:
398,141,55220,1,0,0:0:0:0:
38,317,55536,1,0,0:0:0:0:
113,141,55694,6,0,L|256:99,1,140
481,234,56325,1,0,0:0:0:0:
481,234,56483,1,0,0:0:0:0:
29,234,56799,1,0,0:0:0:0:
29,234,56957,1,0,0:0:0:0:
256,66,57273,1,0,0:0:0:0:
29,268,57588,1,0,0:0:0:0:
29,268,57746,1,0,0:0:0:0:
481,268,58062,1,0,0:0:0:0:
481,268,58220,1,0,0:0:0:0:
256,108,58536,5,0,0:0:0:0:
172,192,58852,1,0,0:0:0:0:
256,275,59167,1,0,0:0:0:0:
339,192,59483,1,0,0:0:0:0:
138,75,59799,1,0,0:0:0:0:
138,309,60115,1,0,0:0:0:0:
372,309,60431,1,0,0:0:0:0:
372,75,60747,1,0,0:0:0:0:
196,132,61062,5,0,0:0:0:0:
89,192,61220,1,0,0:0:0:0:
196,250,61378,1,0,0:0:0:0:
254,356,61536,1,0,0:0:0:0:
314,250,61694,1,0,0:0:0:0:
421,192,61852,1,0,0:0:0:0:
314,132,62009,1,0,0:0:0:0:
256,26,62167,1,0,0:0:0:0:
256,192,62641,1,0,0:0:0:0:
256,192,62957,1,0,0:0:0:0:
256,338,63273,6,0,L|256:192,1,140
397,248,63730,2,0,L|447:232,2,35
271,123,64016,1,0,0:0:0:0:
255,198,64159,1,0,0:0:0:0:
402,169,64302,2,0,L|437:130,2,35
230,124,64588,1,0,0:0:0:0:
255,198,64731,1,0,0:0:0:0:
368,100,64873,2,0,L|378:47,2,35
196,146,65159,1,0,0:0:0:0:
255,198,65302,1,0,0:0:0:0:
304,56,65445,2,0,L|288:4,2,35
255,198,65731,5,0,0:0:0:0:
179,181,65874,1,0,0:0:0:0:
304,331,66016,1,0,0:0:0:0:
338,349,66088,1,0,0:0:0:0:
371,349,66159,1,0,0:0:0:0:
255,198,66302,1,0,0:0:0:0:
185,233,66445,1,0,0:0:0:0:
378,268,66587,1,0,0:0:0:0:
414,258,66659,1,0,0:0:0:0:
440,238,66730,1,0,0:0:0:0:
255,198,66873,1,0,0:0:0:0:
224,270,67016,1,0,0:0:0:0:
394,170,67158,1,0,0:0:0:0:
417,141,67230,1,0,0:0:0:0:
423,107,67301,1,0,0:0:0:0:
255,198,67445,1,0,0:0:0:0:
278,272,67588,1,0,0:0:0:0:
344,87,67730,1,0,0:0:0:0:
342,50,67802,1,0,0:0:0:0:
325,21,67873,1,0,0:0:0:0:
224,270,68016,1,0,0:0:0:0:
136,128,68159,6,0,L|151:95,2,35
380,261,68431,2,0,L|368:295,2,35
125,233,68704,2,0,L|111:200,2,35
393,156,68976,2,0,L|407:189,2,35
192,316,69249,2,0,L|158:304,2,35
326,72,69522,2,0,L|360:86,2,35
298,327,69795,2,0,L|264:342,2,35
220,61,70068,2,0,L|253:47,2,35
392,240,70340,5,0,0:0:0:0:
391,130,70477,1,0,0:0:0:0:
311,53,70613,1,0,0:0:0:0:
201,54,70749,1,0,0:0:0:0:
124,133,70885,1,0,0:0:0:0:
125,243,71022,1,0,0:0:0:0:
203,319,71158,1,0,0:0:0:0:
314,318,71295,1,0,0:0:0:0:
392,240,71431,1,0,0:0:0:0:
388,98,71818,5,0,0:0:0:0:
363,98,71887,1,0,0:0:0:0:
338,98,71955,1,0,0:0:0:0:
313,98,72023,1,0,0:0:0:0:
288,98,72091,1,0,0:0:0:0:
262,98,72159,1,0,0:0:0:0:
239,98,72227,1,0,0:0:0:0:
213,98,72296,1,0,0:0:0:0:
187,98,72364,1,0,0:0:0:0:
162,98,72432,1,0,0:0:0:0:
137,98,72522,2,0,L|95:64,2,35
120,123,72804,2,0,L|95:207,3,70
120,232,73304,6,0,L|146:256,3,35
162,265,73565,1,0,0:0:0:0:
175,270,73630,1,0,0:0:0:0:
188,272,73695,1,0,0:0:0:0:
202,270,73761,1,0,0:0:0:0:
217,265,73826,1,0,0:0:0:0:
229,257,73891,1,0,0:0:0:0:
242,248,73956,1,0,0:0:0:0:
251,236,74022,1,0,0:0:0:0:
259,224,74087,1,0,0:0:0:0:
262,211,74152,1,0,0:0:0:0:
264,198,74217,1,0,0:0:0:0:
264,185,74282,1,0,0:0:0:0:
259,171,74348,1,0,0:0:0:0:
251,161,74413,1,0,0:0:0:0:
240,151,74478,1,0,0:0:0:0:
227,147,74543,1,0,0:0:0:0:
214,143,74608,5,0,0:0:0:0:
137,131,74739,2,0,L|78:131,2,35
232,240,75000,2,0,L|232:280,1,23.3333333333333
272,224,75130,2,0,L|300:252,1,23.3333333333333
296,184,75261,2,0,L|336:183,1,23.3333333333333
297,93,75522,2,0,L|331:72,1,23.3333333333333
262,66,75652,2,0,L|272:27,1,23.3333333333333
217,65,75783,2,0,L|196:30,1,23.3333333333333
136,112,76043,2,0,L|101:91,1,23.3333333333333
130,155,76173,2,0,L|91:165,1,23.3333333333333
151,195,76304,2,0,L|131:229,1,23.3333333333333
232,184,76565,5,0,0:0:0:0:
248,208,76630,1,0,0:0:0:0:
255,240,76695,2,0,L|304:232,3,35
322,223,76945,2,0,L|339:175,3,35
338,156,77195,2,0,L|305:116,3,35
289,105,77445,2,0,L|239:113,3,35
220,72,77695,2,0,L|171:80,3,35
129,89,77945,2,0,L|110:136,3,35
104,181,78195,2,0,L|135:219,3,35
163,252,78445,2,0,L|216:256,3,35
243,284,78695,5,0,0:0:0:0:
264,273,78755,1,0,0:0:0:0:
282,258,78815,1,0,0:0:0:0:
295,236,78875,1,0,0:0:0:0:
303,213,78935,1,0,0:0:0:0:
304,188,78995,1,0,0:0:0:0:
297,164,79055,1,0,0:0:0:0:
282,143,79115,1,0,0:0:0:0:
262,128,79175,1,0,0:0:0:0:
237,141,79235,1,0,0:0:0:0:
212,145,79295,1,0,0:0:0:0:
187,142,79355,1,0,0:0:0:0:
164,133,79415,1,0,0:0:0:0:
144,118,79475,1,0,0:0:0:0:
131,97,79535,1,0,0:0:0:0:
124,73,79595,1,0,0:0:0:0:
124,48,79655,1,0,0:0:0:0:
205,61,80135,5,0,0:0:0:0:
205,61,80375,1,0,0:0:0:0:
254,130,80615,5,0,0:0:0:0:
296,113,80735,1,0,0:0:0:0:
338,130,80855,1,0,0:0:0:0:
355,171,80975,1,0,0:0:0:0:
338,214,81095,1,0,0:0:0:0:
355,256,81215,1,0,0:0:0:0:
398,274,81335,1,0,0:0:0:0:
423,308,81455,1,0,0:0:0:0:
414,350,81575,1,0,0:0:0:0:
380,375,81695,1,0,0:0:0:0:
338,366,81815,1,0,0:0:0:0:
322,324,81935,1,0,0:0:0:0:
288,298,82055,1,0,0:0:0:0:
245,308,82175,1,0,0:0:0:0:
219,341,82295,1,0,0:0:0:0:
178,341,82415,1,0,0:0:0:0:
145,308,82535,5,0,0:0:0:0:
145,248,82646,1,0,0:0:0:0:
110,198,82757,1,0,0:0:0:0:
51,180,82868,1,0,0:0:0:0:
17,130,82979,1,0,0:0:0:0:
35,70,83090,1,0,0:0:0:0:
85,45,83201,1,0,0:0:0:0:
145,62,83312,1,0,0:0:0:0:
170,113,83423,1,0,0:0:0:0:
228,130,83535,1,0,0:0:0:0:
280,97,83646,1,0,0:0:0:0:
288,37,83757,1,0,0:0:0:0:
338,3,83868,1,0,0:0:0:0:
398,12,83979,1,0,0:0:0:0:
431,54,84090,1,0,0:0:0:0:
431,113,84201,1,0,0:0:0:0:
389,155,84312,6,0,L|389:223,2,35
340,295,84542,2,0,L|340:259,2,35
288,155,84773,2,0,L|288:223,2,35
240,295,85003,2,0,L|240:259,2,35
186,155,85235,2,0,L|186:223,2,35
137,295,85465,2,0,L|137:259,2,35
85,155,85696,2,0,L|85:223,2,35
37,295,85926,2,0,L|37:259,2,35
0,156,86158,5,0,0:0:0:0:
0,135,86217,1,0,0:0:0:0:
9,114,86276,1,0,0:0:0:0:
25,97,86335,1,0,0:0:0:0:
47,88,86394,1,0,0:0:0:0:
67,88,86453,1,0,0:0:0:0:
89,97,86512,1,0,0:0:0:0:
105,114,86571,1,0,0:0:0:0:
119,135,86630,1,0,0:0:0:0:
139,147,86689,1,0,0:0:0:0:
161,151,86748,1,0,0:0:0:0:
182,147,86807,1,0,0:0:0:0:
203,135,86866,1,0,0:0:0:0:
215,118,86925,1,0,0:0:0:0:
220,97,86984,1,0,0:0:0:0:
215,75,87043,1,0,0:0:0:0:
203,59,87102,1,0,0:0:0:0:
80,36,87331,5,0,0:0:0:0:
70,56,87388,1,0,0:0:0:0:
66,78,87445,1,0,0:0:0:0:
66,99,87502,1,0,0:0:0:0:
74,121,87560,1,0,0:0:0:0:
87,137,87617,1,0,0:0:0:0:
105,152,87674,1,0,0:0:0:0:
127,159,87731,1,0,0:0:0:0:
148,164,87789,1,0,0:0:0:0:
170,159,87846,1,0,0:0:0:0:
192,152,87903,1,0,0:0:0:0:
209,137,87960,1,0,0:0:0:0:
217,119,88018,6,0,L|217:56,11,35
216,62,88665,1,0,0:0:0:0:
236,56,88719,1,0,0:0:0:0:
256,51,88773,1,0,0:0:0:0:
276,46,88827,1,0,0:0:0:0:
296,41,88881,6,0,L|345:41,11,35
351,43,89528,1,0,0:0:0:0:
357,63,89582,1,0,0:0:0:0:
362,83,89636,1,0,0:0:0:0:
367,103,89690,1,0,0:0:0:0:
372,123,89744,6,0,L|372:172,11,35
370,179,90392,1,0,0:0:0:0:
350,185,90446,1,0,0:0:0:0:
330,190,90500,1,0,0:0:0:0:
310,195,90554,1,0,0:0:0:0:
290,200,90608,6,0,L|241:200,11,35
222,168,91336,5,0,0:0:0:0:
193,138,91471,6,0,L|142:138,2,35
315,242,91677,2,0,L|372:242,2,35
248,111,91884,2,0,L|209:71,2,35
260,269,92091,2,0,L|300:309,2,35
306,130,92298,2,0,L|306:73,2,35
204,251,92505,2,0,L|204:308,2,35
333,184,92712,2,0,L|373:143,2,35
175,196,92919,2,0,L|136:236,2,35
311,239,93126,5,0,0:0:0:0:
290,255,93183,1,0,0:0:0:0:
260,264,93240,1,0,0:0:0:0:
232,261,93297,1,0,0:0:0:0:
207,247,93354,1,0,0:0:0:0:
189,226,93411,1,0,0:0:0:0:
180,196,93468,1,0,0:0:0:0:
184,168,93525,1,0,0:0:0:0:
197,141,93582,1,0,0:0:0:0:
219,124,93639,1,0,0:0:0:0:
248,116,93696,1,0,0:0:0:0:
278,120,93753,1,0,0:0:0:0:
303,134,93810,1,0,0:0:0:0:
322,156,93867,1,0,0:0:0:0:
328,184,93924,1,0,0:0:0:0:
326,211,93981,1,0,0:0:0:0:
311,239,94038,1,0,0:0:0:0:
93,309,94211,2,0,L|34:295,3,52.5
256,136,94730,5,0,0:0:0:0:
423,136,94961,2,0,B|423:211|423:211|481:278|423:337|423:337|347:337,1,280
256,229,95653,1,0,0:0:0:0:
151,337,95884,2,0,B|89:337|89:337|31:278|89:211|89:211|89:136,1,280
256,44,96576,1,0,0:0:0:0:
347,202,96807,2,0,B|347:237|347:237|256:328|163:237|163:237|163:189,2,280
221,44,97961,5,0,0:0:0:0:
256,44,98076,1,0,0:0:0:0:
289,44,98191,1,0,0:0:0:0:
256,195,98422,1,0,0:0:0:0:
406,145,98653,2,0,B|406:195|406:195|372:195|372:195|372:253|330:278|330:278|323:304|323:304|256:346|188:304|188:304|180:278|180:278|147:253|147:195|147:195|113:195|113:195|113:128,1,560
256,192,99631,12,0,100359,0:0:0:0:
256,195,100471,5,0,0:0:0:0:
256,195,100583,1,0,0:0:0:0:
256,195,100695,1,0,0:0:0:0:
256,195,100807,1,0,0:0:0:0:
256,195,100919,1,0,0:0:0:0:
256,111,101143,1,0,0:0:0:0:
339,195,101367,1,0,0:0:0:0:
256,278,101590,1,0,0:0:0:0:
172,195,101814,1,0,0:0:0:0:
312,256,102262,5,0,0:0:0:0:
312,240,102318,1,0,0:0:0:0:
312,224,102374,1,0,0:0:0:0:
312,208,102430,1,0,0:0:0:0:
312,192,102486,1,0,0:0:0:0:
312,176,102542,1,0,0:0:0:0:
312,160,102598,1,0,0:0:0:0:
312,144,102654,1,0,0:0:0:0:
312,128,102710,2,0,L|312:79,7,35
283,111,103158,5,0,0:0:0:0:
269,119,103214,1,0,0:0:0:0:
255,127,103270,1,0,0:0:0:0:
241,135,103326,1,0,0:0:0:0:
228,143,103382,1,0,0:0:0:0:
214,151,103438,1,0,0:0:0:0:
200,159,103494,1,0,0:0:0:0:
186,167,103550,1,0,0:0:0:0:
172,175,103606,2,0,L|130:200,7,35
172,208,104053,5,0,0:0:0:0:
186,216,104109,1,0,0:0:0:0:
200,224,104165,1,0,0:0:0:0:
214,232,104221,1,0,0:0:0:0:
228,240,104277,1,0,0:0:0:0:
241,248,104333,1,0,0:0:0:0:
255,256,104389,1,0,0:0:0:0:
269,264,104445,1,0,0:0:0:0:
283,272,104501,2,0,L|325:296,7,35
352,312,104951,5,0,0:0:0:0:
256,27,105266,1,0,0:0:0:0:
256,27,105424,1,0,0:0:0:0:
423,195,105740,1,0,0:0:0:0:
423,195,105898,1,0,0:0:0:0:
256,195,106214,1,0,0:0:0:0:
256,362,106529,1,0,0:0:0:0:
256,362,106687,1,0,0:0:0:0:
88,195,107003,1,0,0:0:0:0:
88,195,107161,1,0,0:0:0:0:
256,195,107477,5,0,0:0:0:0:
423,27,107793,1,0,0:0:0:0:
423,27,107951,1,0,0:0:0:0:
423,362,108266,1,0,0:0:0:0:
423,362,108424,1,0,0:0:0:0:
256,195,108740,1,0,0:0:0:0:
88,362,109056,1,0,0:0:0:0:
88,362,109214,1,0,0:0:0:0:
88,27,109529,1,0,0:0:0:0:
88,27,109687,1,0,0:0:0:0:
256,128,110003,5,0,0:0:0:0:
323,195,110319,1,0,0:0:0:0:
256,262,110635,1,0,0:0:0:0:
188,195,110951,1,0,0:0:0:0:
256,53,111266,1,0,0:0:0:0:
398,195,111582,1,0,0:0:0:0:
256,337,111899,1,0,0:0:0:0:
113,195,112214,1,0,0:0:0:0:
314,136,112529,5,0,0:0:0:0:
380,102,112687,1,0,0:0:0:0:
196,136,112845,1,0,0:0:0:0:
163,69,113003,1,0,0:0:0:0:
196,253,113161,1,0,0:0:0:0:
130,287,113319,1,0,0:0:0:0:
314,253,113477,1,0,0:0:0:0:
347,320,113635,1,0,0:0:0:0:
256,195,113793,5,0,0:0:0:0:
256,195,114108,5,0,0:0:0:0:
256,195,114424,5,0,0:0:0:0:
