osu file format v14

[General]
AudioFilename: audio.mp3
AudioLeadIn: 0
PreviewTime: 17150
Countdown: 0
SampleSet: Soft
StackLeniency: 0.7
Mode: 1
LetterboxInBreaks: 0
WidescreenStoryboard: 1

[Editor]
DistanceSpacing: 1.9
BeatDivisor: 8
GridSize: 32
TimelineZoom: 2.499999

[Metadata]
Title:Blue Pedro (TV Size)
TitleUnicode:Blue Pedro (TV Size)
Artist:Bullion
ArtistUnicode:Bullion
Creator:Oui
Version:Blue Inner Oni
Source:
Tags:gros son samer les marins pecheurs wallah bateau
BeatmapID:2147651
BeatmapSetID:1026944

[Difficulty]
HPDrainRate:5
CircleSize:2
OverallDifficulty:6
ApproachRate:10
SliderMultiplier:1.4
SliderTickRate:1

[Events]
//Background and Video events
0,0,"bleupierrebg.png",0,0
//Break Periods
//Storyboard Layer 0 (Background)
//Storyboard Layer 1 (Fail)
//Storyboard Layer 2 (Pass)
//Storyboard Layer 3 (Foreground)
//Storyboard Layer 4 (Overlay)
//Storyboard Sound Samples

[TimingPoints]
8,535.714285714286,4,2,0,100,1,0
34293,-50,4,2,0,100,0,1
42865,-50,4,2,0,100,0,0
43133,-100,4,2,0,100,0,0

[HitObjects]
256,192,8,5,0,0:0:0:0:
256,192,275,1,0,0:0:0:0:
256,192,409,1,0,0:0:0:0:
256,192,543,1,8,0:0:0:0:
256,192,811,1,0,0:0:0:0:
256,192,945,1,8,0:0:0:0:
256,192,1079,1,8,0:0:0:0:
256,192,1347,1,0,0:0:0:0:
256,192,1481,1,8,0:0:0:0:
256,192,1615,1,0,0:0:0:0:
256,192,1749,1,0,0:0:0:0:
256,192,1883,1,8,0:0:0:0:
256,192,2016,1,8,0:0:0:0:
256,192,2150,1,0,0:0:0:0:
256,192,2417,1,0,0:0:0:0:
256,192,2551,1,0,0:0:0:0:
256,192,2685,1,8,0:0:0:0:
256,192,2953,1,0,0:0:0:0:
256,192,3087,1,8,0:0:0:0:
256,192,3221,1,8,0:0:0:0:
256,192,3489,1,0,0:0:0:0:
256,192,3623,1,8,0:0:0:0:
256,192,3757,1,0,0:0:0:0:
256,192,3891,1,0,0:0:0:0:
256,192,4025,1,8,0:0:0:0:
256,192,4158,1,8,0:0:0:0:
256,192,4293,1,0,0:0:0:0:
256,192,4560,1,0,0:0:0:0:
256,192,4694,1,0,0:0:0:0:
256,192,4828,1,8,0:0:0:0:
256,192,5096,1,0,0:0:0:0:
256,192,5230,1,8,0:0:0:0:
256,192,5364,1,8,0:0:0:0:
256,192,5632,1,0,0:0:0:0:
256,192,5766,1,8,0:0:0:0:
256,192,5900,1,0,0:0:0:0:
256,192,6034,1,0,0:0:0:0:
256,192,6168,1,8,0:0:0:0:
256,192,6301,1,8,0:0:0:0:
256,192,6436,1,0,0:0:0:0:
256,192,6703,1,0,0:0:0:0:
256,192,6837,1,0,0:0:0:0:
256,192,6971,1,8,0:0:0:0:
256,192,7239,1,0,0:0:0:0:
256,192,7373,1,8,0:0:0:0:
256,192,7507,1,8,0:0:0:0:
256,192,7775,1,0,0:0:0:0:
256,192,7909,1,8,0:0:0:0:
256,192,8043,1,0,0:0:0:0:
256,192,8177,1,0,0:0:0:0:
256,192,8311,1,8,0:0:0:0:
256,192,8444,1,8,0:0:0:0:
256,192,8579,1,0,0:0:0:0:
256,192,8846,1,0,0:0:0:0:
256,192,8980,1,0,0:0:0:0:
256,192,9048,1,0,0:0:0:0:
256,192,9114,1,8,0:0:0:0:
256,192,9382,1,0,0:0:0:0:
256,192,9516,1,8,0:0:0:0:
256,192,9583,1,0,0:0:0:0:
256,192,9650,1,8,0:0:0:0:
256,192,9918,1,0,0:0:0:0:
256,192,10052,1,8,0:0:0:0:
256,192,10119,1,8,0:0:0:0:
256,192,10186,1,0,0:0:0:0:
256,192,10320,1,0,0:0:0:0:
256,192,10454,1,8,0:0:0:0:
256,192,10587,1,0,0:0:0:0:
256,192,10722,1,8,0:0:0:0:
256,192,10990,1,0,0:0:0:0:
256,192,11124,1,8,0:0:0:0:
256,192,11258,1,0,0:0:0:0:
256,192,11391,1,0,0:0:0:0:
256,192,11458,1,0,0:0:0:0:
256,192,11525,1,8,0:0:0:0:
256,192,11659,1,0,0:0:0:0:
256,192,11793,1,8,0:0:0:0:
256,192,12061,1,8,0:0:0:0:
256,192,12195,1,8,0:0:0:0:
256,192,12329,1,0,0:0:0:0:
256,192,12463,1,0,0:0:0:0:
256,192,12530,1,0,0:0:0:0:
256,192,12597,1,8,0:0:0:0:
256,192,12731,1,0,0:0:0:0:
256,192,12999,1,0,0:0:0:0:
256,192,13066,1,0,0:0:0:0:
256,192,13133,1,8,0:0:0:0:
256,192,13266,1,0,0:0:0:0:
256,192,13400,1,8,0:0:0:0:
256,192,13668,1,0,0:0:0:0:
256,192,13802,1,8,0:0:0:0:
256,192,13869,1,0,0:0:0:0:
256,192,13936,1,0,0:0:0:0:
256,192,14204,1,8,0:0:0:0:
256,192,14338,1,8,0:0:0:0:
256,192,14472,1,0,0:0:0:0:
256,192,14606,1,8,0:0:0:0:
256,192,14740,1,8,0:0:0:0:
256,192,14807,1,8,0:0:0:0:
256,192,14874,1,0,0:0:0:0:
256,192,14941,1,0,0:0:0:0:
256,192,15008,1,8,0:0:0:0:
256,192,15141,1,8,0:0:0:0:
256,192,15275,1,0,0:0:0:0:
256,192,15409,1,0,0:0:0:0:
256,192,15543,1,8,0:0:0:0:
256,192,15677,1,8,0:0:0:0:
256,192,15811,1,0,0:0:0:0:
256,192,15945,1,8,0:0:0:0:
256,192,16079,1,8,0:0:0:0:
256,192,16347,1,0,0:0:0:0:
256,192,16615,1,0,0:0:0:0:
256,192,16749,1,8,0:0:0:0:
256,192,16883,1,0,0:0:0:0:
256,192,17016,1,0,0:0:0:0:
256,192,17150,1,0,0:0:0:0:
256,192,17417,1,0,0:0:0:0:
256,192,17551,1,0,0:0:0:0:
256,192,17619,1,0,0:0:0:0:
256,192,17685,1,8,0:0:0:0:
256,192,17820,1,0,0:0:0:0:
256,192,17953,1,0,0:0:0:0:
256,192,18087,1,8,0:0:0:0:
256,192,18154,1,0,0:0:0:0:
256,192,18221,1,8,0:0:0:0:
256,192,18356,1,0,0:0:0:0:
256,192,18489,1,0,0:0:0:0:
256,192,18623,1,8,0:0:0:0:
256,192,18690,1,8,0:0:0:0:
256,192,18757,1,0,0:0:0:0:
256,192,18891,1,0,0:0:0:0:
256,192,19025,1,8,0:0:0:0:
256,192,19158,1,0,0:0:0:0:
256,192,19293,1,8,0:0:0:0:
256,192,19360,1,8,0:0:0:0:
256,192,19427,1,0,0:0:0:0:
256,192,19494,1,0,0:0:0:0:
256,192,19561,1,8,0:0:0:0:
256,192,19695,1,8,0:0:0:0:
256,192,19829,1,0,0:0:0:0:
256,192,19962,1,0,0:0:0:0:
256,192,20029,1,0,0:0:0:0:
256,192,20096,1,8,0:0:0:0:
256,192,20230,1,0,0:0:0:0:
256,192,20364,1,8,0:0:0:0:
256,192,20632,1,8,0:0:0:0:
256,192,20766,1,8,0:0:0:0:
256,192,20900,1,0,0:0:0:0:
256,192,21034,1,0,0:0:0:0:
256,192,21101,1,0,0:0:0:0:
256,192,21168,1,8,0:0:0:0:
256,192,21302,1,0,0:0:0:0:
256,192,21570,1,0,0:0:0:0:
256,192,21637,1,0,0:0:0:0:
256,192,21704,1,8,0:0:0:0:
256,192,21837,1,0,0:0:0:0:
256,192,21971,1,8,0:0:0:0:
256,192,22106,1,8,0:0:0:0:
256,192,22239,1,0,0:0:0:0:
256,192,22373,1,8,0:0:0:0:
256,192,22440,1,0,0:0:0:0:
256,192,22507,1,0,0:0:0:0:
256,192,22775,1,8,0:0:0:0:
256,192,22909,1,8,0:0:0:0:
256,192,23043,1,0,0:0:0:0:
256,192,23177,1,8,0:0:0:0:
256,192,23311,1,8,0:0:0:0:
256,192,23378,1,8,0:0:0:0:
256,192,23445,1,0,0:0:0:0:
256,192,23512,1,0,0:0:0:0:
256,192,23579,1,8,0:0:0:0:
256,192,23712,1,8,0:0:0:0:
256,192,23846,1,0,0:0:0:0:
256,192,23980,1,0,0:0:0:0:
256,192,24114,1,8,0:0:0:0:
256,192,24248,1,8,0:0:0:0:
256,192,24382,1,0,0:0:0:0:
256,192,24516,1,8,0:0:0:0:
256,192,24650,1,8,0:0:0:0:
256,192,24918,1,0,0:0:0:0:
256,192,25186,1,0,0:0:0:0:
256,192,25320,1,8,0:0:0:0:
256,192,25454,1,4,0:0:0:0:
256,192,25587,1,0,0:0:0:0:
256,192,25722,5,8,0:0:0:0:
256,192,25856,1,0,0:0:0:0:
256,192,25923,1,0,0:0:0:0:
256,192,25990,1,8,0:0:0:0:
256,192,26124,1,8,0:0:0:0:
256,192,26258,1,8,0:0:0:0:
256,192,26325,1,0,0:0:0:0:
256,192,26392,1,0,0:0:0:0:
256,192,26526,1,0,0:0:0:0:
256,192,26593,1,0,0:0:0:0:
256,192,26660,1,8,0:0:0:0:
256,192,26794,1,0,0:0:0:0:
256,192,26928,1,0,0:0:0:0:
256,192,26995,1,0,0:0:0:0:
256,192,27062,1,8,0:0:0:0:
256,192,27195,1,8,0:0:0:0:
256,192,27329,1,8,0:0:0:0:
256,192,27396,1,0,0:0:0:0:
256,192,27463,1,8,0:0:0:0:
256,192,27597,1,0,0:0:0:0:
256,192,27731,1,8,0:0:0:0:
256,192,27865,1,0,0:0:0:0:
256,192,27932,1,0,0:0:0:0:
256,192,27999,1,8,0:0:0:0:
256,192,28133,1,0,0:0:0:0:
256,192,28267,1,8,0:0:0:0:
256,192,28401,1,0,0:0:0:0:
256,192,28535,1,0,0:0:0:0:
256,192,28668,1,0,0:0:0:0:
256,192,28803,1,0,0:0:0:0:
256,192,28870,1,0,0:0:0:0:
256,192,28937,1,8,0:0:0:0:
256,192,29070,1,8,0:0:0:0:
256,192,29204,1,0,0:0:0:0:
256,192,29338,1,8,0:0:0:0:
256,192,29405,1,8,0:0:0:0:
256,192,29472,1,0,0:0:0:0:
256,192,29606,1,8,0:0:0:0:
256,192,29740,1,8,0:0:0:0:
256,192,29807,1,8,0:0:0:0:
256,192,29874,1,0,0:0:0:0:
256,192,30008,1,0,0:0:0:0:
256,192,30142,1,8,0:0:0:0:
256,192,30276,1,0,0:0:0:0:
256,192,30410,1,0,0:0:0:0:
256,192,30477,1,0,0:0:0:0:
256,192,30544,1,8,0:0:0:0:
256,192,30678,1,0,0:0:0:0:
256,192,30812,1,8,0:0:0:0:
256,192,30945,1,8,0:0:0:0:
256,192,31012,1,8,0:0:0:0:
256,192,31079,1,0,0:0:0:0:
256,192,31213,1,8,0:0:0:0:
256,192,31347,1,0,0:0:0:0:
256,192,31414,1,0,0:0:0:0:
256,192,31481,1,8,0:0:0:0:
256,192,31615,1,8,0:0:0:0:
256,192,31682,1,8,0:0:0:0:
256,192,31749,1,0,0:0:0:0:
256,192,31883,1,8,0:0:0:0:
256,192,32017,1,0,0:0:0:0:
256,192,32151,1,8,0:0:0:0:
256,192,32218,1,8,0:0:0:0:
256,192,32285,1,0,0:0:0:0:
256,192,32352,1,0,0:0:0:0:
256,192,32419,1,8,0:0:0:0:
256,192,32486,1,0,0:0:0:0:
256,192,32553,1,8,0:0:0:0:
256,192,32620,1,0,0:0:0:0:
256,192,32687,1,8,0:0:0:0:
256,192,32753,1,0,0:0:0:0:
256,192,32820,1,8,0:0:0:0:
256,192,32887,1,8,0:0:0:0:
256,192,32954,1,0,0:0:0:0:
256,192,33021,1,0,0:0:0:0:
256,192,33088,1,8,0:0:0:0:
256,192,33155,1,0,0:0:0:0:
256,192,33222,1,8,0:0:0:0:
256,192,33289,1,8,0:0:0:0:
256,192,33356,1,0,0:0:0:0:
256,192,33423,1,0,0:0:0:0:
256,192,33490,1,8,0:0:0:0:
256,192,33557,1,8,0:0:0:0:
256,192,33624,1,0,0:0:0:0:
256,192,33691,1,0,0:0:0:0:
256,192,33758,1,8,0:0:0:0:
256,192,33847,5,0,0:0:0:0:
256,192,33937,1,0,0:0:0:0:
256,192,34026,1,8,0:0:0:0:
256,192,34115,1,0,0:0:0:0:
256,192,34204,1,0,0:0:0:0:
256,192,34293,1,12,0:0:0:0:
256,192,34427,1,0,0:0:0:0:
256,192,34494,1,0,0:0:0:0:
256,192,34561,1,8,0:0:0:0:
256,192,34695,1,0,0:0:0:0:
256,192,34829,1,8,0:0:0:0:
256,192,34896,1,0,0:0:0:0:
256,192,34963,1,8,0:0:0:0:
256,192,35030,1,8,0:0:0:0:
256,192,35097,1,0,0:0:0:0:
256,192,35164,1,0,0:0:0:0:
256,192,35231,1,8,0:0:0:0:
256,192,35365,1,0,0:0:0:0:
256,192,35499,1,0,0:0:0:0:
256,192,35566,1,0,0:0:0:0:
256,192,35633,1,8,0:0:0:0:
256,192,35766,1,8,0:0:0:0:
256,192,35900,1,8,0:0:0:0:
256,192,35967,1,0,0:0:0:0:
256,192,36034,1,8,0:0:0:0:
256,192,36101,1,8,0:0:0:0:
256,192,36168,1,0,0:0:0:0:
256,192,36302,1,8,0:0:0:0:
256,192,36436,1,0,0:0:0:0:
256,192,36503,1,0,0:0:0:0:
256,192,36570,1,8,0:0:0:0:
256,192,36704,1,0,0:0:0:0:
256,192,36838,1,8,0:0:0:0:
256,192,36972,1,8,0:0:0:0:
256,192,37039,1,0,0:0:0:0:
256,192,37106,1,8,0:0:0:0:
256,192,37240,1,8,0:0:0:0:
256,192,37374,1,0,0:0:0:0:
256,192,37441,1,0,0:0:0:0:
256,192,37508,1,8,0:0:0:0:
256,192,37574,1,0,0:0:0:0:
256,192,37641,1,8,0:0:0:0:
256,192,37775,1,0,0:0:0:0:
256,192,37909,1,8,0:0:0:0:
256,192,37976,1,8,0:0:0:0:
256,192,38043,1,0,0:0:0:0:
256,192,38177,1,8,0:0:0:0:
256,192,38311,1,8,0:0:0:0:
256,192,38378,1,8,0:0:0:0:
256,192,38445,1,0,0:0:0:0:
256,192,38512,1,0,0:0:0:0:
256,192,38579,1,8,0:0:0:0:
256,192,38713,1,8,0:0:0:0:
256,192,38847,1,0,0:0:0:0:
256,192,38981,1,0,0:0:0:0:
256,192,39048,1,0,0:0:0:0:
256,192,39115,1,8,0:0:0:0:
256,192,39249,1,0,0:0:0:0:
256,192,39383,1,8,0:0:0:0:
256,192,39516,1,8,0:0:0:0:
256,192,39583,1,8,0:0:0:0:
256,192,39650,1,0,0:0:0:0:
256,192,39784,1,8,0:0:0:0:
256,192,39918,1,0,0:0:0:0:
256,192,39985,1,0,0:0:0:0:
256,192,40052,1,8,0:0:0:0:
256,192,40186,1,8,0:0:0:0:
256,192,40253,1,8,0:0:0:0:
256,192,40320,1,0,0:0:0:0:
256,192,40387,1,0,0:0:0:0:
256,192,40454,1,8,0:0:0:0:
256,192,40588,1,0,0:0:0:0:
256,192,40722,1,8,0:0:0:0:
256,192,40789,1,8,0:0:0:0:
256,192,40856,1,0,0:0:0:0:
256,192,40923,1,0,0:0:0:0:
256,192,40990,1,8,0:0:0:0:
256,192,41057,1,0,0:0:0:0:
256,192,41124,1,8,0:0:0:0:
256,192,41191,1,0,0:0:0:0:
256,192,41258,1,8,0:0:0:0:
256,192,41324,1,0,0:0:0:0:
256,192,41391,1,8,0:0:0:0:
256,192,41458,1,8,0:0:0:0:
256,192,41525,1,0,0:0:0:0:
256,192,41592,1,0,0:0:0:0:
256,192,41659,1,8,0:0:0:0:
256,192,41726,1,0,0:0:0:0:
256,192,41793,1,8,0:0:0:0:
256,192,41860,1,8,0:0:0:0:
256,192,41927,1,0,0:0:0:0:
256,192,41994,1,0,0:0:0:0:
256,192,42061,1,8,0:0:0:0:
256,192,42128,1,8,0:0:0:0:
256,192,42195,1,0,0:0:0:0:
256,192,42262,1,0,0:0:0:0:
256,192,42329,1,8,0:0:0:0:
256,192,42418,1,0,0:0:0:0:
256,192,42508,1,0,0:0:0:0:
256,192,42597,1,8,0:0:0:0:
256,192,42686,1,0,0:0:0:0:
256,192,42775,1,0,0:0:0:0:
256,192,42865,1,12,0:0:0:0:
256,192,43133,1,0,0:0:0:0:
256,192,43266,1,0,0:0:0:0:
256,192,43400,1,8,0:0:0:0:
256,192,43534,1,8,0:0:0:0:
256,192,43668,1,0,0:0:0:0:
256,192,43802,1,8,0:0:0:0:
256,192,43936,1,0,0:0:0:0:
256,192,44204,1,0,0:0:0:0:
256,192,44338,1,0,0:0:0:0:
256,192,44472,1,8,0:0:0:0:
256,192,44606,1,8,0:0:0:0:
256,192,44740,1,0,0:0:0:0:
256,192,44874,1,8,0:0:0:0:
256,192,45008,1,0,0:0:0:0:
256,192,45141,1,0,0:0:0:0:
256,192,45275,1,8,0:0:0:0:
256,192,45409,1,8,0:0:0:0:
256,192,45543,1,0,0:0:0:0:
256,192,45677,1,0,0:0:0:0:
256,192,45811,1,8,0:0:0:0:
256,192,45945,1,8,0:0:0:0:
256,192,46079,1,0,0:0:0:0:
256,192,46347,1,8,0:0:0:0:
256,192,46615,1,8,0:0:0:0:
256,192,46883,1,8,0:0:0:0:
256,192,46949,1,8,0:0:0:0:
256,192,47016,1,8,0:0:0:0:
256,192,47083,1,8,0:0:0:0:
256,192,47150,1,0,0:0:0:0:
256,192,47284,1,8,0:0:0:0:
256,192,47418,1,0,0:0:0:0:
256,192,47686,1,8,0:0:0:0:
256,192,47954,1,8,0:0:0:0:
256,192,48222,1,0,0:0:0:0:
256,192,48490,1,0,0:0:0:0:
256,192,48624,1,0,0:0:0:0:
256,192,48758,1,8,0:0:0:0:
256,192,49025,1,8,0:0:0:0:
256,192,49159,1,8,0:0:0:0:
256,192,49293,1,0,0:0:0:0:
256,192,49427,1,0,0:0:0:0:
256,192,49561,1,8,0:0:0:0:
256,192,49695,1,8,0:0:0:0:
256,192,49829,1,0,0:0:0:0:
256,192,49963,1,8,0:0:0:0:
256,192,50097,1,0,0:0:0:0:
256,192,50231,1,0,0:0:0:0:
256,192,50365,1,8,0:0:0:0:
256,192,50633,1,0,0:0:0:0:
256,192,50900,1,0,0:0:0:0:
256,192,51436,1,8,0:0:0:0:
256,192,51704,1,0,0:0:0:0:
256,192,51837,1,0,0:0:0:0:
256,192,51971,1,8,0:0:0:0:
256,192,52105,1,8,0:0:0:0:
256,192,52239,1,0,0:0:0:0:
256,192,52373,1,8,0:0:0:0:
256,192,52507,1,0,0:0:0:0:
256,192,52775,1,0,0:0:0:0:
256,192,52909,1,0,0:0:0:0:
256,192,53043,1,8,0:0:0:0:
256,192,53177,1,8,0:0:0:0:
256,192,53311,1,0,0:0:0:0:
256,192,53445,1,8,0:0:0:0:
256,192,53579,1,0,0:0:0:0:
256,192,53712,1,0,0:0:0:0:
256,192,53846,1,8,0:0:0:0:
256,192,53980,1,8,0:0:0:0:
256,192,54114,1,0,0:0:0:0:
256,192,54248,1,0,0:0:0:0:
256,192,54382,1,8,0:0:0:0:
256,192,54516,1,8,0:0:0:0:
256,192,54650,1,0,0:0:0:0:
256,192,54918,1,8,0:0:0:0:
256,192,55186,1,8,0:0:0:0:
256,192,55454,1,8,0:0:0:0:
256,192,55520,1,8,0:0:0:0:
256,192,55587,1,8,0:0:0:0:
256,192,55654,1,8,0:0:0:0:
256,192,55721,1,0,0:0:0:0:
256,192,55855,1,8,0:0:0:0:
256,192,55989,1,0,0:0:0:0:
256,192,56257,1,8,0:0:0:0:
256,192,56525,1,8,0:0:0:0:
256,192,56793,1,0,0:0:0:0:
256,192,57061,1,0,0:0:0:0:
256,192,57195,1,0,0:0:0:0:
256,192,57329,1,8,0:0:0:0:
256,192,57596,1,8,0:0:0:0:
256,192,57730,1,8,0:0:0:0:
256,192,57864,1,0,0:0:0:0:
256,192,57998,1,0,0:0:0:0:
256,192,58132,1,8,0:0:0:0:
256,192,58266,1,8,0:0:0:0:
256,192,58400,1,0,0:0:0:0:
256,192,58534,1,8,0:0:0:0:
256,192,58668,1,0,0:0:0:0:
256,192,58802,1,0,0:0:0:0:
256,192,58936,1,8,0:0:0:0:
256,192,59204,1,0,0:0:0:0:
256,192,59471,1,0,0:0:0:0:
256,192,59539,1,0,0:0:0:0:
256,192,59606,1,8,0:0:0:0:
256,192,59740,12,8,63088,0:0:0:0:
