osu file format v14

[General]
AudioFilename: audio.mp3
AudioLeadIn: 0
PreviewTime: -1
Countdown: 0
SampleSet: None
StackLeniency: 0.7
Mode: 0
LetterboxInBreaks: 0
WidescreenStoryboard: 0

[Editor]
Bookmarks: 37200,54675,56212,140625,168000
DistanceSpacing: 0.6
BeatDivisor: 4
GridSize: 32
TimelineZoom: 0.6999999

[Metadata]
Title:Bad Apple
TitleUnicode:Bad Apple
Artist:Bullet Hell
ArtistUnicode:Bullet Hell
Creator:NatsukiWaifu
Version:Insane
Source:Touhou
Tags:
BeatmapID:2287414
BeatmapSetID:1094466

[Difficulty]
HPDrainRate:4
CircleSize:4
OverallDifficulty:8
ApproachRate:10
SliderMultiplier:1.5
SliderTickRate:2

[Events]
//Background and Video events
0,0,"maxresdefault.jpg",0,0
//Break Periods
2,140450,167550
//Storyboard Layer 0 (Background)
//Storyboard Layer 1 (Fail)
//Storyboard Layer 2 (Pass)
//Storyboard Layer 3 (Foreground)
//Storyboard Layer 4 (Overlay)
//Storyboard Sound Samples

[TimingPoints]
0,300,4,1,0,100,1,0

[Colours]
Combo1 : 220,185,255
Combo2 : 185,220,255

[HitObjects]
95,223,56625,5,0,0:0:0:0:
224,226,56812,1,0,0:0:0:0:
225,97,57000,1,0,0:0:0:0:
96,94,57225,1,0,0:0:0:0:
320,236,57412,1,0,0:0:0:0:
203,100,57787,2,0,L|346:254,1,206.25
253,248,58462,1,0,0:0:0:0:
302,28,58650,5,8,0:0:0:0:
447,96,58875,2,8,P|340:99|479:141,1,487.5,8|8,0:0|0:0,0:0:0:0:
208,210,60037,1,0,0:0:0:0:
199,89,60225,1,0,0:0:0:0:
45,213,60450,1,0,0:0:0:0:
124,306,60637,1,0,0:0:0:0:
42,85,60862,1,0,0:0:0:0:
214,176,61350,1,0,0:0:0:0:
223,71,61537,1,0,0:0:0:0:
313,124,61800,1,0,0:0:0:0:
399,190,62025,2,0,L|382:86,1,100
419,61,62400,1,0,0:0:0:0:
248,67,62625,2,0,L|217:121,2,56.25
164,191,63112,5,0,0:0:0:0:
248,138,63300,1,0,0:0:0:0:
365,199,63487,1,0,0:0:0:0:
324,94,63675,1,0,0:0:0:0:
197,70,63862,1,0,0:0:0:0:
316,165,64087,2,0,L|249:22,1,150
75,184,64725,1,0,0:0:0:0:
243,187,64950,1,0,0:0:0:0:
87,33,65137,2,0,L|229:33,1,131.25
189,68,65550,1,0,0:0:0:0:
239,68,66112,2,0,L|339:66,2,93.75
66,170,66750,5,0,0:0:0:0:
131,74,66900,1,0,0:0:0:0:
230,141,67087,1,0,0:0:0:0:
297,146,67312,2,0,L|450:146,1,150
396,94,67837,1,0,0:0:0:0:
273,39,68250,5,0,0:0:0:0:
281,182,68437,1,0,0:0:0:0:
152,188,68737,1,0,0:0:0:0:
141,32,69112,1,0,0:0:0:0:
74,216,69525,1,0,0:0:0:0:
186,97,69975,2,0,L|377:95,1,187.5
236,153,70462,5,0,0:0:0:0:
386,182,70650,1,0,0:0:0:0:
284,82,70875,1,0,0:0:0:0:
188,68,71100,1,0,0:0:0:0:
112,189,71250,2,0,L|237:242,1,131.25
228,240,71700,5,0,0:0:0:0:
238,168,71925,1,0,0:0:0:0:
230,87,72150,1,0,0:0:0:0:
159,115,73087,1,0,0:0:0:0:
102,64,73312,1,0,0:0:0:0:
9,84,73537,1,0,0:0:0:0:
16,154,73725,1,0,0:0:0:0:
209,281,73950,1,0,0:0:0:0:
311,239,74175,2,0,L|241:176,1,93.75
270,124,74587,1,0,0:0:0:0:
184,114,74812,1,0,0:0:0:0:
209,221,75187,5,0,0:0:0:0:
144,221,75375,1,0,0:0:0:0:
99,169,75637,1,0,0:0:0:0:
72,269,75862,1,0,0:0:0:0:
82,210,76087,1,0,0:0:0:0:
117,171,76312,1,0,0:0:0:0:
221,190,76537,2,0,L|284:124,2,75
186,180,77025,5,0,0:0:0:0:
307,214,77250,1,0,0:0:0:0:
159,213,77475,1,0,0:0:0:0:
387,208,77700,1,0,0:0:0:0:
147,121,77925,1,0,0:0:0:0:
294,86,78150,1,0,0:0:0:0:
244,187,78375,1,0,0:0:0:0:
152,160,78600,1,0,0:0:0:0:
143,55,78825,1,0,0:0:0:0:
394,178,79050,1,0,0:0:0:0:
271,244,79275,1,0,0:0:0:0:
147,257,79687,1,0,0:0:0:0:
247,159,80100,1,0,0:0:0:0:
136,126,80287,1,0,0:0:0:0:
275,75,80512,1,0,0:0:0:0:
92,131,80737,1,0,0:0:0:0:
198,219,80925,1,0,0:0:0:0:
116,85,81150,1,0,0:0:0:0:
282,193,81375,1,0,0:0:0:0:
165,76,81562,5,0,0:0:0:0:
230,138,81750,1,0,0:0:0:0:
200,178,82237,1,0,0:0:0:0:
182,187,82687,1,0,0:0:0:0:
346,170,83100,1,0,0:0:0:0:
230,126,83512,1,0,0:0:0:0:
113,117,83850,2,0,L|256:186,1,150
302,213,84300,1,0,0:0:0:0:
259,133,84600,1,0,0:0:0:0:
150,66,84787,1,0,0:0:0:0:
124,215,85012,1,0,0:0:0:0:
257,274,85162,1,0,0:0:0:0:
124,215,85650,5,0,0:0:0:0:
278,192,85875,1,0,0:0:0:0:
210,307,86062,1,0,0:0:0:0:
124,215,86250,1,0,0:0:0:0:
213,139,86475,1,0,0:0:0:0:
258,236,86700,1,0,0:0:0:0:
134,54,86850,2,0,L|360:58,1,225
292,212,87675,1,0,0:0:0:0:
175,114,87900,1,0,0:0:0:0:
310,156,88125,1,0,0:0:0:0:
137,231,88350,1,0,0:0:0:0:
130,54,88500,2,0,B|429:68|422:75|474:77,1,337.5
465,112,89325,1,0,0:0:0:0:
269,154,89550,1,0,0:0:0:0:
167,85,89775,1,0,0:0:0:0:
320,44,89962,1,0,0:0:0:0:
173,183,90150,5,0,0:0:0:0:
85,105,90375,6,0,L|350:98,1,262.5
246,262,91087,1,0,0:0:0:0:
319,195,91275,1,0,0:0:0:0:
184,171,91500,1,0,0:0:0:0:
224,254,91762,1,0,0:0:0:0:
289,146,92025,1,0,0:0:0:0:
250,253,92212,5,0,0:0:0:0:
134,154,92400,2,0,L|357:73,1,225
321,85,93112,1,0,0:0:0:0:
293,211,93337,1,0,0:0:0:0:
110,133,93562,1,0,0:0:0:0:
223,210,93712,1,0,0:0:0:0:
196,41,93975,6,0,L|373:223,1,243.75
224,139,94650,1,0,0:0:0:0:
73,183,94838,5,0,0:0:0:0:
182,159,95025,1,0,0:0:0:0:
284,155,95250,1,0,0:0:0:0:
297,223,95475,1,0,0:0:0:0:
177,221,95625,2,0,L|346:182,1,168.75
151,288,96150,1,0,0:0:0:0:
274,248,96375,1,0,0:0:0:0:
228,120,96563,5,0,0:0:0:0:
128,131,96788,1,0,0:0:0:0:
332,252,97050,1,0,0:0:0:0:
405,204,97275,1,0,0:0:0:0:
200,163,97350,2,0,L|304:148,1,75
68,234,97875,1,0,0:0:0:0:
187,234,98100,1,0,0:0:0:0:
270,142,98325,1,0,0:0:0:0:
167,102,98550,1,0,0:0:0:0:
68,148,98775,1,0,0:0:0:0:
305,283,99037,1,0,0:0:0:0:
254,169,99225,1,0,0:0:0:0:
187,236,99600,5,0,0:0:0:0:
141,221,99825,1,0,0:0:0:0:
91,170,100012,1,0,0:0:0:0:
80,99,100237,1,0,0:0:0:0:
125,42,100462,1,0,0:0:0:0:
159,94,100650,1,0,0:0:0:0:
186,149,100912,1,0,0:0:0:0:
217,193,101100,1,0,0:0:0:0:
357,84,101400,1,0,0:0:0:0:
328,165,101700,1,0,0:0:0:0:
214,121,101962,1,0,0:0:0:0:
138,50,102187,1,0,0:0:0:0:
339,52,102375,1,0,0:0:0:0:
294,137,102562,1,0,0:0:0:0:
85,192,102825,2,0,L|327:187,1,225
98,271,103575,5,0,0:0:0:0:
126,198,103800,1,0,0:0:0:0:
185,242,104025,1,0,0:0:0:0:
191,162,104212,1,0,0:0:0:0:
264,219,104400,1,0,0:0:0:0:
318,265,104775,1,0,0:0:0:0:
196,190,105000,1,0,0:0:0:0:
259,157,105225,1,0,0:0:0:0:
265,118,105450,1,0,0:0:0:0:
98,114,105675,1,0,0:0:0:0:
171,234,105862,1,0,0:0:0:0:
384,215,106125,1,0,0:0:0:0:
224,271,106575,5,0,0:0:0:0:
332,244,106762,1,0,0:0:0:0:
316,156,106987,1,0,0:0:0:0:
116,120,107212,1,0,0:0:0:0:
257,245,107437,1,0,0:0:0:0:
355,254,107625,1,0,0:0:0:0:
349,145,107887,1,0,0:0:0:0:
183,209,108262,1,0,0:0:0:0:
236,128,108487,1,0,0:0:0:0:
329,185,108712,1,0,0:0:0:0:
173,222,108937,1,0,0:0:0:0:
118,100,109162,1,0,0:0:0:0:
321,139,109387,1,0,0:0:0:0:
156,60,109650,2,0,L|247:96,1,93.75
430,154,110100,1,0,0:0:0:0:
197,82,110325,1,0,0:0:0:0:
337,245,110550,1,0,0:0:0:0:
103,181,110775,1,0,0:0:0:0:
303,90,111037,1,0,0:0:0:0:
117,35,111225,2,0,L|307:298,1,300
182,271,112050,1,0,0:0:0:0:
322,262,112200,1,0,0:0:0:0:
217,166,112425,5,0,0:0:0:0:
259,159,112650,1,0,0:0:0:0:
352,196,112875,1,0,0:0:0:0:
307,271,113100,1,0,0:0:0:0:
204,258,113475,1,0,0:0:0:0:
162,190,113700,1,0,0:0:0:0:
282,144,113925,1,0,0:0:0:0:
359,184,114150,1,0,0:0:0:0:
283,249,114375,1,0,0:0:0:0:
186,157,114600,1,0,0:0:0:0:
298,152,114825,1,0,0:0:0:0:
94,134,115275,1,0,0:0:0:0:
246,109,115500,1,0,0:0:0:0:
337,176,115725,1,0,0:0:0:0:
272,230,115950,1,0,0:0:0:0:
191,145,116175,1,0,0:0:0:0:
123,99,116400,1,0,0:0:0:0:
139,172,116550,2,0,L|298:159,1,150
105,182,117075,1,0,0:0:0:0:
260,217,117300,5,0,0:0:0:0:
367,196,117525,1,0,0:0:0:0:
382,146,117750,1,0,0:0:0:0:
127,136,117975,1,0,0:0:0:0:
99,211,118200,1,0,0:0:0:0:
251,255,118725,5,0,0:0:0:0:
315,247,118875,1,0,0:0:0:0:
383,194,119100,1,0,0:0:0:0:
303,142,119325,1,0,0:0:0:0:
192,117,119550,1,0,0:0:0:0:
114,189,119775,1,0,0:0:0:0:
22,162,120000,5,0,0:0:0:0:
115,218,120375,1,0,0:0:0:0:
24,264,120600,2,0,L|293:172,1,262.5
107,256,121350,1,0,0:0:0:0:
351,263,121575,2,0,L|129:110,1,262.5
148,235,122325,1,0,0:0:0:0:
170,253,122550,1,0,0:0:0:0:
285,259,122775,1,0,0:0:0:0:
168,194,123000,1,0,0:0:0:0:
22,207,123225,1,0,0:0:0:0:
185,284,123450,1,0,0:0:0:0:
298,249,123675,1,0,0:0:0:0:
89,105,123825,2,0,L|372:106,2,262.5
73,134,125100,1,0,0:0:0:0:
334,137,125325,1,0,0:0:0:0:
123,101,125775,2,0,L|370:95,1,225
240,170,126375,1,0,0:0:0:0:
365,130,126600,1,0,0:0:0:0:
247,86,126825,1,0,0:0:0:0:
123,101,127050,1,0,0:0:0:0:
161,201,127500,5,0,0:0:0:0:
359,225,127650,1,0,0:0:0:0:
368,149,127875,1,0,0:0:0:0:
264,83,128100,1,0,0:0:0:0:
188,97,128325,1,0,0:0:0:0:
178,248,128475,1,0,0:0:0:0:
86,176,128700,2,0,L|377:172,1,262.5
338,177,129450,1,0,0:0:0:0:
336,263,129675,1,0,0:0:0:0:
229,249,129900,1,0,0:0:0:0:
239,152,130125,1,0,0:0:0:0:
365,138,130350,1,0,0:0:0:0:
191,123,130875,1,0,0:0:0:0:
116,151,131100,1,0,0:0:0:0:
286,240,131325,1,0,0:0:0:0:
394,210,131550,1,0,0:0:0:0:
359,113,131775,1,0,0:0:0:0:
157,96,132000,1,0,0:0:0:0:
221,233,132225,1,0,0:0:0:0:
93,203,132675,1,0,0:0:0:0:
308,143,132825,1,0,0:0:0:0:
93,203,132975,5,0,0:0:0:0:
161,112,133125,1,0,0:0:0:0:
361,233,133350,1,0,0:0:0:0:
174,137,133575,1,0,0:0:0:0:
394,112,133800,1,0,0:0:0:0:
203,182,134025,1,0,0:0:0:0:
146,140,134400,1,0,0:0:0:0:
190,144,134625,1,0,0:0:0:0:
299,156,134850,1,0,0:0:0:0:
305,184,135075,1,0,0:0:0:0:
162,205,135300,1,0,0:0:0:0:
129,80,135525,1,0,0:0:0:0:
321,108,135750,1,0,0:0:0:0:
220,219,136200,5,0,0:0:0:0:
211,108,136350,1,0,0:0:0:0:
330,78,136575,1,0,0:0:0:0:
114,120,136800,1,0,0:0:0:0:
278,188,137025,1,0,0:0:0:0:
320,171,137250,1,0,0:0:0:0:
139,101,137400,2,0,L|357:95,1,187.5
99,113,137925,2,0,L|205:185,1,112.5
260,246,138300,1,0,0:0:0:0:
239,249,138525,1,0,0:0:0:0:
161,235,138675,2,0,L|327:217,1,150
256,192,139275,12,0,140250,0:0:0:0:
128,87,168000,5,0,0:0:0:0:
129,219,168225,1,0,0:0:0:0:
269,223,168450,1,0,0:0:0:0:
260,85,168675,1,0,0:0:0:0:
141,83,169200,1,0,0:0:0:0:
260,85,169425,1,0,0:0:0:0:
266,216,169575,1,0,0:0:0:0:
131,219,170025,1,0,0:0:0:0:
253,80,170400,1,0,0:0:0:0:
123,223,170625,1,0,0:0:0:0:
245,227,170850,1,0,0:0:0:0:
137,79,171075,1,0,0:0:0:0:
382,94,171300,1,0,0:0:0:0:
103,78,171525,1,0,0:0:0:0:
301,268,171750,1,0,0:0:0:0:
429,208,171975,1,0,0:0:0:0:
164,206,172200,2,0,L|339:204,1,150
170,244,172725,1,0,0:0:0:0:
348,236,172950,1,0,0:0:0:0:
128,52,173175,1,0,0:0:0:0:
131,148,173400,1,0,0:0:0:0:
129,264,173625,1,0,0:0:0:0:
134,355,173850,1,0,0:0:0:0:
363,351,174075,1,0,0:0:0:0:
362,272,174300,5,0,0:0:0:0:
356,182,174450,1,0,0:0:0:0:
347,87,174675,1,0,0:0:0:0:
118,234,174975,1,0,0:0:0:0:
307,243,175125,1,0,0:0:0:0:
291,79,175350,1,0,0:0:0:0:
128,70,175575,1,0,0:0:0:0:
215,155,176100,1,0,0:0:0:0:
317,254,176325,1,0,0:0:0:0:
406,246,176475,1,0,0:0:0:0:
393,167,177000,1,0,0:0:0:0:
337,102,177375,1,0,0:0:0:0:
259,55,177600,1,0,0:0:0:0:
168,55,177825,1,0,0:0:0:0:
98,121,178050,1,0,0:0:0:0:
98,204,178275,1,0,0:0:0:0:
142,278,178500,1,0,0:0:0:0:
210,325,178725,1,0,0:0:0:0:
296,329,178950,1,0,0:0:0:0:
206,49,179175,2,0,L|418:155,1,225
149,269,179925,1,0,0:0:0:0:
303,223,180075,1,0,0:0:0:0:
407,164,180525,1,0,0:0:0:0:
97,84,180900,1,0,0:0:0:0:
246,226,181350,1,0,0:0:0:0:
363,153,181800,1,0,0:0:0:0:
140,67,182025,1,0,0:0:0:0:
110,228,182250,1,0,0:0:0:0:
337,215,182475,1,0,0:0:0:0:
342,115,182700,1,0,0:0:0:0:
207,216,183075,1,0,0:0:0:0:
286,219,183300,1,0,0:0:0:0:
321,182,183525,1,0,0:0:0:0:
253,128,183975,1,0,0:0:0:0:
151,159,184350,1,0,0:0:0:0:
259,250,184575,1,0,0:0:0:0:
377,204,184800,1,0,0:0:0:0:
318,120,185025,1,0,0:0:0:0:
178,87,185250,1,0,0:0:0:0:
96,230,185475,1,0,0:0:0:0:
338,238,185700,1,0,0:0:0:0:
440,136,185925,1,0,0:0:0:0:
316,83,186150,1,0,0:0:0:0:
182,200,186600,1,0,0:0:0:0:
116,96,186825,1,0,0:0:0:0:
327,180,187050,1,0,0:0:0:0:
397,134,187275,1,0,0:0:0:0:
286,77,187500,1,0,0:0:0:0:
195,112,187725,1,0,0:0:0:0:
283,264,187950,1,0,0:0:0:0:
406,181,188175,1,0,0:0:0:0:
189,108,188400,1,0,0:0:0:0:
148,195,188625,1,0,0:0:0:0:
346,128,188850,1,0,0:0:0:0:
222,77,189150,1,0,0:0:0:0:
398,175,189375,1,0,0:0:0:0:
342,238,189600,1,0,0:0:0:0:
244,213,190050,1,0,0:0:0:0:
178,187,190275,1,0,0:0:0:0:
98,85,190500,5,0,0:0:0:0:
254,110,190875,1,0,0:0:0:0:
349,133,191325,1,0,0:0:0:0:
280,221,191550,1,0,0:0:0:0:
180,209,191775,1,0,0:0:0:0:
144,130,192000,1,0,0:0:0:0:
102,119,192225,1,0,0:0:0:0:
80,168,192450,1,0,0:0:0:0:
99,220,192675,1,0,0:0:0:0:
74,147,192900,1,0,0:0:0:0:
210,261,193050,1,0,0:0:0:0:
286,228,193275,1,0,0:0:0:0:
314,172,193500,1,0,0:0:0:0:
175,120,193725,1,0,0:0:0:0:
87,137,193950,1,0,0:0:0:0:
161,229,194400,1,0,0:0:0:0:
303,230,194850,1,0,0:0:0:0:
306,105,195300,1,0,0:0:0:0:
148,102,195675,1,0,0:0:0:0:
137,202,195900,1,0,0:0:0:0:
319,201,196050,1,0,0:0:0:0:
131,168,196350,1,0,0:0:0:0:
318,152,196575,1,0,0:0:0:0:
135,229,196950,1,0,0:0:0:0:
312,114,197175,1,0,0:0:0:0:
150,266,197400,1,0,0:0:0:0:
294,74,197625,1,0,0:0:0:0:
241,62,197850,1,0,0:0:0:0:
193,288,198075,1,0,0:0:0:0:
147,174,198225,2,0,L|265:150,1,112.5
322,143,198750,1,0,0:0:0:0:
101,78,198900,5,0,0:0:0:0:
313,197,199125,1,0,0:0:0:0:
93,133,199350,1,0,0:0:0:0:
76,192,199650,1,0,0:0:0:0:
305,250,199875,1,0,0:0:0:0:
318,160,200100,1,0,0:0:0:0:
75,266,200400,2,0,L|255:228,1,150
221,235,200925,1,0,0:0:0:0:
247,145,201150,1,0,0:0:0:0:
389,199,201300,1,0,0:0:0:0:
355,66,201525,1,0,0:0:0:0:
174,256,201750,2,0,L|330:219,1,150
128,232,202200,1,0,0:0:0:0:
399,157,202500,5,0,0:0:0:0:
360,80,202650,1,0,0:0:0:0:
271,60,202875,1,0,0:0:0:0:
128,109,203100,1,0,0:0:0:0:
253,178,203325,2,0,L|427:311,1,187.5
379,106,204000,1,0,0:0:0:0:
200,76,204225,1,0,0:0:0:0:
160,197,204450,1,0,0:0:0:0:
82,102,204675,1,0,0:0:0:0:
241,162,204900,1,0,0:0:0:0:
418,286,205050,2,0,L|277:99,1,225
163,121,205725,1,0,0:0:0:0:
161,206,205875,1,0,0:0:0:0:
324,216,206100,1,0,0:0:0:0:
341,103,206325,1,0,0:0:0:0:
216,69,206550,1,0,0:0:0:0:
50,158,206775,1,0,0:0:0:0:
84,278,206925,2,0,L|175:197,1,112.5
312,245,207375,1,0,0:0:0:0:
384,212,207600,1,0,0:0:0:0:
397,147,207825,1,0,0:0:0:0:
223,115,208050,1,0,0:0:0:0:
140,246,208275,1,0,0:0:0:0:
105,134,208575,5,0,0:0:0:0:
329,252,208725,2,0,L|203:160,1,150
142,165,209175,1,0,0:0:0:0:
331,100,209400,1,0,0:0:0:0:
415,226,209550,1,0,0:0:0:0:
171,151,209775,1,0,0:0:0:0:
161,67,210000,1,0,0:0:0:0:
337,253,210225,1,0,0:0:0:0:
140,240,210525,2,0,L|219:146,1,112.5
270,158,210900,1,0,0:0:0:0:
314,163,211050,1,0,0:0:0:0:
316,113,211275,1,0,0:0:0:0:
218,102,211500,1,0,0:0:0:0:
184,204,211725,1,0,0:0:0:0:
289,210,211950,1,0,0:0:0:0:
385,222,212250,2,0,L|325:115,1,112.5
303,120,212700,1,0,0:0:0:0:
214,114,212850,1,0,0:0:0:0:
159,160,213225,5,0,0:0:0:0:
180,192,213300,1,0,0:0:0:0:
268,214,213525,1,0,0:0:0:0:
324,195,213750,1,0,0:0:0:0:
395,121,213975,2,0,L|299:44,1,112.5
232,92,214350,1,0,0:0:0:0:
167,125,214575,1,0,0:0:0:0:
166,192,214800,1,0,0:0:0:0:
347,264,215025,1,0,0:0:0:0:
380,199,215325,1,0,0:0:0:0:
331,107,215475,1,0,0:0:0:0:
126,85,215700,2,0,L|162:204,1,112.5
137,195,216150,1,0,0:0:0:0:
322,152,216375,1,0,0:0:0:0:
190,29,216525,1,0,0:0:0:0:
278,173,216750,5,0,0:0:0:0:
153,167,216975,1,0,0:0:0:0:
311,85,217200,1,0,0:0:0:0:
313,199,217425,1,0,0:0:0:0:
163,130,217650,2,0,L|87:51,1,75
351,151,217950,1,0,0:0:0:0:
249,218,218100,1,0,0:0:0:0:
219,102,218325,1,0,0:0:0:0:
364,194,218550,1,0,0:0:0:0:
262,196,218775,1,0,0:0:0:0:
343,119,219000,1,0,0:0:0:0:
343,119,219150,2,0,L|188:103,1,150
212,176,219675,1,0,0:0:0:0:
369,173,219825,1,0,0:0:0:0:
412,136,220050,5,0,0:0:0:0:
274,69,220275,1,0,0:0:0:0:
135,110,220500,1,0,0:0:0:0:
220,238,220725,1,0,0:0:0:0:
352,237,220875,2,0,L|144:51,1,262.5
214,173,221775,1,0,0:0:0:0:
187,110,221925,1,0,0:0:0:0:
312,136,222150,1,0,0:0:0:0:
307,206,222375,1,0,0:0:0:0:
158,239,222600,2,0,L|77:119,1,112.5
231,102,223050,2,0,L|84:61,1,150
357,197,223500,1,0,0:0:0:0:
266,229,223725,1,0,0:0:0:0:
178,155,223950,5,0,0:0:0:0:
134,84,224175,1,0,0:0:0:0:
327,83,224400,1,0,0:0:0:0:
357,175,224850,1,0,0:0:0:0:
296,200,225075,1,0,0:0:0:0:
167,152,225225,1,0,0:0:0:0:
216,77,225450,1,0,0:0:0:0:
353,76,225675,1,0,0:0:0:0:
387,120,225900,1,0,0:0:0:0:
350,248,226125,1,0,0:0:0:0:
250,219,226650,1,0,0:0:0:0:
187,186,226875,1,0,0:0:0:0:
142,164,227100,1,0,0:0:0:0:
136,83,227325,1,0,0:0:0:0:
229,66,227550,1,0,0:0:0:0:
344,123,227775,1,0,0:0:0:0:
344,123,227850,2,0,L|317:295,1,150
243,190,228450,5,0,0:0:0:0:
193,84,228750,1,0,0:0:0:0:
334,187,228975,1,0,0:0:0:0:
244,73,229200,1,0,0:0:0:0:
193,148,229500,2,0,B|47:55|51:56,1,150
317,146,230025,1,0,0:0:0:0:
410,132,230175,1,0,0:0:0:0:
258,263,230400,1,0,0:0:0:0:
137,92,230700,1,0,0:0:0:0:
349,155,230925,1,0,0:0:0:0:
309,236,231150,1,0,0:0:0:0:
81,206,231375,2,0,L|55:65,1,112.5
215,150,231825,1,0,0:0:0:0:
252,84,231975,1,0,0:0:0:0:
348,205,232200,1,0,0:0:0:0:
196,212,232425,1,0,0:0:0:0:
148,58,232650,1,0,0:0:0:0:
357,150,232875,1,0,0:0:0:0:
274,223,233100,2,0,L|411:316,1,150
189,226,233550,1,0,0:0:0:0:
223,128,233775,5,0,0:0:0:0:
307,222,234000,1,0,0:0:0:0:
84,151,234300,1,0,0:0:0:0:
281,96,234525,1,0,0:0:0:0:
225,238,234675,2,0,L|183:72,1,150
225,238,234750,1,0,0:0:0:0:
145,160,235275,1,0,0:0:0:0:
247,129,235425,1,0,0:0:0:0:
325,178,235650,1,0,0:0:0:0:
187,265,235875,1,0,0:0:0:0:
150,64,236100,1,0,0:0:0:0:
281,202,236325,1,0,0:0:0:0:
107,162,236550,1,0,0:0:0:0:
274,140,237075,1,0,0:0:0:0:
327,241,237225,1,0,0:0:0:0:
145,210,237450,1,0,0:0:0:0:
334,100,237675,1,0,0:0:0:0:
338,228,237900,1,0,0:0:0:0:
190,185,238050,1,0,0:0:0:0:
201,59,238275,5,0,0:0:0:0:
201,59,238350,2,0,L|86:90,1,112.5
311,173,238725,1,0,0:0:0:0:
350,183,238950,1,0,0:0:0:0:
299,207,239175,1,0,0:0:0:0:
231,204,239325,1,0,0:0:0:0:
179,143,239550,1,0,0:0:0:0:
274,105,239775,1,0,0:0:0:0:
324,104,240000,1,0,0:0:0:0:
299,224,240525,1,0,0:0:0:0:
187,186,240675,1,0,0:0:0:0:
140,93,240900,1,0,0:0:0:0:
342,108,241125,1,0,0:0:0:0:
324,202,241350,1,0,0:0:0:0:
231,236,241575,1,0,0:0:0:0:
191,222,241725,1,0,0:0:0:0:
261,141,242175,1,0,0:0:0:0:
347,148,242400,5,0,0:0:0:0:
381,240,242625,1,0,0:0:0:0:
235,239,242850,1,0,0:0:0:0:
232,95,243075,1,0,0:0:0:0:
368,202,243300,1,0,0:0:0:0:
210,235,243525,1,0,0:0:0:0:
182,88,244050,1,0,0:0:0:0:
338,178,244200,1,0,0:0:0:0:
243,224,244425,1,0,0:0:0:0:
263,83,244650,1,0,0:0:0:0:
348,253,244875,1,0,0:0:0:0:
109,214,245100,1,0,0:0:0:0:
246,159,245250,1,0,0:0:0:0:
246,159,245325,2,0,L|83:87,1,150
159,121,245775,1,0,0:0:0:0:
227,136,245925,1,0,0:0:0:0:
361,198,246075,1,0,0:0:0:0:
218,248,246300,1,0,0:0:0:0:
316,133,246525,1,0,0:0:0:0:
214,91,246750,5,0,0:0:0:0:
325,218,246975,1,0,0:0:0:0:
325,218,247125,2,0,L|373:355,1,112.5
161,201,247425,1,0,0:0:0:0:
220,60,247650,1,0,0:0:0:0:
365,165,247800,1,0,0:0:0:0:
183,190,248025,1,0,0:0:0:0:
179,72,248250,1,0,0:0:0:0:
326,99,248475,5,0,0:0:0:0:
194,212,248700,1,0,0:0:0:0:
235,178,249150,1,0,0:0:0:0:
344,109,249600,1,0,0:0:0:0:
395,251,249825,1,0,0:0:0:0:
182,239,249975,1,0,0:0:0:0:
380,197,250200,1,0,0:0:0:0:
240,70,250425,1,0,0:0:0:0:
77,159,250875,1,0,0:0:0:0:
280,241,251325,5,0,0:0:0:0:
349,148,251550,1,0,0:0:0:0:
138,136,251775,1,0,0:0:0:0:
359,286,252000,1,0,0:0:0:0:
128,226,252300,1,0,0:0:0:0:
222,93,252750,1,0,0:0:0:0:
392,195,252900,1,0,0:0:0:0:
159,254,253125,1,0,0:0:0:0:
111,76,253350,1,0,0:0:0:0:
398,218,253500,1,0,0:0:0:0:
202,305,253725,1,0,0:0:0:0:
225,126,253875,5,0,0:0:0:0:
367,122,254400,1,0,0:0:0:0:
172,19,254625,1,0,0:0:0:0:
120,93,254850,1,0,0:0:0:0:
328,257,255075,1,0,0:0:0:0:
177,214,255300,1,0,0:0:0:0:
329,80,255525,1,0,0:0:0:0:
248,33,255675,1,0,0:0:0:0:
248,33,255750,2,0,L|151:50,1,75
193,186,256125,1,0,0:0:0:0:
334,245,256275,1,0,0:0:0:0:
125,237,256500,1,0,0:0:0:0:
225,83,256725,1,0,0:0:0:0:
369,134,256950,1,0,0:0:0:0:
177,243,257175,1,0,0:0:0:0:
98,85,257400,2,0,L|177:49,1,75
180,210,257850,1,0,0:0:0:0:
316,151,258000,5,0,0:0:0:0:
128,85,258300,1,0,0:0:0:0:
190,197,258525,1,0,0:0:0:0:
307,254,258675,1,0,0:0:0:0:
370,151,258975,1,0,0:0:0:0:
353,72,259200,1,0,0:0:0:0:
209,195,259650,1,0,0:0:0:0:
144,200,259800,1,0,0:0:0:0:
139,99,260025,1,0,0:0:0:0:
304,161,260250,1,0,0:0:0:0:
349,211,260475,1,0,0:0:0:0:
391,90,260700,1,0,0:0:0:0:
267,68,260925,1,0,0:0:0:0:
218,219,261375,1,0,0:0:0:0:
124,193,261525,1,0,0:0:0:0:
112,119,261750,1,0,0:0:0:0:
210,103,261975,1,0,0:0:0:0:
279,151,262200,5,0,0:0:0:0:
235,216,262425,1,0,0:0:0:0:
382,218,262650,1,0,0:0:0:0:
368,128,263100,1,0,0:0:0:0:
303,111,263250,1,0,0:0:0:0:
139,134,263475,1,0,0:0:0:0:
202,213,263700,1,0,0:0:0:0:
354,201,263925,1,0,0:0:0:0:
383,128,264150,1,0,0:0:0:0:
234,90,264450,2,0,L|150:74,1,75
139,208,264750,1,0,0:0:0:0:
237,226,264975,1,0,0:0:0:0:
334,211,265200,1,0,0:0:0:0:
356,143,265425,5,0,0:0:0:0:
275,107,265650,1,0,0:0:0:0:
201,113,265950,1,0,0:0:0:0:
121,146,266175,1,0,0:0:0:0:
179,236,266550,1,0,0:0:0:0:
282,236,266775,1,0,0:0:0:0:
351,203,266925,1,0,0:0:0:0:
372,138,267150,1,0,0:0:0:0:
289,87,267450,1,0,0:0:0:0:
214,82,267600,5,0,0:0:0:0:
133,121,267825,1,0,0:0:0:0:
156,201,268350,1,0,0:0:0:0:
281,217,268500,1,0,0:0:0:0:
368,187,268725,1,0,0:0:0:0:
355,113,268950,1,0,0:0:0:0:
230,95,269175,1,0,0:0:0:0:
149,110,269400,1,0,0:0:0:0:
120,193,269625,1,0,0:0:0:0:
240,233,270075,1,0,0:0:0:0:
329,215,270225,1,0,0:0:0:0:
388,169,270450,1,0,0:0:0:0:
383,118,270675,1,0,0:0:0:0:
290,93,270900,1,0,0:0:0:0:
220,121,271125,5,0,0:0:0:0:
202,142,271275,1,0,0:0:0:0:
316,261,271725,1,0,0:0:0:0:
386,226,271950,1,0,0:0:0:0:
414,149,272175,1,0,0:0:0:0:
333,103,272325,1,0,0:0:0:0:
238,117,272625,1,0,0:0:0:0:
204,189,272850,1,0,0:0:0:0:
190,214,273000,1,0,0:0:0:0:
117,186,273450,1,0,0:0:0:0:
132,145,273675,1,0,0:0:0:0:
214,98,273900,1,0,0:0:0:0:
261,108,274125,1,0,0:0:0:0:
285,166,274350,1,0,0:0:0:0:
306,198,274575,1,0,0:0:0:0:
328,183,274725,1,0,0:0:0:0:
301,94,275175,1,0,0:0:0:0:
241,110,275400,1,0,0:0:0:0:
181,165,275625,1,0,0:0:0:0:
210,216,275850,5,0,0:0:0:0:
321,211,276075,1,0,0:0:0:0:
372,135,276375,1,0,0:0:0:0:
361,98,276600,1,0,0:0:0:0:
275,77,276750,1,0,0:0:0:0:
137,98,276975,1,0,0:0:0:0:
111,150,277200,1,0,0:0:0:0:
162,186,277425,1,0,0:0:0:0:
262,203,277650,1,0,0:0:0:0:
320,192,277875,1,0,0:0:0:0:
344,129,278100,1,0,0:0:0:0:
300,29,278250,1,0,0:0:0:0:
300,29,278400,2,0,L|73:38,1,225
300,29,279000,1,0,0:0:0:0:
321,165,279375,1,0,0:0:0:0:
223,196,279675,1,0,0:0:0:0:
198,205,279900,1,0,0:0:0:0:
165,132,280125,1,0,0:0:0:0:
165,132,280425,5,0,0:0:0:0:
369,140,280650,1,0,0:0:0:0:
386,174,280875,1,0,0:0:0:0:
180,268,281100,1,0,0:0:0:0:
110,196,281325,1,0,0:0:0:0:
186,129,281550,1,0,0:0:0:0:
268,144,281775,1,0,0:0:0:0:
306,241,282150,1,0,0:0:0:0:
350,211,282375,1,0,0:0:0:0:
378,173,282600,1,0,0:0:0:0:
354,106,282825,1,0,0:0:0:0:
248,90,283050,1,0,0:0:0:0:
213,126,283275,1,0,0:0:0:0:
191,174,283500,1,0,0:0:0:0:
349,227,283950,1,0,0:0:0:0:
364,188,284175,1,0,0:0:0:0:
346,125,284400,1,0,0:0:0:0:
284,123,284625,5,0,0:0:0:0:
227,161,284775,1,0,0:0:0:0:
181,221,285000,1,0,0:0:0:0:
109,173,285225,1,0,0:0:0:0:
117,125,285750,1,0,0:0:0:0:
188,113,285900,1,0,0:0:0:0:
299,123,286125,1,0,0:0:0:0:
329,175,286350,1,0,0:0:0:0:
294,223,286500,1,0,0:0:0:0:
273,240,286725,1,0,0:0:0:0:
128,245,286950,1,0,0:0:0:0:
132,195,287475,1,0,0:0:0:0:
151,164,287625,1,0,0:0:0:0:
202,143,287850,5,0,0:0:0:0:
256,152,288075,1,0,0:0:0:0:
273,201,288300,1,0,0:0:0:0:
267,237,288525,1,0,0:0:0:0:
288,253,288675,1,0,0:0:0:0:
349,218,289125,1,0,0:0:0:0:
367,181,289350,5,0,0:0:0:0:
353,143,289575,1,0,0:0:0:0:
298,116,289800,1,0,0:0:0:0:
258,113,289950,1,0,0:0:0:0:
219,134,290250,5,0,0:0:0:0:
198,175,290475,1,0,0:0:0:0:
186,201,290925,1,0,0:0:0:0:
226,230,291300,1,0,0:0:0:0:
335,226,291525,1,0,0:0:0:0:
361,149,291750,1,0,0:0:0:0:
258,98,291975,1,0,0:0:0:0:
105,131,292200,5,0,0:0:0:0:
175,221,292650,1,0,0:0:0:0:
323,191,293100,1,0,0:0:0:0:
