osu file format v14

[General]
AudioFilename: audio.mp3
AudioLeadIn: 0
PreviewTime: 51623
Countdown: 0
SampleSet: Normal
StackLeniency: 0.7
Mode: 0
LetterboxInBreaks: 0
WidescreenStoryboard: 0

[Editor]
DistanceSpacing: 0.4
BeatDivisor: 4
GridSize: 4
TimelineZoom: 2

[Metadata]
Title:Hit The Floor
TitleUnicode:Hit The Floor
Artist:Bullet For My Valentine
ArtistUnicode:Bullet For My Valentine
Creator:FCL
Version:Insane
Source:
Tags:bfmv the poison metalcore melodic metal slayed alternative english
BeatmapID:1089879
BeatmapSetID:509762

[Difficulty]
HPDrainRate:6
CircleSize:4.5
OverallDifficulty:7.5
ApproachRate:9
SliderMultiplier:1.6
SliderTickRate:1

[Events]
//Background and Video events
0,0,"siniy.jpg",0,0
//Break Periods
//Storyboard Layer 0 (Background)
//Storyboard Layer 1 (Fail)
//Storyboard Layer 2 (Pass)
//Storyboard Layer 3 (Foreground)
//Storyboard Layer 4 (Overlay)
//Storyboard Sound Samples

[TimingPoints]
86,320.855614973262,4,1,1,50,1,0
10353,315.789473684211,4,1,1,50,1,0
19984,-285.714285714286,4,1,1,50,0,0
20300,-200,4,1,1,5,0,0
20458,-100,4,1,1,50,0,0
25195,-200,4,1,1,50,0,0
25510,-100,4,1,1,50,0,0
30247,-200,4,1,1,50,0,0
30563,320.855614973262,4,2,1,50,1,0
30563,-142.857142857143,4,2,1,50,0,0
39707,-200,4,2,1,50,0,0
40188,-142.857142857143,4,2,1,50,0,0
40288,-200,4,2,1,50,0,0
40830,-111.111111111111,4,1,1,50,0,0
48530,-100,4,1,1,50,0,0
51097,309.278350515464,4,1,1,50,1,0
52798,-285.714285714286,4,1,1,50,0,0
53571,-100,4,1,1,50,0,0
55736,-200,4,1,1,50,0,0
56045,-100,4,1,1,50,0,0
58519,-83.3333333333333,4,1,1,50,0,0
58828,-71.4285714285714,4,1,1,50,0,0
59138,-100,4,1,1,50,0,0
59447,-100,4,1,1,50,0,0
63004,-285.714285714286,4,1,1,50,0,0
63468,-100,4,1,1,50,0,0
65633,-200,4,1,1,50,0,0
65942,-100,4,1,1,50,0,0
68416,-83.3333333333333,4,1,1,50,0,0
68725,-71.4285714285714,4,1,1,50,0,0
69035,-100,4,1,1,50,0,0
69344,-100,4,1,1,50,0,0
70890,320.855614973262,4,1,1,50,1,0
73135,300,4,1,1,50,1,0
73135,-142.857142857143,4,1,1,50,0,0
73285,300,4,1,1,50,1,0
73285,-142.857142857143,4,1,1,50,0,0
75085,-200,4,1,1,50,0,0
75685,-142.857142857143,4,1,1,50,0,0
77485,-125,4,1,1,50,0,0
78085,-100,4,1,1,50,0,0
82585,-200,4,1,1,50,0,0
82885,-142.857142857143,4,1,1,50,0,0
84835,-200,4,1,1,50,0,0
85285,-142.857142857143,4,1,1,50,0,0
87085,-125,4,1,1,50,0,0
87685,-100,4,1,1,50,0,0
92185,-200,4,1,1,50,0,0
92485,-142.857142857143,4,1,1,50,0,0
94435,-200,4,1,1,50,0,0
94885,-142.857142857143,4,1,1,50,0,0
96685,-125,4,1,1,50,0,0
97285,-100,4,1,1,50,0,0
102085,-83.3333333333333,4,1,1,50,0,1
104485,-76.9230769230769,4,1,1,50,0,1
106901,309.278350515464,4,1,1,50,1,0
109359,309.278350515464,4,1,1,50,1,0
116317,-285.714285714286,4,1,1,50,0,0
116781,-100,4,1,1,50,0,0
118482,-285.714285714286,4,1,1,50,0,0
119256,-100,4,1,1,50,0,0
121421,-200,4,1,1,50,0,0
121730,-90.9090909090909,4,1,1,50,0,0
124204,-83.3333333333333,4,1,1,50,0,0
124513,-71.4285714285714,4,1,1,50,0,0
124823,-100,4,1,1,50,0,0
125132,-90.9090909090909,4,1,1,50,0,0
128689,-285.714285714286,4,1,1,50,0,0
129153,-90.9090909090909,4,1,1,50,0,0
134410,-71.4285714285714,4,1,1,50,0,0
134720,-100,4,1,1,50,0,0
135338,-90.9090909090909,4,1,1,50,0,0
136575,306.122448979592,4,1,1,50,1,1
136575,-90.9090909090909,4,1,1,50,0,1
145299,-142.857142857143,4,1,1,50,0,1
145758,-76.9230769230769,4,1,1,50,0,0
146370,-90.9090909090909,4,1,1,50,0,1
156013,-100,4,1,1,50,0,0

[Colours]
Combo1 : 135,213,226
Combo2 : 10,173,145
Combo3 : 16,109,171
Combo4 : 191,175,172

[HitObjects]
71,130,86,6,0,L|66:78,2,40,4|0|0,0:3|0:3|0:3,0:0:0:0:
33,250,406,1,2,2:3:0:0:
151,110,567,6,0,L|146:58,2,40,4|0|0,0:3|0:3|0:3,0:0:0:0:
113,230,887,1,2,2:3:0:0:
233,98,1048,6,0,L|228:46,2,40,4|0|0,0:3|0:3|0:3,0:0:0:0:
195,218,1368,1,2,2:3:0:0:
441,130,2652,6,0,L|446:78,2,40,4|0|0,0:3|0:0|0:0,0:0:0:0:
487,267,2972,1,2,2:3:0:0:
361,110,3133,6,0,L|366:58,2,40,4|0|0,0:3|0:0|0:0,0:0:0:0:
407,247,3453,1,2,2:3:0:0:
279,98,3614,6,0,L|284:46,2,40,4|0|0,0:3|0:0|0:0,0:0:0:0:
325,235,3936,1,2,2:3:0:0:
137,301,5219,6,0,L|81:305,2,40,4|0|0,0:3|0:0|0:0,0:0:0:0:
57,215,5540,1,2,2:3:0:0:
223,249,5700,6,0,L|279:253,2,40,4|0|0,0:3|0:0|0:0,0:0:0:0:
303,163,6021,1,2,2:3:0:0:
169,169,6182,6,0,L|113:173,2,40,4|0|0,0:3|0:0|0:0,0:0:0:0:
89,83,6503,1,2,2:3:0:0:
375,301,7786,6,0,L|431:305,2,40,4|0|0,0:3|0:0|0:0,0:0:0:0:
462,208,8107,1,2,2:3:0:0:
289,249,8267,6,0,L|233:253,2,40,4|0|0,0:3|0:0|0:0,0:0:0:0:
199,153,8588,1,2,2:3:0:0:
343,169,8749,5,8,0:0:0:0:
345,129,8829,1,8,0:0:0:0:
348,89,8909,1,8,0:0:0:0:
81,73,10353,5,4,0:0:0:0:
81,73,10431,1,0,0:0:0:0:
81,73,10510,2,0,L|75:171,1,80,2|8,0:3|0:0,0:0:0:0:
159,254,10826,1,2,0:3:0:0:
159,254,10905,1,0,0:0:0:0:
159,254,10984,2,0,P|206:239|270:245,1,80,2|0,0:3|0:0,0:0:0:0:
348,344,11300,1,8,0:0:0:0:
348,344,11379,1,0,0:0:0:0:
348,344,11458,2,0,B|313:360|313:360|248:351,1,80,2|0,0:3|0:0,0:0:0:0:
159,254,11774,5,2,0:3:0:0:
228,384,11931,2,0,L|233:293,1,80,8|2,0:0|0:3,0:0:0:0:
271,166,12247,5,2,0:3:0:0:
307,273,12405,1,0,0:3:0:0:
415,243,12563,1,8,0:0:0:0:
390,133,12721,1,2,0:3:0:0:
280,42,12879,5,2,0:3:0:0:
280,42,12958,1,0,0:0:0:0:
280,42,13037,2,0,P|268:101|283:149,1,80,2|8,0:3|0:0,0:0:0:0:
336,244,13353,1,2,0:3:0:0:
336,244,13431,1,0,0:0:0:0:
336,244,13510,2,0,B|305:236|305:236|243:245,1,80,2|0,0:3|0:0,0:0:0:0:
133,308,13826,1,8,0:0:0:0:
133,308,13905,1,0,0:0:0:0:
133,308,13984,2,0,L|130:198,1,80,2|0,0:3|0:0,0:0:0:0:
52,114,14300,5,2,0:3:0:0:
157,12,14458,2,0,P|170:61|160:121,1,80,8|2,0:0|0:3,0:0:0:0:
294,46,14774,5,2,0:3:0:0:
249,148,14931,1,0,0:0:0:0:
139,172,15089,1,8,0:0:0:0:
60,93,15247,1,2,0:3:0:0:
23,233,15405,5,2,0:3:0:0:
23,233,15484,1,0,0:0:0:0:
23,233,15563,2,0,B|10:266|10:266|21:328,1,80,2|8,0:3|0:0,0:0:0:0:
148,362,15879,1,2,0:3:0:0:
148,362,15958,1,0,0:0:0:0:
148,362,16037,2,0,L|236:357,1,80,2|0,0:3|0:0,0:0:0:0:
342,282,16353,1,8,0:0:0:0:
342,282,16431,1,0,0:0:0:0:
342,282,16510,2,0,P|354:236|334:177,1,80,2|0,0:3|0:0,0:0:0:0:
212,143,16826,5,2,0:3:0:0:
245,34,16984,2,0,P|300:25|360:32,1,80,8|2,0:0|0:3,0:0:0:0:
478,56,17300,5,2,0:3:0:0:
448,164,17458,1,0,0:0:0:0:
369,84,17616,1,8,0:0:0:0:
478,56,17774,1,2,0:3:0:0:
360,174,17931,5,2,0:3:0:0:
360,174,18010,1,0,0:0:0:0:
360,174,18089,2,0,L|263:172,1,80,2|8,0:3|0:0,0:0:0:0:
173,275,18405,1,2,0:3:0:0:
173,275,18484,1,0,0:0:0:0:
173,275,18563,2,0,B|137:268|137:268|74:282,1,80,2|0,0:3|0:0,0:0:0:0:
14,167,18879,1,8,0:0:0:0:
14,167,18958,1,0,0:0:0:0:
14,167,19037,2,0,P|58:155|126:168,1,80,2|0,0:3|0:0,0:0:0:0:
237,202,19353,5,8,0:0:0:0:
296,68,19510,2,0,L|299:153,1,80,8|4,0:0|0:3,0:0:0:0:
307,336,19826,1,8,0:0:0:0:
356,198,19984,6,0,P|370:163|371:131,1,69.9999978637696,4|0,0:0|2:0,0:0:0:0:
350,96,20458,6,0,P|346:146|461:200,1,160,6|0,0:2|0:0,0:0:0:0:
361,342,20931,1,2,0:2:0:0:
361,342,21010,1,0,0:0:0:0:
361,342,21089,2,0,L|269:346,1,80,8|2,0:0|0:2,0:0:0:0:
188,299,21405,1,0,0:0:0:0:
312,187,21563,5,2,0:2:0:0:
312,187,21721,2,0,P|325:233|313:280,1,80,0|2,0:0|0:3,0:0:0:0:
281,345,22037,1,0,0:0:0:0:
194,233,22195,1,2,0:3:0:0:
194,233,22353,2,0,L|200:136,1,80,8|2,0:0|0:3,0:0:0:0:
225,57,22668,1,0,0:0:0:0:
225,57,22984,5,2,0:2:0:0:
335,113,23142,1,2,0:2:0:0:
351,129,23221,1,2,0:2:0:0:
363,149,23300,2,0,P|369:199|355:239,1,80,2|2,0:2|0:3,0:0:0:0:
289,321,23616,1,8,0:0:0:0:
218,165,23774,5,2,0:2:0:0:
291,190,23931,2,0,P|275:237|245:268,1,80,2|2,0:2|0:3,0:0:0:0:
157,321,24247,1,0,0:0:0:0:
154,145,24405,5,2,0:2:0:0:
209,198,24563,2,0,P|174:234|134:249,1,80,2|8,0:2|0:0,0:0:0:0:
118,249,24800,1,8,0:0:0:0:
91,241,24879,1,12,0:0:0:0:
53,175,25037,1,2,0:2:0:0:
149,85,25195,2,0,L|154:155,1,60,2|0,0:2|2:0,0:0:0:0:
118,143,25510,6,0,P|168:115|265:160,1,160,6|0,0:0|0:0,0:0:0:0:
299,268,25984,1,2,0:2:0:0:
299,268,26063,1,0,0:0:0:0:
299,268,26142,2,0,P|349:285|408:265,1,80,8|2,0:0|0:2,0:0:0:0:
461,231,26458,1,0,0:0:0:0:
347,121,26616,5,2,0:2:0:0:
347,121,26774,2,0,P|335:166|343:211,1,80,0|2,0:0|0:3,0:0:0:0:
375,281,27089,1,0,0:0:0:0:
268,357,27247,1,2,0:3:0:0:
268,357,27405,2,0,L|186:350,2,80,8|2|0,0:0|0:3|0:0,0:0:0:0:
268,357,28037,5,2,0:2:0:0:
221,246,28195,1,2,0:2:0:0:
203,229,28274,1,2,0:2:0:0:
182,217,28353,2,0,P|143:213|92:220,1,80,2|2,0:2|0:3,0:0:0:0:
32,138,28668,1,8,0:0:0:0:
240,149,28826,5,2,0:2:0:0:
177,113,28984,2,0,P|139:125|96:153,1,80,2|2,0:2|0:3,0:0:0:0:
30,222,29300,1,0,0:0:0:0:
149,297,29458,5,10,0:2:0:0:
267,218,29616,1,10,0:2:0:0:
267,218,29774,1,4,0:3:0:0:
125,303,29931,1,8,0:0:0:0:
118,207,30089,1,6,0:2:0:0:
109,105,30247,2,0,L|116:36,1,60,2|0,0:2|2:0,0:0:0:0:
90,51,30563,6,0,P|133:71|159:65,1,55.9999982910157,4|0,1:0|0:0,0:0:0:0:
126,88,30883,2,0,P|173:87|197:73,1,55.9999982910157,0|0,0:0|1:0,0:0:0:0:
270,21,31204,1,8,1:0:0:0:
270,21,31365,1,0,0:0:0:0:
331,118,31525,2,0,L|250:114,1,55.9999982910157,2|4,1:2|1:3,0:0:0:0:
163,187,31846,6,0,P|155:224|165:266,1,55.9999982910157,0|0,0:0|0:0,0:0:0:0:
134,240,32167,2,0,P|154:271|193:292,1,55.9999982910157,0|0,0:0|0:0,0:0:0:0:
305,338,32488,2,0,L|310:266,1,55.9999982910157,10|0,1:0|0:0,0:0:0:0:
418,371,32808,2,0,L|413:297,1,55.9999982910157,2|0,0:0|0:0,0:0:0:0:
492,177,33129,6,0,P|446:182|415:171,1,55.9999982910157,2|4,1:2|1:3,0:0:0:0:
450,162,33450,2,0,P|406:147|381:123,1,55.9999982910157,0|0,0:0|1:0,0:0:0:0:
333,46,33771,1,8,1:0:0:0:
333,46,33931,1,0,0:0:0:0:
276,174,34092,2,0,L|273:95,1,55.9999982910157,2|4,1:2|1:3,0:0:0:0:
122,76,34413,6,0,P|134:98|183:115,1,55.9999982910157,0|0,0:0|0:0,0:0:0:0:
141,126,34734,2,0,P|165:133|210:111,1,55.9999982910157,0|0,0:0|0:0,0:0:0:0:
310,51,35054,1,10,1:2:0:0:
314,62,35215,1,0,0:0:0:0:
272,163,35375,1,2,0:0:0:0:
276,174,35536,1,0,0:0:0:0:
379,262,35696,6,0,L|300:260,1,55.9999982910157,2|4,1:2|1:3,0:0:0:0:
337,278,36017,2,0,L|264:309,1,55.9999982910157,0|0,0:0|0:0,0:0:0:0:
208,347,36338,1,8,1:0:0:0:
208,347,36498,1,0,0:0:0:0:
133,266,36659,2,0,P|130:231|144:192,1,55.9999982910157,2|4,1:2|1:3,0:0:0:0:
276,113,36980,6,0,P|232:125|197:117,1,55.9999982910157,0|0,0:0|0:0,0:0:0:0:
230,144,37300,2,0,P|190:121|171:90,1,55.9999982910157,0|0,0:0|0:0,0:0:0:0:
71,44,37621,2,0,L|77:119,1,55.9999982910157,10|0,1:2|0:0,0:0:0:0:
29,240,37942,2,0,L|23:315,1,55.9999982910157,2|0,0:0|0:0,0:0:0:0:
184,348,38263,6,0,P|150:332|118:330,1,55.9999982910157,2|4,1:2|1:3,0:0:0:0:
207,362,38584,2,0,P|169:361|139:373,1,55.9999982910157,0|0,0:0|1:0,0:0:0:0:
254,284,38905,1,8,1:0:0:0:
254,284,39065,1,0,0:0:0:0:
163,197,39226,2,0,L|158:270,1,55.9999982910157,2|0,1:2|0:0,0:0:0:0:
244,120,39546,5,8,1:0:0:0:
244,120,40188,1,2,0:0:0:0:
249,114,40349,1,0,0:0:0:0:
126,40,40509,2,0,P|120:72|127:111,1,60,2|0,0:0|2:0,0:0:0:0:
109,124,40830,6,0,L|105:207,1,71.9999978027344,4|0,0:0|0:0,0:0:0:0:
155,247,41151,2,0,L|159:330,1,71.9999978027344,4|0,0:3|0:0,0:0:0:0:
294,360,41472,1,8,0:0:0:0:
308,356,41632,1,0,0:0:0:0:
404,234,41792,2,0,P|360:227|309:235,1,71.9999978027344,2|0,0:2|0:0,0:0:0:0:
223,171,42113,6,0,L|218:86,1,71.9999978027344,4|0,0:3|0:0,0:0:0:0:
153,68,42434,2,0,L|148:139,1,71.9999978027344,4|0,0:3|0:0,0:0:0:0:
209,289,42755,2,0,P|254:277|301:281,1,71.9999978027344,10|0,0:2|0:0,0:0:0:0:
299,154,43076,2,0,P|339:177|369:213,1,71.9999978027344,2|0,0:2|0:0,0:0:0:0:
397,335,43397,6,0,L|307:338,1,71.9999978027344,2|0,0:2|0:0,0:0:0:0:
279,277,43718,2,0,L|189:280,1,71.9999978027344,4|0,0:3|0:0,0:0:0:0:
126,180,44038,1,8,0:0:0:0:
134,167,44199,1,0,0:0:0:0:
36,63,44359,2,0,L|40:145,1,71.9999978027344,2|0,0:2|0:0,0:0:0:0:
10,298,44680,6,0,P|46:283|95:293,1,71.9999978027344,4|0,0:3|0:0,0:0:0:0:
106,221,45001,2,0,P|142:235|169:277,1,71.9999978027344,4|0,0:3|0:0,0:0:0:0:
255,346,45322,1,10,0:2:0:0:
266,336,45482,1,0,0:0:0:0:
293,203,45643,1,2,0:2:0:0:
304,193,45803,1,0,0:0:0:0:
430,261,45964,6,0,L|335:264,1,71.9999978027344,2|0,0:2|0:0,0:0:0:0:
294,302,46284,2,0,L|222:299,1,71.9999978027344,4|0,0:3|0:0,0:0:0:0:
132,191,46605,1,8,0:0:0:0:
139,178,46766,1,0,0:0:0:0:
22,251,46926,2,0,P|17:285|25:338,1,71.9999978027344,2|0,0:2|0:0,0:0:0:0:
164,359,47247,6,0,L|166:267,1,71.9999978027344,4|0,0:3|0:0,0:0:0:0:
214,228,47568,2,0,L|216:136,1,71.9999978027344,4|0,0:3|0:0,0:0:0:0:
281,49,47889,1,10,0:2:0:0:
343,96,48049,1,0,0:0:0:0:
261,208,48210,1,2,0:2:0:0:
271,130,48370,1,0,0:0:0:0:
389,226,48530,5,2,0:2:0:0:
389,226,48691,1,0,0:0:0:0:
306,317,48851,2,0,L|212:320,1,80,2|0,0:3|0:0,0:0:0:0:
143,234,49172,1,8,0:0:0:0:
205,201,49333,1,0,0:0:0:0:
141,349,49493,1,2,0:2:0:0:
82,309,49653,1,0,0:0:0:0:
46,197,49814,6,0,P|39:156|55:104,1,80,2|0,0:3|0:3,0:0:0:0:
249,76,50135,2,0,P|245:117|216:164,1,80,2|0,0:3|0:3,0:0:0:0:
121,263,50456,2,0,L|30:272,1,80,10|0,0:2|0:0,0:0:0:0:
247,222,50776,2,0,L|334:232,1,80,2|0,0:2|0:0,0:0:0:0:
463,320,51097,6,0,L|298:328,1,160,4|4,0:0|0:3,0:0:0:0:
128,375,51715,1,0,2:0:0:0:
124,359,51870,1,0,2:0:0:0:
119,343,52024,1,0,2:0:0:0:
113,327,52179,2,0,B|100:281|100:281|117:181,1,120,0|0,2:0|0:0,0:0:0:0:
152,189,52488,2,0,P|97:202|22:149,1,120,0|0,2:0|0:0,0:0:0:0:
26,213,52798,6,0,B|12:128|12:128|19:84,1,125.999996154785,0|0,2:0|0:0,0:0:0:0:
49,64,53571,6,0,L|214:56,1,160,4|4,0:0|0:3,0:0:0:0:
460,47,54189,1,0,2:0:0:0:
458,79,54344,1,0,2:0:0:0:
457,111,54499,1,0,2:0:0:0:
457,142,54653,2,0,L|452:288,1,120,0|0,2:0|0:0,0:0:0:0:
489,269,54962,2,0,P|437:239|349:262,1,120,0|0,2:0|0:0,0:0:0:0:
358,266,55272,1,0,2:0:0:0:
215,221,55426,6,8,L|221:169,1,40
159,30,55581,2,8,L|163:69,1,40,4|4,0:3|0:3,0:0:0:0:
231,107,55736,6,0,L|295:103,1,60,4|0,0:3|2:0,0:0:0:0:
317,81,56045,5,4,0:0:0:0:
317,81,56200,1,0,0:0:0:0:
441,162,56354,2,0,P|392:175|339:160,1,80,2|0,0:2|0:0,0:0:0:0:
509,118,56664,1,10,0:0:0:0:
348,251,56818,2,0,P|304:225|277:177,1,80,2|2,0:2|0:0,0:0:0:0:
127,289,57127,2,0,P|177:293|227:269,1,80,2|2,0:2|0:0,0:0:0:0:
195,148,57437,1,10,0:2:0:0:
195,148,57746,5,0,0:0:0:0:
235,22,57901,1,10,0:0:0:0:
181,174,58055,2,0,L|94:178,1,80,2|2,0:2|0:0,0:0:0:0:
26,306,58365,1,8,0:0:0:0:
26,306,58442,1,4,0:3:0:0:
26,306,58519,6,0,P|69:319|134:305,1,95.9999970703126,4|4,0:0|0:3,0:0:0:0:
262,189,58828,2,0,B|299:173|299:173|407:188,1,111.999996582031,4|0,0:0|0:0,0:0:0:0:
487,318,59138,2,0,L|385:311,1,80,12|0,0:0|0:0,0:0:0:0:
263,358,59447,1,0,0:0:0:0:
263,358,59602,1,4,0:3:0:0:
321,250,59756,6,0,L|326:170,1,80,2|10,0:2|0:2,0:0:0:0:
132,289,60066,2,0,L|127:209,1,80,2|2,0:3|0:3,0:0:0:0:
200,55,60375,5,10,0:2:0:0:
226,211,60529,1,2,0:3:0:0:
179,35,60684,5,10,0:2:0:0:
245,226,60839,1,2,0:3:0:0:
153,17,60993,6,0,B|130:64|130:64|152:190,1,160,4|4,0:0|0:3,0:0:0:0:
252,322,61612,1,8,0:0:0:0:
260,274,61767,1,0,0:0:0:0:
268,226,61921,1,0,0:0:0:0:
277,178,62076,2,0,L|419:168,1,120,4|0,0:3|0:0,0:0:0:0:
395,209,62385,2,0,P|365:163|402:81,1,120,0|0,0:0|0:0,0:0:0:0:
430,58,62694,1,0,0:0:0:0:
285,126,62849,5,8,0:0:0:0:
506,152,63004,2,0,L|425:149,1,69.9999978637696,4|0,0:3|2:0,0:0:0:0:
396,169,63468,5,4,0:0:0:0:
282,57,63622,1,4,0:3:0:0:
133,116,63777,1,4,0:3:0:0:
313,297,64086,1,8,0:0:0:0:
308,233,64241,1,0,0:0:0:0:
302,169,64395,1,0,0:0:0:0:
297,105,64550,2,0,L|163:95,1,120,4|0,0:3|0:0,0:0:0:0:
201,67,64859,2,0,P|212:96|165:183,1,120,4|0,0:3|0:0,0:0:0:0:
149,181,65169,1,0,0:0:0:0:
105,252,65323,5,4,0:3:0:0:
100,267,65401,1,4,0:3:0:0:
126,306,65478,1,4,0:3:0:0:
131,337,65555,1,4,0:3:0:0:
136,367,65633,6,0,L|205:362,1,60,4|0,0:3|2:0,0:0:0:0:
226,335,65942,5,4,0:0:0:0:
226,335,66097,1,0,0:0:0:0:
333,238,66251,2,0,P|346:277|332:327,1,80,2|0,0:2|0:0,0:0:0:0:
262,211,66560,1,10,0:0:0:0:
414,305,66715,2,0,P|409:345|375:385,1,80,2|2,0:2|0:0,0:0:0:0:
151,346,67024,2,0,P|155:305|189:265,1,80,2|2,0:2|0:0,0:0:0:0:
262,211,67334,1,10,0:2:0:0:
262,211,67643,5,0,0:0:0:0:
352,128,67798,2,0,L|359:40,1,80,10|2,0:0|0:2,0:0:0:0:
412,197,68107,1,2,0:0:0:0:
266,77,68261,1,4,0:3:0:0:
266,77,68339,1,0,0:0:0:0:
266,77,68416,6,0,P|215:73|154:84,1,95.9999970703126,4|4,0:0|0:3,0:0:0:0:
68,266,68725,2,0,B|51:223|51:223|66:139,1,111.999996582031,4|0,0:0|0:0,0:0:0:0:
205,320,69035,2,0,L|104:324,1,80,12|0,0:0|0:0,0:0:0:0:
62,158,69344,1,0,0:0:0:0:
62,158,69499,1,4,0:3:0:0:
137,117,69653,5,2,0:2:0:0:
68,266,69808,2,0,L|65:363,1,80,10|2,0:2|0:3,0:0:0:0:
138,206,70117,1,2,0:3:0:0:
205,320,70272,5,10,0:2:0:0:
234,183,70426,1,2,0:3:0:0:
282,345,70581,1,10,0:2:0:0:
314,206,70736,1,2,0:3:0:0:
418,322,70890,5,4,0:0:0:0:
418,322,73135,6,0,L|409:195,1,111.999996582031,4|0,0:0|0:0,0:0:0:0:
351,132,73585,1,4,0:3:0:0:
351,132,73885,2,0,B|303:151|303:151|231:133,1,111.999996582031,8|0,0:0|0:0,0:0:0:0:
167,195,74335,1,4,0:3:0:0:
173,216,74635,1,8,0:0:0:0:
179,237,74935,1,4,0:3:0:0:
288,76,75085,2,0,P|249:66|197:84,1,80,8|4,0:0|0:3,0:0:0:0:
211,74,75535,1,4,0:3:0:0:
373,200,75835,5,8,0:0:0:0:
382,179,76135,1,4,0:3:0:0:
466,301,76285,2,0,L|354:305,1,111.999996582031,8|4,0:0|0:3,0:0:0:0:
279,350,76735,1,4,0:3:0:0:
279,350,77035,6,0,B|265:305|265:305|281:228,1,111.999996582031,8|4,0:0|0:3,0:0:0:0:
330,183,77410,1,4,0:3:0:0:
330,183,77485,6,0,P|269:169|208:211,1,128,8|4,0:0|0:3,0:0:0:0:
155,266,77935,1,0,0:0:0:0:
144,126,78085,6,0,L|148:25,1,80,12|4,0:0|0:3,0:0:0:0:
147,46,78310,1,0,0:0:0:0:
147,46,78385,1,10,0:0:0:0:
251,81,78535,2,0,L|305:75,2,40,4|0|2,0:3|0:0|0:0,0:0:0:0:
182,170,78835,2,0,L|128:164,2,40,4|0|10,0:3|0:0|0:0,0:0:0:0:
280,227,79135,1,4,0:3:0:0:
280,227,79210,1,0,0:0:0:0:
280,227,79285,6,0,L|368:220,1,80,2|4,0:0|0:3,0:0:0:0:
390,251,79510,1,0,0:0:0:0:
402,235,79585,1,10,0:0:0:0:
470,121,79735,2,0,L|473:58,2,40,4|0|2,0:3|0:0|0:0,0:0:0:0:
452,286,80035,2,0,L|453:325,2,40,4|0|10,0:3|0:0|0:0,0:0:0:0:
357,150,80335,1,4,0:3:0:0:
357,150,80410,1,0,0:0:0:0:
357,150,80485,6,0,L|268:146,1,80,2|4,0:0|0:3,0:0:0:0:
246,171,80710,1,0,0:0:0:0:
231,157,80785,1,10,0:0:0:0:
142,264,80935,2,0,P|139:288|143:324,2,40,4|0|2,0:3|0:0|0:0,0:0:0:0:
35,175,81235,2,0,P|15:189|-6:218,2,40,4|0|10,0:3|0:0|0:0,0:0:0:0:
75,44,81535,1,4,0:3:0:0:
75,44,81610,1,0,0:0:0:0:
75,44,81685,6,0,B|106:32|106:32|181:36,1,80,2|4,0:0|0:3,0:0:0:0:
180,59,81910,1,0,0:0:0:0:
195,46,81985,1,10,0:0:0:0:
322,85,82135,1,4,0:3:0:0:
309,100,82210,1,0,0:0:0:0:
296,115,82285,1,2,0:0:0:0:
345,223,82435,1,4,0:3:0:0:
358,208,82510,1,0,0:0:0:0:
371,193,82585,6,0,L|446:190,1,60,10|0,0:0|0:0,0:0:0:0:
448,155,82885,6,0,B|471:191|471:191|459:281,2,111.999996582031,4|4|8,0:0|0:3|0:0,0:0:0:0:
468,349,83785,1,0,0:0:0:0:
327,276,83935,1,4,0:3:0:0:
310,295,84235,2,0,B|177:291,1,111.999996582031,8|4,0:0|0:3,0:0:0:0:
115,345,84685,1,8,0:0:0:0:
207,184,84835,2,0,P|217:153|191:99,1,80,0|0,0:3|0:0,0:0:0:0:
138,151,85285,6,0,L|267:144,1,111.999996582031,4|0,0:0|0:0,0:0:0:0:
249,144,85735,1,4,0:3:0:0:
85,222,85885,1,8,0:0:0:0:
77,200,86185,1,4,0:3:0:0:
18,46,86335,1,8,0:0:0:0:
43,67,86635,2,0,B|92:77|92:77|163:57,1,111.999996582031,8|4,0:0|0:3,0:0:0:0:
212,19,87010,1,4,0:3:0:0:
212,19,87085,6,0,P|239:48|220:142,1,128,8|0,0:0|0:0,0:0:0:0:
177,195,87535,1,0,0:0:0:0:
319,242,87685,6,0,L|427:230,1,80,4|4,0:0|0:3,0:0:0:0:
398,233,87910,1,0,0:0:0:0:
398,233,87985,1,10,0:0:0:0:
297,335,88135,2,0,L|303:388,2,40,4|0|2,0:3|0:0|0:0,0:0:0:0:
169,268,88435,2,0,L|163:321,2,40,4|0|10,0:3|0:0|0:0,0:0:0:0:
55,206,88735,1,4,0:3:0:0:
55,206,88810,1,0,0:0:0:0:
55,206,88885,6,0,L|52:119,1,80,2|4,0:0|0:3,0:0:0:0:
34,102,89110,1,0,0:0:0:0:
39,82,89185,1,8,0:0:0:0:
145,47,89335,2,0,P|154:25|151:-10,2,40,4|0|2,0:3|0:0|0:0,0:0:0:0:
244,137,89635,2,0,P|265:127|288:100,2,40,4|0|10,0:3|0:0|0:0,0:0:0:0:
229,276,89935,1,4,0:3:0:0:
229,276,90010,1,0,0:0:0:0:
229,276,90085,6,0,P|285:285|337:273,1,80,2|4,0:0|0:3,0:0:0:0:
337,254,90310,1,0,0:0:0:0:
356,255,90385,1,10,0:0:0:0:
452,326,90535,2,0,P|460:355|455:378,2,40,4|0|2,0:3|0:0|0:0,0:0:0:0:
300,348,90835,2,0,P|270:340|253:324,2,40,4|0|10,0:3|0:0|0:0,0:0:0:0:
375,214,91135,1,4,0:3:0:0:
375,214,91210,1,0,0:0:0:0:
375,214,91285,6,0,P|388:175|434:139,1,80,2|4,0:0|0:3,0:0:0:0:
450,144,91510,1,0,0:0:0:0:
461,127,91585,1,10,0:0:0:0:
389,42,91735,1,4,0:3:0:0:
379,59,91810,1,0,0:0:0:0:
369,76,91885,1,2,0:0:0:0:
255,80,92035,1,4,0:3:0:0:
245,97,92110,1,0,0:0:0:0:
235,114,92185,6,0,P|206:122|171:114,1,60,10|0,0:0|0:0,0:0:0:0:
154,72,92485,6,0,L|160:200,2,111.999996582031,4|4|8,0:0|0:3|0:0,0:0:0:0:
163,270,93385,1,0,0:3:0:0:
54,176,93535,1,4,0:3:0:0:
69,192,93835,2,0,L|185:187,1,111.999996582031,8|0,0:0|0:0,0:0:0:0:
231,137,94210,1,0,0:0:0:0:
231,137,94285,1,8,0:0:0:0:
258,290,94435,2,0,P|296:300|349:288,1,80,4|0,0:3|0:0,0:0:0:0:
410,329,94885,6,0,L|275:335,1,111.999996582031,4|0,0:0|0:0,0:0:0:0:
212,281,95335,1,4,0:3:0:0:
344,233,95485,2,0,P|363:197|341:120,1,111.999996582031,8|0,0:0|0:0,0:0:0:0:
278,62,95935,1,4,0:3:0:0:
265,80,96235,2,0,B|206:93|206:93|135:77,1,111.999996582031,8|4,0:0|0:3,0:0:0:0:
80,90,96610,1,4,0:3:0:0:
80,90,96685,6,0,P|61:116|96:202,1,128,8|4,0:0|0:3,0:0:0:0:
166,232,97135,1,4,0:0:0:0:
55,327,97285,6,0,L|143:321,1,80,2|4,0:0|0:3,0:0:0:0:
134,321,97510,1,0,0:0:0:0:
134,321,97585,1,10,0:0:0:0:
255,259,97735,2,0,L|315:265,2,40,4|0|2,0:3|0:0|0:0,0:0:0:0:
121,194,98035,2,0,L|61:200,2,40,4|0|10,0:3|0:0|0:0,0:0:0:0:
254,144,98335,1,4,0:3:0:0:
254,144,98410,1,0,0:0:0:0:
254,144,98485,6,0,B|263:102|263:102|251:31,1,80,2|4,0:0|0:3,0:0:0:0:
279,32,98710,1,0,0:0:0:0:
274,12,98785,1,10,0:0:0:0:
154,88,98935,2,0,P|152:109|159:152,2,40,4|0|2,0:3|0:0|0:0,0:0:0:0:
325,127,99235,2,0,P|327:148|320:191,2,40,4|0|10,0:3|0:0|0:0,0:0:0:0:
152,213,99535,1,4,0:3:0:0:
152,213,99610,1,0,0:0:0:0:
152,213,99685,6,0,P|143:259|157:320,1,80,2|4,0:0|0:3,0:0:0:0:
171,327,99910,1,0,0:0:0:0:
164,345,99985,1,10,0:0:0:0:
270,287,100135,2,0,L|325:305,2,40,4|0|2,0:3|0:0|0:0,0:0:0:0:
353,144,100435,2,0,L|379:195,2,40,4|0|10,0:3|0:0|0:0,0:0:0:0:
509,124,100735,1,4,0:3:0:0:
509,124,100810,1,0,0:0:0:0:
509,124,100885,6,0,L|483:214,1,80,2|4,0:0|0:3,0:0:0:0:
468,240,101110,1,0,0:0:0:0:
448,242,101185,1,10,0:0:0:0:
373,322,101335,1,4,0:3:0:0:
359,307,101410,1,0,0:0:0:0:
350,288,101485,1,2,0:0:0:0:
223,315,101635,1,4,0:3:0:0:
223,294,101710,1,0,0:0:0:0:
230,274,101785,2,0,P|263:248|321:238,1,80,10|4,0:0|0:3,0:0:0:0:
450,144,102085,6,0,B|408:137|408:137|314:151,1,95.9999970703126,12|4,0:0|0:3,0:0:0:0:
158,251,102385,2,0,B|116:257|116:257|22:244,1,95.9999970703126,8|4,0:0|0:3,0:0:0:0:
228,63,102685,2,0,P|242:113|226:171,1,95.9999970703126,10|4,0:0|0:3,0:0:0:0:
338,267,102985,2,0,P|324:317|340:375,1,95.9999970703126,10|4,0:0|0:3,0:0:0:0:
460,206,103285,6,0,L|468:107,1,95.9999970703126,12|4,0:0|0:3,0:0:0:0:
338,267,103585,2,0,L|330:168,1,95.9999970703126,10|4,0:0|0:3,0:0:0:0:
171,231,103885,2,0,L|179:132,1,95.9999970703126,10|4,0:0|0:3,0:0:0:0:
33,170,104185,2,0,L|25:71,1,95.9999970703126,10|4,0:0|0:3,0:0:0:0:
220,75,104485,6,0,P|251:127|222:190,1,103.999995239258,12|4,0:0|0:3,0:0:0:0:
78,314,104785,2,0,P|108:273|158:264,1,103.999995239258,10|4,0:0|0:3,0:0:0:0:
291,331,105085,2,0,L|404:326,1,103.999995239258,10|4,0:0|0:3,0:0:0:0:
504,184,105385,2,0,L|391:179,1,103.999995239258,10|4,0:0|0:3,0:0:0:0:
259,127,105685,6,0,B|240:165|240:165|253:246,1,103.999995239258,12|4,0:0|0:3,0:0:0:0:
387,104,105985,2,0,B|396:43|396:43|377:5,1,103.999995239258,10|4,0:0|0:3,0:0:0:0:
181,42,106285,1,10,0:0:0:0:
312,69,106435,1,4,0:3:0:0:
169,38,106585,1,10,0:0:0:0:
325,72,106735,1,4,0:3:0:0:
166,155,106901,6,0,L|170:215,2,40,4|0|0,0:0|0:0|0:0,0:0:0:0:
175,302,107210,1,2,2:3:0:0:
260,189,107364,6,0,L|256:249,2,40,4|0|0,0:3|0:0|0:0,0:0:0:0:
251,336,107673,1,2,2:3:0:0:
347,164,107828,6,0,L|351:224,2,40,4|0|0,0:3|0:0|0:0,0:0:0:0:
356,311,108137,1,2,2:3:0:0:
115,216,109359,6,0,L|119:156,2,40,4|0|0,0:3|0:0|0:0,0:0:0:0:
124,69,109668,1,2,2:3:0:0:
209,182,109822,6,0,L|205:122,2,40,4|0|0,0:3|0:0|0:0,0:0:0:0:
200,35,110131,1,2,2:3:0:0:
293,206,110286,6,0,L|297:146,2,40,4|0|0,0:3|0:0|0:0,0:0:0:0:
305,60,110595,1,2,2:3:0:0:
143,296,111833,6,0,L|92:301,2,40,4|0|0,0:3|0:0|0:0,0:0:0:0:
235,342,112142,1,2,2:3:0:0:
316,214,112297,6,0,L|367:219,2,40,4|0|0,0:3|0:0|0:0,0:0:0:0:
224,260,112606,1,2,2:3:0:0:
150,135,112761,6,0,L|99:140,2,40,4|0|0,0:3|0:0|0:0,0:0:0:0:
242,181,113070,1,2,2:3:0:0:
393,257,114307,6,0,L|444:262,2,40,4|0|0,0:3|0:0|0:0,0:0:0:0:
301,303,114616,1,2,2:3:0:0:
220,175,114771,6,0,L|169:180,2,40,4|0|0,0:3|0:0|0:0,0:0:0:0:
312,221,115080,1,2,2:3:0:0:
386,96,115235,6,0,L|437:101,2,40,4|0|0,0:3|0:0|0:0,0:0:0:0:
294,142,115544,1,2,2:3:0:0:
213,44,115699,5,8,0:0:0:0:
220,175,115854,2,0,L|226:285,1,80,8|0,0:0|0:0,0:0:0:0:
308,357,116163,1,8,0:0:0:0:
220,361,116317,6,0,P|247:340|292:338,1,69.9999978637696,4|0,0:0|2:0,0:0:0:0:
308,357,116781,6,0,L|299:188,1,160,4|4,0:0|0:0,0:0:0:0:
111,105,117400,1,0,2:0:0:0:
120,82,117555,1,0,2:0:0:0:
129,60,117709,1,0,2:0:0:0:
140,38,117864,2,0,L|274:32,1,120,0|0,2:0|0:0,0:0:0:0:
294,12,118173,2,0,P|255:52|263:135,1,120,0|0,2:0|0:0,0:0:0:0:
268,132,118482,6,0,L|267:257,1,125.999996154785,0|0,2:0|0:0,0:0:0:0:
285,291,119256,5,4,0:0:0:0:
142,246,119410,1,0,0:0:0:0:
346,211,119565,1,4,0:0:0:0:
159,344,119874,1,0,2:0:0:0:
119,335,120029,1,0,2:0:0:0:
80,325,120183,1,0,2:0:0:0:
40,315,120338,2,0,B|21:262|21:262|39:175,1,120,0|0,2:0|0:0,0:0:0:0:
67,165,120647,2,0,L|63:26,1,120,0|0,2:0|0:0,0:0:0:0:
86,15,120957,1,0,2:0:0:0:
203,91,121111,5,8,0:0:0:0:
215,81,121189,1,0,0:0:0:0:
255,97,121266,1,8,0:3:0:0:
285,89,121343,1,8,0:3:0:0:
314,82,121421,2,0,P|332:107|328:153,1,60,8|0,0:0|2:0,0:0:0:0:
323,167,121730,5,4,0:0:0:0:
323,167,121885,1,0,0:0:0:0:
229,263,122039,2,0,L|133:258,1,88.000002685547,2|0,0:2|0:0,0:0:0:0:
304,235,122348,1,10,0:0:0:0:
181,334,122503,2,0,L|85:329,1,88.000002685547,2|0,0:2|0:0,0:0:0:0:
28,195,122812,2,0,P|21:155|59:95,1,88.000002685547,2|2,0:2|0:0,0:0:0:0:
146,40,123122,1,8,0:2:0:0:
146,40,123431,5,0,0:0:0:0:
106,184,123586,1,10,0:0:0:0:
265,103,123740,2,0,L|139:107,1,88.000002685547,4|2,0:3|0:2,0:0:0:0:
350,33,124049,1,8,0:0:0:0:
350,33,124127,1,4,0:3:0:0:
350,33,124204,6,0,P|377:87|369:138,1,95.9999970703126,4|4,0:0|0:3,0:0:0:0:
310,289,124513,2,0,B|253:277|253:277|185:293,1,111.999996582031,4|0,0:0|0:0,0:0:0:0:
42,364,124823,2,0,L|48:251,1,80,12|0,0:0|0:0,0:0:0:0:
34,126,125132,1,0,0:0:0:0:
34,126,125287,1,4,0:3:0:0:
150,220,125441,6,0,L|270:214,1,88.000002685547,2|10,0:2|0:2,0:0:0:0:
82,66,125750,2,0,L|169:70,1,88.000002685547,2|2,0:3|0:3,0:0:0:0:
49,193,126060,5,10,0:0:0:0:
21,27,126214,1,2,0:3:0:0:
197,92,126369,5,10,0:0:0:0:
169,258,126523,1,2,0:3:0:0:
391,155,126678,6,0,B|327:133|327:133|200:165,1,176.000005371094,4|4,0:0|0:0,0:0:0:0:
58,328,127297,1,8,0:0:0:0:
34,280,127452,1,0,0:0:0:0:
34,227,127606,1,0,0:0:0:0:
52,177,127761,2,0,B|97:168|97:168|135:178|135:178|205:160,1,132.00000402832,4|0,0:3|0:0,0:0:0:0:
192,139,128070,1,4,0:3:0:0:
239,299,128225,2,0,P|299:268|290:185,1,132.00000402832,4|0,0:3|0:0,0:0:0:0:
239,230,128534,5,8,0:0:0:0:
365,161,128689,2,0,L|360:82,1,69.9999978637696,8|0,0:0|2:0,0:0:0:0:
344,60,129153,5,4,0:0:0:0:
358,234,129307,1,0,0:0:0:0:
474,129,129462,1,4,0:0:0:0:
185,97,129771,1,8,0:0:0:0:
164,164,129926,1,0,0:0:0:0:
195,226,130080,1,0,0:0:0:0:
173,293,130235,2,0,B|217:314|217:314|331:289,1,132.00000402832,4|0,0:3|0:0,0:0:0:0:
314,261,130544,2,0,P|359:245|453:265,1,132.00000402832,4|0,0:3|0:0,0:0:0:0:
466,269,130854,1,0,0:0:0:0:
294,21,131008,5,8,0:3:0:0:
309,56,131085,1,8,0:3:0:0:
303,95,131162,1,8,0:3:0:0:
277,124,131239,1,8,0:3:0:0:
239,134,131317,5,8,0:3:0:0:
265,149,131394,1,8,0:3:0:0:
286,171,131471,1,8,0:3:0:0:
300,199,131548,1,8,0:3:0:0:
305,229,131627,6,0,P|294:277|293:331,1,88.000002685547,4|0,0:0|0:0,0:0:0:0:
379,194,131936,2,0,P|334:157|279:163,1,88.000002685547,2|0,0:2|0:0,0:0:0:0:
145,211,132245,1,10,0:0:0:0:
245,97,132400,2,0,L|252:7,1,88.000002685547,2|0,0:2|0:0,0:0:0:0:
110,97,132709,2,0,L|116:184,1,88.000002685547,2|2,0:2|0:0,0:0:0:0:
5,278,133019,1,8,0:0:0:0:
5,278,133328,5,0,0:0:0:0:
158,320,133482,1,10,0:0:0:0:
39,205,133637,2,0,P|40:163|82:103,1,88.000002685547,4|2,0:3|0:2,0:0:0:0:
180,48,133946,1,8,0:0:0:0:
139,169,134101,5,4,0:0:0:0:
102,21,134256,1,4,0:3:0:0:
147,200,134410,2,0,L|275:203,1,111.999996582031,4|0,0:0|0:0,0:0:0:0:
367,321,134720,2,0,P|330:277|329:223,1,80,12|0,0:0|0:0,0:0:0:0:
388,130,135029,1,0,0:0:0:0:
388,130,135183,1,4,0:3:0:0:
274,90,135338,6,0,L|272:178,1,88.000002685547,0|4,0:0|0:3,0:0:0:0:
218,281,135647,1,4,0:3:0:0:
218,281,135802,1,4,0:3:0:0:
174,162,135957,5,6,0:3:0:0:
103,234,136111,1,4,0:3:0:0:
31,162,136266,1,12,0:0:0:0:
103,90,136421,1,4,0:3:0:0:
103,234,136575,6,0,L|97:355,2,88.000002685547,4|0|4,0:0|0:0|0:3,0:0:0:0:
228,178,137034,1,0,0:0:0:0:
63,119,137187,2,0,P|111:85|240:94,1,176.000005371094,8|4,0:0|0:3,0:0:0:0:
201,184,137646,2,0,L|198:291,1,88.000002685547,4|2,0:3|0:3,0:0:0:0:
308,336,137952,2,0,P|339:290|308:167,1,176.000005371094,8|4,0:0|0:3,0:0:0:0:
188,96,138411,5,8,0:0:0:0:
322,58,138615,1,8,0:0:0:0:
133,22,138819,1,8,0:0:0:0:
341,76,139023,6,0,L|346:178,1,88.000002685547,4|0,0:0|0:0,0:0:0:0:
268,259,139330,1,4,0:3:0:0:
398,287,139483,1,0,0:0:0:0:
253,360,139636,2,0,P|194:331|185:231,1,132.00000402832,8|0,0:0|0:0,0:0:0:0:
185,238,139942,1,4,0:3:0:0:
88,308,140095,2,0,L|-12:302,2,88.000002685547,4|0|8,0:3|0:3|0:0,0:0:0:0:
20,158,140554,2,0,L|107:152,1,88.000002685547,0|4,0:0|0:3,0:0:0:0:
248,238,140860,5,8,0:0:0:0:
281,49,141064,1,8,0:0:0:0:
107,152,141268,1,8,0:0:0:0:
326,219,141472,6,0,L|445:211,2,88.000002685547,4|0|4,0:0|0:0|0:3,0:0:0:0:
199,332,141932,1,0,0:0:0:0:
112,255,142085,2,0,P|148:265|251:177,1,176.000005371094,8|4,0:0|0:3,0:0:0:0:
210,87,142544,1,4,0:3:0:0:
210,87,142697,1,2,0:3:0:0:
322,153,142850,2,0,L|326:337,1,176.000005371094,8|4,0:0|0:3,0:0:0:0:
405,235,143309,5,8,0:0:0:0:
249,188,143513,1,8,0:0:0:0:
432,122,143717,1,8,0:0:0:0:
232,72,143921,6,0,L|237:184,1,88.000002685547,4|4,0:0|0:3,0:0:0:0:
314,302,144228,1,4,0:3:0:0:
223,267,144381,1,0,0:0:0:0:
374,191,144534,2,0,P|392:157|380:56,1,132.00000402832,8|0,0:0|0:0,0:0:0:0:
366,36,144840,1,4,0:3:0:0:
198,111,144993,2,0,B|232:128|232:128|311:111,1,88.000002685547,4|0,0:3|0:0,0:0:0:0:
485,196,145299,6,0,L|362:190,1,111.999996582031,8|4,0:0|0:3,0:0:0:0:
281,264,145682,1,4,0:3:0:0:
281,264,145758,6,0,B|221:270|221:270|195:262|195:262|122:268,2,138.666660319011,8|8|8,0:0|0:0|0:0,0:0:0:0:
396,335,146370,6,0,P|419:268|401:221,2,88.000002685547,6|2|6,0:2|0:2|0:3,0:0:0:0:
466,171,146830,1,0,0:0:0:0:
466,171,146983,2,0,L|349:174,1,88.000002685547,10|0,0:2|0:0,0:0:0:0:
281,264,147289,1,4,0:3:0:0:
268,150,147442,1,4,0:3:0:0:
268,150,147748,6,0,L|157:145,2,88.000002685547,10|0|4,0:2|0:2|0:3,0:0:0:0:
399,255,148207,5,10,0:2:0:0:
432,118,148411,1,10,0:2:0:0:
334,16,148615,1,14,0:2:0:0:
223,129,148819,6,0,L|336:122,2,88.000002685547,6|2|6,0:0|0:0|0:3,0:0:0:0:
112,247,149279,1,0,0:0:0:0:
112,247,149432,2,0,P|85:191|88:138,1,88.000002685547,10|0,0:2|0:0,0:0:0:0:
217,34,149738,1,4,0:3:0:0:
217,34,149891,1,4,0:3:0:0:
217,34,150197,6,0,L|310:29,1,88.000002685547,10|0,0:2|0:2,0:0:0:0:
430,105,150503,1,4,0:3:0:0:
430,105,150580,1,4,0:3:0:0:
430,105,150656,5,10,0:2:0:0:
314,185,150860,1,10,0:2:0:0:
440,247,151064,1,14,0:2:0:0:
336,88,151268,6,0,L|340:-2,2,88.000002685547,6|2|6,0:2|0:2|0:3,0:0:0:0:
242,233,151728,1,0,0:0:0:0:
242,233,151881,2,0,P|231:173|252:121,1,88.000002685547,10|0,0:2|0:0,0:0:0:0:
310,314,152187,1,4,0:3:0:0:
200,360,152340,1,4,0:3:0:0:
200,360,152646,6,0,L|208:261,1,88.000002685547,10|0,0:2|0:0,0:0:0:0:
319,142,152952,1,4,0:3:0:0:
319,142,153029,1,4,0:3:0:0:
319,142,153105,5,10,0:2:0:0:
180,114,153309,1,10,0:2:0:0:
42,83,153513,1,14,0:2:0:0:
108,253,153717,6,0,P|129:201|123:157,2,88.000002685547,6|2|6,0:2|0:2|0:3,0:0:0:0:
238,355,154177,1,0,0:0:0:0:
314,284,154330,2,0,L|217:284,1,88.000002685547,10|0,0:2|0:0,0:0:0:0:
84,358,154636,1,4,0:3:0:0:
84,358,154789,1,4,0:3:0:0:
84,358,155095,6,0,L|81:264,1,88.000002685547,10|0,0:2|0:0,0:0:0:0:
140,154,155401,1,4,0:3:0:0:
140,154,155478,1,4,0:3:0:0:
140,154,155554,5,10,0:2:0:0:
305,205,155784,1,10,0:2:0:0:
81,270,156013,1,14,0:2:0:0:
