osu file format v14

[General]
AudioFilename: audio.mp3
AudioLeadIn: 0
PreviewTime: -1
Countdown: 0
SampleSet: Normal
StackLeniency: 0.7
Mode: 0
LetterboxInBreaks: 0
WidescreenStoryboard: 1

[Editor]
DistanceSpacing: 3.6
BeatDivisor: 4
GridSize: 32
TimelineZoom: 2.2

[Metadata]
Title:Front to Back
TitleUnicode:Front to Back
Artist:Buku
ArtistUnicode:Buku
Creator:Elniona
Version:Easy
Source:
Tags:
BeatmapID:1419781
BeatmapSetID:671504

[Difficulty]
HPDrainRate:3
CircleSize:2.5
OverallDifficulty:2
ApproachRate:3
SliderMultiplier:1.4
SliderTickRate:1

[Events]
//Background and Video events
0,0,"lol.jpg",0,0
//Break Periods
2,123712,134072
2,160065,222660
//Storyboard Layer 0 (Background)
//Storyboard Layer 1 (Fail)
//Storyboard Layer 2 (Pass)
//Storyboard Layer 3 (Foreground)
//Storyboard Sound Samples

[TimingPoints]
95,352.941176470588,4,1,0,100,1,0
1395,352.941176470588,4,1,0,100,1,0
3159,-200,4,1,0,100,0,0
67759,-200,4,1,0,100,0,1
88229,-200,4,1,0,100,0,0
158100,-200,4,1,0,100,0,1
158100,-200,4,1,0,100,0,1
178581,-200,4,1,0,100,0,0

[Colours]
Combo1 : 0,0,128
Combo2 : 255,255,255
Combo3 : 64,128,128
Combo4 : 128,128,128
Combo5 : 0,64,128
Combo6 : 147,211,236

[HitObjects]
202,208,22218,5,0,0:0:0:0:
154,130,22571,2,0,P|101:171|112:247,1,151.666666666667
264,130,24689,6,0,P|312:102|311:21,1,140
206,56,27865,5,0,0:0:0:0:
117,80,28218,2,0,P|75:135|105:200,1,140
201,169,30336,6,0,P|223:225|175:288,1,140
84,285,33512,5,0,0:0:0:0:
104,196,33865,2,0,P|153:148|224:158,1,140
204,254,35983,6,0,P|264:263|318:206,1,140
236,160,39159,5,0,0:0:0:0:
213,72,39512,2,0,P|289:78|325:128,1,140
313,217,41630,6,0,P|352:270|421:268,1,140
367,144,45159,6,0,P|324:79|252:78,1,140
253,171,46218,2,0,P|222:193|229:290,1,140
309,248,47277,2,0,P|380:243|415:180,1,140
331,155,48336,2,0,P|306:120|305:92,1,70
413,66,49042,1,0,0:0:0:0:
332,4,49394,2,0,P|242:11|204:50,1,140
151,128,50453,1,0,0:0:0:0:
79,65,50806,2,0,P|46:126|73:187,1,140
42,273,51865,2,0,P|119:281|167:228,1,140
164,140,52924,2,0,P|235:165|252:232,1,140
239,311,53983,1,0,0:0:0:0:
326,293,54336,1,0,0:0:0:0:
359,210,54689,1,0,0:0:0:0:
425,280,55042,2,0,P|457:222|430:148,1,140
371,82,56100,1,0,0:0:0:0:
295,144,56453,2,0,P|216:141|182:86,1,140
269,57,57512,2,0,P|224:5|155:6,1,140
64,63,58571,1,0,0:0:0:0:
64,63,58924,1,0,0:0:0:0:
66,163,59277,2,0,P|103:219|184:219,1,140
153,133,60336,2,0,P|196:100|279:112,1,140
263,202,61394,2,0,P|271:241|252:278,1,70
164,292,62100,1,0,0:0:0:0:
234,350,62453,1,0,0:0:0:0:
326,336,62806,1,0,0:0:0:0:
384,263,63159,2,0,P|385:189|345:139,1,140
380,58,64218,2,0,P|335:49|300:64,1,70
256,192,64924,12,0,67394,0:0:0:0:
88,166,67747,6,8,P|137:102|196:95,1,140
247,181,68806,1,0,0:0:0:0:
304,267,69159,2,0,P|341:240|354:210,1,70
355,120,69865,1,0,0:0:0:0:
296,46,70218,1,0,0:0:0:0:
200,35,70571,2,8,P|133:57|107:119,1,140
213,138,71630,2,8,P|203:202|138:242,1,140
121,147,72689,1,0,0:0:0:0:
139,50,73042,1,0,0:0:0:0:
139,50,73394,2,0,P|195:39|263:85,1,140
305,173,74453,2,0,P|370:173|421:118,1,140
512,181,75512,2,0,P|492:222|466:240,1,70
395,298,76218,1,0,0:0:0:0:
292,292,76571,1,0,0:0:0:0:
222,223,76924,1,0,0:0:0:0:
317,183,77277,2,0,P|268:124|199:113,1,140
97,56,78336,1,8,0:0:0:0:
97,56,78689,1,12,0:0:0:0:
97,56,79042,2,12,L|97:200,1,140
4,233,80100,2,0,P|35:303|97:313,1,140
177,257,81159,1,0,0:0:0:0:
243,177,81512,2,0,P|282:183|308:204,1,70
253,321,82218,1,0,0:0:0:0:
350,306,82571,1,0,0:0:0:0:
425,247,82924,2,0,P|447:182|412:117,1,140
318,162,83983,2,0,P|298:195|266:210,1,70
170,202,84689,1,0,0:0:0:0:
83,263,85042,2,0,P|59:237|55:195,1,70
54,106,85747,2,0,P|92:49|164:32,1,140
253,49,86806,1,0,0:0:0:0:
193,131,87159,2,0,P|233:154|263:152,1,70
339,106,87865,2,0,P|360:135|360:174,1,70
333,254,88571,1,0,0:0:0:0:
258,305,88924,1,0,0:0:0:0:
167,310,89277,1,0,0:0:0:0:
79,341,89630,2,0,P|87:252|131:230,1,140
233,241,90689,2,0,P|260:197|256:173,1,70
168,148,91394,1,0,0:0:0:0:
168,148,91747,1,0,0:0:0:0:
116,55,92100,2,0,P|158:27|183:30,1,70
273,36,92806,1,0,0:0:0:0:
225,128,93159,2,0,P|284:142|355:99,1,140
366,10,94218,2,0,P|424:39|449:111,1,140
437,205,95277,1,0,0:0:0:0:
364,257,95630,1,0,0:0:0:0:
438,314,95983,2,0,P|376:347|308:330,1,140
276,221,97042,2,0,P|213:249|187:312,1,140
300,324,98100,1,0,0:0:0:0:
401,334,98453,2,0,P|400:290|378:264,1,70
441,199,99159,2,0,P|416:181|373:176,1,70
303,221,99865,2,0,P|286:158|335:98,1,140
214,82,100924,1,0,0:0:0:0:
214,82,101277,1,0,0:0:0:0:
214,82,101630,2,0,P|165:118|91:84,1,140
57,187,102689,1,0,0:0:0:0:
100,268,103042,1,0,0:0:0:0:
185,298,103394,2,0,P|219:290|238:248,1,70
179,184,104100,2,0,P|189:151|230:132,1,70
319,175,104806,1,0,0:0:0:0:
319,175,105159,1,0,0:0:0:0:
378,251,105512,2,0,P|423:202|421:131,1,140
382,53,106571,1,0,0:0:0:0:
292,57,106924,1,0,0:0:0:0:
254,137,107277,2,0,P|177:146|134:93,1,140
97,23,108336,2,0,P|54:44|36:70,1,70
59,148,109042,2,0,P|71:190|57:219,1,70
38,301,109747,1,0,0:0:0:0:
128,339,110100,2,0,P|205:324|231:268,1,140
150,237,111159,1,0,0:0:0:0:
210,170,111512,1,0,0:0:0:0:
298,187,111865,1,0,0:0:0:0:
256,192,112218,12,0,112924,0:0:0:0:
180,83,113983,5,0,0:0:0:0:
180,83,114336,1,0,0:0:0:0:
91,45,114689,2,0,P|69:73|73:112,1,70
140,174,115394,2,0,P|169:191|183:229,1,70
100,267,116100,1,0,0:0:0:0:
149,339,116453,1,0,0:0:0:0:
238,353,116806,2,0,P|294:303|285:238,1,140
207,199,117865,1,0,0:0:0:0:
286,150,118218,2,0,P|329:155|352:174,1,70
402,244,118924,2,0,P|439:233|463:196,1,70
456,89,119630,1,0,0:0:0:0:
456,89,119983,1,0,0:0:0:0:
332,124,120336,2,0,P|296:130|264:106,1,70
214,38,121042,1,0,0:0:0:0:
121,26,121394,2,0,P|69:51|58:135,1,140
157,121,122453,2,0,P|164:171|101:232,1,140
16,238,123512,1,0,0:0:0:0:
145,240,135512,6,0,P|188:305|260:306,1,140
259,213,136571,2,0,P|290:191|283:94,1,140
203,136,137630,2,0,P|132:141|97:204,1,140
181,229,138689,2,0,P|206:264|207:292,1,70
99,318,139395,1,0,0:0:0:0:
180,380,139747,2,0,P|270:373|308:334,1,140
361,256,140806,1,0,0:0:0:0:
433,319,141159,2,0,P|466:258|439:197,1,140
470,111,142218,2,0,P|393:103|345:156,1,140
348,244,143277,2,0,P|277:219|260:152,1,140
273,73,144336,1,0,0:0:0:0:
186,91,144689,1,0,0:0:0:0:
153,174,145042,1,0,0:0:0:0:
87,104,145395,2,0,P|55:162|82:236,1,140
141,302,146453,1,0,0:0:0:0:
217,240,146806,2,0,P|296:243|330:298,1,140
243,327,147865,2,0,P|288:379|357:378,1,140
448,321,148924,1,0,0:0:0:0:
448,321,149277,1,0,0:0:0:0:
446,221,149630,2,0,P|409:165|328:165,1,140
359,251,150689,2,0,P|316:284|233:272,1,140
249,182,151747,2,0,P|241:143|260:106,1,70
348,92,152453,1,0,0:0:0:0:
278,34,152806,1,0,0:0:0:0:
186,48,153159,1,0,0:0:0:0:
128,121,153512,2,0,P|127:195|167:245,1,140
132,326,154571,2,0,P|177:335|212:320,1,70
256,192,155277,12,0,157746,0:0:0:0:
157,112,158100,6,0,L|86:90,2,70
242,142,159159,1,0,0:0:0:0:
312,196,159512,1,0,0:0:0:0:
328,284,159865,1,0,0:0:0:0:
215,64,224100,5,0,0:0:0:0:
132,103,224453,1,0,0:0:0:0:
106,190,224806,1,0,0:0:0:0:
