osu file format v14

[General]
AudioFilename: Built By Titan The Darkness (ft. Svrcina).mp3
AudioLeadIn: 0
PreviewTime: 60317
Countdown: 0
SampleSet: Normal
StackLeniency: 0.7
Mode: 0
LetterboxInBreaks: 0
WidescreenStoryboard: 0

[Editor]
Bookmarks: 7699,45794,76270,83771,87342,106746,121983,152460,189841,240078
DistanceSpacing: 2
BeatDivisor: 2
GridSize: 4
TimelineZoom: 1.6

[Metadata]
Title:The Darkness
TitleUnicode:The Darkness
Artist:Built By Titan-ft. Svrcina
ArtistUnicode:Built By Titan-ft. Svrcina
Creator:Miss Mandii
Version:Exztra
Source:
Tags:Techno House
BeatmapID:845280
BeatmapSetID:334279

[Difficulty]
HPDrainRate:6.5
CircleSize:3.9
OverallDifficulty:8
ApproachRate:9.3
SliderMultiplier:1.6
SliderTickRate:1

[Events]
//Background and Video events
0,0,"pic2.jpg",0,0
//Break Periods
2,91710,106194
2,186471,188098
//Storyboard Layer 0 (Background)
//Storyboard Layer 1 (Fail)
//Storyboard Layer 2 (Pass)
//Storyboard Layer 3 (Foreground)
//Storyboard Sound Samples

[TimingPoints]
81,476.190476190476,4,2,0,40,1,0
7700,-142.857142857143,4,2,0,40,0,0
15080,-142.857142857143,4,2,0,5,0,0
15319,-142.857142857143,4,2,0,40,0,0
45795,-100,4,1,0,55,0,0
61033,-100,4,1,0,55,0,1
61271,-100,4,1,0,55,0,0
72461,-76.9230769230769,4,3,0,55,0,0
76271,-58.8235294117647,4,1,0,65,0,1
89604,-58.8235294117647,4,1,0,65,0,0
90080,-58.8235294117647,4,1,0,55,0,0
90557,-58.8235294117647,4,1,0,35,0,0
91033,-58.8235294117647,4,1,0,15,0,0
91509,-66.6666666666667,4,1,0,5,0,0
106747,-100,4,2,0,40,0,0
118175,-200,4,2,0,40,0,0
121271,-100,4,2,0,40,0,0
121985,-100,4,1,0,55,0,0
136985,-66.6666666666667,4,1,0,55,0,0
137223,-66.6666666666667,4,1,0,55,0,1
137461,-100,4,1,0,55,0,0
148652,-66.6666666666667,4,3,0,55,0,0
151985,-66.6666666666667,4,1,0,55,0,0
152342,-66.6666666666667,4,1,0,65,0,1
182938,-66.6666666666667,4,1,0,65,0,0
183414,-66.6666666666667,4,1,0,63,0,0
183890,-66.6666666666667,4,1,0,52,0,0
184366,-66.6666666666667,4,1,0,41,0,0
184842,-66.6666666666667,4,1,0,31,0,0
185319,-66.6666666666667,4,1,0,19,0,0
185795,-66.6666666666667,4,1,0,10,0,0
186271,-66.6666666666667,4,1,0,5,0,0
188890,-66.6666666666667,4,1,0,17,0,0
189128,-66.6666666666667,4,1,0,35,0,0
189366,-66.6666666666667,4,1,0,45,0,0
189604,-66.6666666666667,4,1,0,55,0,0
190557,-142.857142857143,4,2,0,55,0,0
191509,-83.3333333333333,4,2,0,55,0,0
194366,-142.857142857143,4,2,0,55,0,0
196271,-83.3333333333333,4,2,0,55,0,0
201985,-142.857142857143,4,2,0,55,0,0
203890,-100,4,2,0,55,0,0
206033,-100,4,2,0,52,0,0
206271,-100,4,2,0,49,0,0
206509,-100,4,2,0,46,0,0
206747,-100,4,2,0,43,0,0
206985,-100,4,2,0,40,0,0
207223,-100,4,2,0,37,0,0
207461,-100,4,2,0,34,0,0
208176,-100,4,2,0,37,0,0
208652,-100,4,2,0,46,0,0
209128,-66.6666666666667,4,2,0,55,0,0
209604,-66.6666666666667,4,2,0,55,0,1
224842,-66.6666666666667,4,2,0,20,0,0

[Colours]
Combo1 : 82,227,239
Combo2 : 128,255,128
Combo3 : 255,128,128
Combo4 : 255,255,0

[HitObjects]
240,204,7701,6,0,P|192:228|120:208,1,111.999996582031
168,328,8415,1,0,0:0:0:0:
136,128,8653,2,0,L|192:112,1,55.9999982910157
64,152,9129,1,0,0:0:0:0:
272,88,9367,5,0,0:0:0:0:
280,96,9843,1,0,0:0:0:0:
288,104,10320,1,0,0:0:0:0:
156,264,10558,1,0,0:0:0:0:
164,268,11034,2,0,L|236:284,1,55.9999982910157
215,87,11510,5,0,0:0:0:0:
363,208,11748,1,0,0:0:0:0:
185,275,11986,1,0,0:0:0:0:
332,96,12224,5,0,0:0:0:0:
298,304,12462,1,0,0:0:0:0:
133,171,12701,1,0,0:0:0:0:
300,308,12939,1,0,0:0:0:0:
332,96,13177,5,0,0:0:0:0:
324,104,13653,1,0,0:0:0:0:
316,112,14129,1,0,0:0:0:0:
164,320,14367,2,0,B|132:272|164:208|164:208|120:184,1,167.999994873047
32,240,15319,1,0,0:0:0:0:
168,72,15796,5,0,0:0:0:0:
108,276,16034,1,0,0:0:0:0:
300,184,16272,2,0,B|292:116|214:87,1,111.999996582031
368,88,16986,1,0,0:0:0:0:
376,104,17462,1,0,0:0:0:0:
384,124,17939,5,0,0:0:0:0:
348,280,18177,2,0,L|232:320,1,111.999996582031
432,252,18891,1,0,0:0:0:0:
276,108,19129,5,0,0:0:0:0:
138,194,19367,1,0,0:0:0:0:
175,335,19605,1,0,0:0:0:0:
289,99,19843,5,0,0:0:0:0:
116,159,20081,1,0,0:0:0:0:
133,321,20320,1,0,0:0:0:0:
40,168,20558,5,0,0:0:0:0:
116,300,20796,2,0,L|172:264,1,55.9999982910157
400,360,21272,2,0,L|363:298,1,55.9999982910157
288,196,21748,1,0,0:0:0:0:
168,32,21986,2,0,P|151:62|72:88,1,111.999996582031
81,89,22939,5,0,0:0:0:0:
248,152,23177,1,0,0:0:0:0:
84,264,23415,1,0,0:0:0:0:
252,284,23653,1,0,0:0:0:0:
116,148,23891,5,0,0:0:0:0:
280,312,24129,1,0,0:0:0:0:
224,56,24367,1,0,0:0:0:0:
320,172,24605,6,0,L|368:120,2,55.9999982910157
356,304,25320,2,0,P|392:296|416:272,2,55.9999982910157
192,160,26034,2,0,P|200:136|232:96,2,55.9999982910157
408,80,26748,5,0,0:0:0:0:
440,204,26986,1,0,0:0:0:0:
332,336,27224,1,0,0:0:0:0:
196,304,27462,1,0,0:0:0:0:
295,179,27700,1,0,0:0:0:0:
408,232,27938,1,0,0:0:0:0:
307,313,28176,1,0,0:0:0:0:
176,216,28415,6,0,P|211:180|246:172,1,55.9999982910157
426,224,28890,2,0,P|389:207|364:180,1,55.9999982910157
264,26,29367,1,0,0:0:0:0:
64,144,29605,2,0,B|83:196|141:223|141:223|93:248|62:302,1,223.999993164063
140,224,30796,5,0,0:0:0:0:
288,168,31034,1,0,0:0:0:0:
216,32,31272,1,0,0:0:0:0:
252,296,31510,2,0,B|271:309|340:292|356:248,1,111.999996582031
172,320,32224,1,0,0:0:0:0:
356,248,32462,5,0,0:0:0:0:
68,276,32700,1,0,0:0:0:0:
268,204,32939,1,0,0:0:0:0:
84,144,33177,1,0,0:0:0:0:
236,48,33415,1,0,0:0:0:0:
304,224,33653,1,0,0:0:0:0:
336,28,33891,1,0,0:0:0:0:
244,272,34129,1,0,0:0:0:0:
72,224,34366,6,0,P|85:252|116:284,1,55.9999982910157
328,148,34842,2,0,P|320:116|288:88,1,55.9999982910157
116,280,35320,1,0,0:0:0:0:
252,64,35557,2,0,L|201:38,1,55.9999982910157
46,130,36033,6,0,L|55:195,1,55.9999982910157
256,192,36509,2,0,L|255:263,1,55.9999982910157
463,251,36985,2,0,L|448:324,1,55.9999982910157,2|0,0:0|0:0,0:0:0:0:
324,308,37461,2,0,L|272:276,2,55.9999982910157
104,272,38177,5,0,0:0:0:0:
220,300,38414,1,0,0:0:0:0:
368,140,38652,1,0,0:0:0:0:
328,260,38890,1,0,0:0:0:0:
184,144,39129,2,0,P|120:96|72:96,1,111.999996582031
220,64,39843,1,0,0:0:0:0:
256,192,40081,5,0,0:0:0:0:
108,256,40320,1,0,0:0:0:0:
252,76,40558,1,0,0:0:0:0:
348,260,40796,1,0,0:0:0:0:
72,228,41034,1,0,0:0:0:0:
296,16,41271,1,0,0:0:0:0:
380,328,41509,2,0,P|340:364|268:368,1,111.999996582031
128,256,42224,5,0,0:0:0:0:
364,224,42462,1,0,0:0:0:0:
296,76,42701,1,0,0:0:0:0:
372,304,42938,1,0,0:0:0:0:
188,184,43176,1,0,0:0:0:0:
408,88,43414,2,0,L|356:120,1,55.9999982910157
332,322,43891,5,0,0:0:0:0:
126,266,44129,1,0,0:0:0:0:
116,56,44367,5,0,0:0:0:0:
322,112,44604,1,0,0:0:0:0:
248,328,44842,5,0,0:0:0:0:
68,156,45080,1,0,0:0:0:0:
284,32,45319,5,0,0:0:0:0:
164,280,45558,1,0,0:0:0:0:
192,72,45796,5,0,0:0:0:0:
256,304,46034,1,0,0:0:0:0:
372,160,46271,2,0,L|332:172,1,40,8|0,0:0|0:0,0:0:0:0:
296,220,46509,2,0,L|344:204,1,40,0|8,0:0|0:0,0:0:0:0:
144,192,46986,1,0,0:0:0:0:
409,206,47223,2,0,L|367:209,1,40,8|0,0:0|0:0,0:0:0:0:
304,260,47461,2,0,L|359:251,1,40,0|8,0:0|0:0,0:0:0:0:
124,160,47939,5,0,0:0:0:0:
421,262,48176,2,0,L|381:249,1,40,8|0,0:0|0:0,0:0:0:0:
288,292,48414,2,0,L|342:304,1,40,0|8,0:0|0:0,0:0:0:0:
192,104,48891,1,0,0:0:0:0:
80,316,49129,1,8,0:0:0:0:
110,324,49248,1,0,0:0:0:0:
147,318,49367,1,0,0:0:0:0:
177,292,49486,1,0,0:0:0:0:
312,144,49843,5,0,0:0:0:0:
396,312,50081,2,0,L|428:252,1,40,8|0,0:0|0:0,0:0:0:0:
420,80,50320,2,0,L|401:115,1,40
376,168,50796,5,0,0:0:0:0:
396,312,51034,2,0,L|412:239,1,40,8|0,0:0|0:0,0:0:0:0:
296,64,51272,2,0,L|286:106,1,40
272,168,51748,5,0,0:0:0:0:
396,312,51986,2,0,L|396:237,1,40,8|0,0:0|0:0,0:0:0:0:
148,72,52224,2,0,L|146:115,1,40
144,176,52701,5,0,0:0:0:0:
396,312,52939,2,0,L|380:238,1,40,8|0,0:0|0:0,0:0:0:0:
344,210,53177,1,0,0:0:0:0:
384,143,53296,1,8,0:0:0:0:
400,72,53652,5,0,0:0:0:0:
264,156,53891,2,0,L|200:160,1,40,8|0,0:0|0:0,0:0:0:0:
152,208,54129,1,0,0:0:0:0:
208,272,54248,1,8,0:0:0:0:
348,96,54604,5,0,0:0:0:0:
216,216,54843,2,0,L|146:205,1,40,8|0,0:0|0:0,0:0:0:0:
80,228,55081,1,0,0:0:0:0:
112,132,55201,1,8,0:0:0:0:
304,120,55557,5,0,0:0:0:0:
112,160,55796,2,0,L|45:135,1,40,8|0,0:0|0:0,0:0:0:0:
103,269,56034,1,0,0:0:0:0:
218,287,56153,1,8,0:0:0:0:
240,100,56509,1,0,0:0:0:0:
108,280,56748,2,0,L|44:308,2,40,8|0|0,0:0|0:0|0:0,0:0:0:0:
212,312,57105,1,0,0:0:0:0:
256,68,57462,5,0,0:0:0:0:
277,282,57701,2,0,L|308:322,1,40,8|0,0:0|0:0,0:0:0:0:
404,264,57939,1,0,0:0:0:0:
393,303,58058,1,0,0:0:0:0:
224,56,58415,5,0,0:0:0:0:
269,307,58653,2,0,L|308:357,1,40,8|0,0:0|0:0,0:0:0:0:
416,275,58890,1,0,0:0:0:0:
410,314,59009,1,0,0:0:0:0:
184,36,59367,5,0,0:0:0:0:
264,312,59604,2,0,L|288:368,1,40,8|0,0:0|0:0,0:0:0:0:
427,290,59843,1,0,0:0:0:0:
419,335,59962,1,0,0:0:0:0:
84,56,60320,6,0,L|164:64,1,80
440,312,60795,2,0,L|360:305,1,80
348,104,61509,2,0,P|280:108|208:32,1,160,0|8,0:0|0:0,0:0:0:0:
68,56,62223,5,0,0:0:0:0:
32,240,62461,1,0,0:0:0:0:
224,28,62700,2,0,L|203:107,1,80
128,320,63176,2,0,B|188:372|276:364|276:364|240:320|264:268,1,240,0|8,0:0|0:0,0:0:0:0:
292,60,64128,5,0,0:0:0:0:
480,320,64366,1,0,0:0:0:0:
268,304,64604,2,0,L|188:328,1,80
340,188,65080,2,0,B|348:124|383:108|437:106|479:137|461:214|417:218|396:177,1,240,0|8,0:0|0:0,0:0:0:0:
252,64,66033,5,0,0:0:0:0:
164,300,66271,1,0,0:0:0:0:
48,208,66509,2,0,P|24:172|24:136,1,80
364,48,66985,2,0,B|436:92|436:92|388:172|388:172|424:200|428:244,1,240,0|8,0:0|0:0,0:0:0:0:
404,84,67938,5,0,0:0:0:0:
300,236,68176,1,0,0:0:0:0:
294,56,68414,1,0,0:0:0:0:
408,200,68652,5,8,0:0:0:0:
229,59,68890,1,0,0:0:0:0:
288,256,69129,1,8,0:0:0:0:
412,75,69367,1,0,0:0:0:0:
480,256,69605,5,8,0:0:0:0:
304,316,69843,1,0,0:0:0:0:
424,104,70081,1,8,0:0:0:0:
220,216,70320,1,0,0:0:0:0:
180,48,70558,5,8,0:0:0:0:
24,192,70796,1,0,0:0:0:0:
136,348,71034,1,8,0:0:0:0:
112,112,71272,1,0,0:0:0:0:
344,104,71509,5,8,0:0:0:0:
224,320,71748,1,0,0:0:0:0:
468,264,71986,1,8,0:0:0:0:
320,24,72224,1,0,0:0:0:0:
128,220,72462,6,0,L|161:258,1,51.999997619629
260,128,72700,2,0,L|228:87,1,51.999997619629
116,232,72938,6,0,L|154:288,1,51.999997619629
265,123,73176,2,0,L|228:64,1,51.999997619629
104,244,73414,6,0,L|128:292,1,51.999997619629
272,116,73652,2,0,L|248:68,1,51.999997619629
92,256,73890,6,0,L|112:308,1,51.999997619629
284,108,74128,2,0,L|264:56,1,51.999997619629
136,212,74366,5,0,0:0:0:0:
206,245,74485,1,0,0:0:0:0:
283,256,74604,1,0,0:0:0:0:
358,236,74723,1,0,0:0:0:0:
397,166,74842,1,0,0:0:0:0:
341,78,74961,1,0,0:0:0:0:
242,44,75080,1,0,0:0:0:0:
141,71,75199,1,0,0:0:0:0:
80,156,75319,6,0,L|56:144,7,25.9999988098145
56,264,75796,2,8,L|88:304,1,51.999997619629
216,332,76034,1,8,0:0:0:0:
328,228,76153,1,8,1:0:0:0:
176,72,76509,6,8,P|132:76|60:156,1,136.000002593994,0|8,0:0|0:0,0:0:0:0:
64,260,76866,2,0,P|92:292|132:296,1,68.0000012969971
324,266,77104,1,0,0:0:0:0:
174,60,77462,6,8,P|128:59|45:134,1,136.000002593994,0|8,0:0|0:0,0:0:0:0:
48,268,77820,2,0,P|74:304|115:313,1,68.0000012969971
353,251,78058,1,0,0:0:0:0:
181,49,78414,6,0,P|134:43|40:111,1,136.000002593994,0|8,0:0|0:0,0:0:0:0:
28,276,78771,2,0,P|51:316|92:329,1,68.0000012969971
386,237,79010,1,0,0:0:0:0:
181,49,79367,6,0,P|165:137|112:172,1,136.000002593994,0|8,0:0|0:0,0:0:0:0:
268,268,79724,2,0,P|308:264|340:232,1,68.0000012969971
352,128,79962,1,0,0:0:0:0:
249,49,80081,6,0,L|177:49,2,68.0000012969971
384,152,80557,2,0,L|456:152,2,68.0000012969971,8|0|0,0:0|0:0|0:0,0:0:0:0:
113,202,81033,2,0,L|28:184,2,68.0000012969971
416,276,81510,2,0,L|492:320,2,68.0000012969971,8|0|0,0:0|0:0|0:0,0:0:0:0:
143,321,81985,6,0,L|66:287,2,68.0000012969971,2|0|0,0:0|0:0|0:0,0:0:0:0:
160,192,82342,1,0,0:0:0:0:
124,79,82462,2,0,L|158:2,2,68.0000012969971,8|0|0,0:0|0:0|0:0,0:0:0:0:
256,96,82819,1,0,0:0:0:0:
367,60,82938,2,0,L|443:94,2,68.0000012969971,2|0|0,0:0|0:0|0:0,0:0:0:0:
352,192,83295,1,0,0:0:0:0:
385,303,83415,2,0,L|345:396,2,68.0000012969971,8|0|0,0:0|0:0|0:0,0:0:0:0:
454,132,83772,6,0,P|464:100|336:72,1,204.000003890991,2|0,0:0|0:0,0:0:0:0:
176,316,84366,1,8,0:0:0:0:
156,353,84485,1,0,0:0:0:0:
412,320,84723,6,0,P|492:324|456:220,1,204.000003890991,2|0,0:0|0:0,0:0:0:0:
116,180,85319,1,8,0:0:0:0:
76,184,85438,1,0,0:0:0:0:
232,324,85676,6,0,P|256:348|352:252,1,204.000003890991,2|0,0:0|0:0,0:0:0:0:
164,40,86271,1,8,0:0:0:0:
132,16,86390,1,0,0:0:0:0:
64,232,86628,6,0,P|44:272|160:316,1,204.000003890991,2|0,0:0|0:0,0:0:0:0:
412,80,87223,1,8,0:0:0:0:
438,45,87342,1,0,0:0:0:0:
288,208,87581,6,0,B|324:200|324:200|376:224|424:192,1,136.000002593994,10|0,0:0|0:0,0:0:0:0:
512,136,87938,1,0,0:0:0:0:
320,312,88177,2,0,L|252:320,1,68.0000012969971,8|0,0:0|0:0,0:0:0:0:
96,32,88533,6,0,P|28:60|4:144,1,136.000002593994,2|0,0:0|0:0,0:0:0:0:
103,132,88890,1,0,0:0:0:0:
184,264,89128,1,8,0:0:0:0:
204,280,89247,1,0,0:0:0:0:
276,260,89366,1,0,0:0:0:0:
296,272,89485,1,0,0:0:0:0:
256,192,89605,12,0,91510,0:0:0:0:
72,240,106748,5,0,0:0:0:0:
216,280,106985,1,0,0:0:0:0:
316,72,107223,1,0,0:0:0:0:
232,296,107461,1,0,0:0:0:0:
72,104,107701,2,0,P|168:52|228:48,1,160
80,156,108414,1,0,0:0:0:0:
84,208,108890,1,0,0:0:0:0:
88,256,109366,1,0,0:0:0:0:
224,304,109605,5,0,0:0:0:0:
364,145,109843,1,0,0:0:0:0:
172,96,110081,2,0,L|95:76,1,80
252,304,110557,5,0,0:0:0:0:
376,72,110795,1,0,0:0:0:0:
460,188,111033,2,0,L|380:200,1,80
105,216,111509,2,0,P|114:178|144:152,1,80
348,168,111985,1,0,0:0:0:0:
176,268,112223,5,2,0:0:0:0:
456,92,112701,1,2,0:0:0:0:
96,176,113176,1,2,0:0:0:0:
68,208,114366,6,0,P|124:268|212:268,1,160
88,96,115081,1,0,0:0:0:0:
312,224,115319,1,0,0:0:0:0:
312,56,115557,1,0,0:0:0:0:
136,268,115795,1,0,1:0:0:0:
349,11,116033,1,8,1:0:0:0:
228,352,116271,1,8,1:0:0:0:
428,156,116747,6,0,P|400:200|360:216,1,80
148,128,117223,1,0,0:0:0:0:
72,248,117461,1,0,0:0:0:0:
428,156,117701,1,8,1:0:0:0:
176,52,117938,1,0,0:0:0:0:
224,288,118176,2,0,P|244:332|312:344,1,120
472,196,119128,5,0,0:0:0:0:
280,44,119366,1,0,0:0:0:0:
104,96,119604,1,0,0:0:0:0:
56,204,119842,1,0,0:0:0:0:
108,228,120319,1,0,0:0:0:0:
160,252,120795,1,0,0:0:0:0:
284,312,121271,2,0,L|200:272,2,80
428,188,121985,6,0,P|464:224|488:272,1,80
236,100,122461,1,8,0:0:0:0:
268,100,122580,1,0,0:0:0:0:
296,108,122701,1,0,0:0:0:0:
324,121,122819,1,8,0:0:0:0:
452,312,123177,5,0,0:0:0:0:
296,360,123414,1,8,0:0:0:0:
260,352,123533,1,0,0:0:0:0:
228,336,123652,1,0,0:0:0:0:
204,312,123772,1,8,0:0:0:0:
36,96,124128,6,0,P|40:140|44:204,1,80,0|8,0:0|0:0,0:0:0:0:
132,288,124485,2,0,L|160:324,2,40,0|0|8,0:0|0:0|0:0,0:0:0:0:
76,160,125080,5,0,0:0:0:0:
280,300,125319,2,0,L|316:328,3,40,8|0|0|0,0:0|0:0|0:0|0:0,0:0:0:0:
129,171,125915,6,0,L|196:155,1,40
382,212,126272,2,0,L|322:225,2,40,8|0|0,0:0|0:0|0:0,0:0:0:0:
296,276,126629,1,0,0:0:0:0:
119,147,126866,6,0,L|189:136,1,40
392,236,127224,2,0,L|329:244,2,40,8|0|0,0:0|0:0|0:0,0:0:0:0:
296,296,127581,1,0,0:0:0:0:
113,119,127820,6,0,L|187:116,1,40
398,264,128177,2,0,L|331:265,2,40,8|0|0,0:0|0:0|0:0,0:0:0:0:
296,308,128534,1,0,0:0:0:0:
113,88,128771,6,0,L|191:93,1,40
398,295,129129,2,0,L|328:289,1,40,8|0,0:0|0:0,0:0:0:0:
275,279,129366,1,0,0:0:0:0:
220,248,129485,1,8,0:0:0:0:
288,112,129843,5,0,0:0:0:0:
440,200,130081,2,0,L|384:240,1,40,8|0,0:0|0:0,0:0:0:0:
328,284,130320,1,0,0:0:0:0:
280,296,130438,1,8,0:0:0:0:
207,120,130796,5,0,0:0:0:0:
344,240,131033,2,0,L|281:271,1,40,8|0,0:0|0:0,0:0:0:0:
212,304,131272,1,0,0:0:0:0:
164,304,131391,1,8,0:0:0:0:
112,128,131748,5,0,0:0:0:0:
184,284,131985,2,0,L|123:297,1,40,8|0,0:0|0:0,0:0:0:0:
44,296,132224,1,0,0:0:0:0:
8,276,132343,1,8,0:0:0:0:
208,144,132701,5,0,0:0:0:0:
376,144,132939,2,0,L|386:217,1,40,8|0,0:0|0:0,0:0:0:0:
408,320,133176,2,0,L|416:276,1,40
400,80,133652,5,0,0:0:0:0:
256,152,133890,1,8,0:0:0:0:
232,164,134009,1,0,0:0:0:0:
92,108,134247,1,0,0:0:0:0:
410,76,134605,5,0,0:0:0:0:
256,153,134843,1,8,0:0:0:0:
230,166,134962,1,0,0:0:0:0:
82,106,135200,1,0,0:0:0:0:
421,73,135558,5,0,0:0:0:0:
256,155,135796,1,8,0:0:0:0:
229,169,135915,1,0,0:0:0:0:
72,105,136153,1,0,0:0:0:0:
398,65,136509,6,0,P|397:104|425:131,1,80
256,40,136986,2,0,P|248:107|280:160,1,120.000004577637
472,292,137461,2,0,B|495:303|504:336|504:336|408:396|320:320,1,240,0|8,0:0|0:0,0:0:0:0:
256,36,138415,5,0,0:0:0:0:
190,249,138652,1,0,0:0:0:0:
404,315,138890,2,0,L|432:232,1,80
469,101,139366,2,0,B|400:84|364:136|364:136|304:104|304:104|244:152,1,240,0|8,0:0|0:0,0:0:0:0:
148,120,140319,5,0,0:0:0:0:
384,280,140557,1,0,0:0:0:0:
112,96,140795,2,0,L|96:176,1,80
328,352,141271,2,0,B|360:240|480:312|484:172,1,240,0|8,0:0|0:0,0:0:0:0:
168,108,142224,6,0,P|128:124|104:180,2,80
168,108,143176,2,0,B|232:108|256:184|196:220|196:220|232:252|232:304,1,240,0|8,0:0|0:0,0:0:0:0:
7,192,144128,5,0,0:0:0:0:
84,216,144366,1,0,0:0:0:0:
164,184,144604,1,0,0:0:0:0:
194,30,144842,5,8,0:0:0:0:
321,157,145080,1,0,0:0:0:0:
155,205,145319,1,8,0:0:0:0:
299,109,145557,1,0,0:0:0:0:
465,257,145795,5,8,0:0:0:0:
439,39,146033,1,0,0:0:0:0:
251,165,146271,1,8,0:0:0:0:
460,69,146509,1,0,0:0:0:0:
324,184,146747,5,8,0:0:0:0:
136,336,146985,1,0,0:0:0:0:
156,108,147223,1,8,0:0:0:0:
260,336,147461,1,0,0:0:0:0:
204,72,147701,5,8,0:0:0:0:
216,348,147938,1,0,0:0:0:0:
264,52,148176,1,8,0:0:0:0:
164,352,148414,1,0,0:0:0:0:
308,84,148652,5,0,0:0:0:0:
364,109,148771,1,0,0:0:0:0:
405,159,148890,1,0,0:0:0:0:
410,221,149009,1,0,0:0:0:0:
385,274,149128,1,0,0:0:0:0:
342,240,149247,1,0,0:0:0:0:
290,217,149366,1,0,0:0:0:0:
232,219,149485,1,0,0:0:0:0:
176,240,149604,5,0,0:0:0:0:
145,177,149723,1,0,0:0:0:0:
153,104,149842,1,0,0:0:0:0:
187,41,149961,1,0,0:0:0:0:
253,9,150080,1,0,0:0:0:0:
327,10,150201,1,0,0:0:0:0:
395,37,150320,1,0,0:0:0:0:
449,84,150439,1,0,0:0:0:0:
491,142,150558,6,0,L|523:174,7,30.0000011444092
348,188,151034,2,8,L|272:204,3,60.0000022888184
456,260,151509,2,0,L|512:284,2,60.0000022888184,8|8|0,0:0|0:0|0:0,0:0:0:0:
196,280,151985,5,2,0:0:0:0:
135,195,152104,1,2,0:0:0:0:
149,89,152223,1,2,0:0:0:0:
250,21,152343,2,0,P|342:9|446:57,1,180.000006866455,4|0,0:0|0:0,0:0:0:0:
208,276,152938,5,8,0:0:0:0:
111,297,153057,1,0,0:0:0:0:
256,24,153295,2,0,P|348:15|450:66,1,180.000006866455
202,271,153890,5,8,0:0:0:0:
101,311,154009,1,0,0:0:0:0:
260,28,154247,2,0,P|352:22|453:77,1,180.000006866455
194,268,154842,5,8,0:0:0:0:
82,329,154961,1,0,0:0:0:0:
264,32,155201,2,0,P|356:29|455:88,1,180.000006866455
400,280,155795,1,8,0:0:0:0:
400,280,155914,1,0,0:0:0:0:
112,104,156152,1,0,0:0:0:0:
260,272,156509,6,0,P|343:260|388:242,1,120.000004577637,0|8,0:0|0:0,0:0:0:0:
428,124,156866,1,0,0:0:0:0:
144,152,157104,1,0,0:0:0:0:
264,274,157462,6,0,P|346:255|389:233,1,120.000004577637,0|8,0:0|0:0,0:0:0:0:
420,108,157819,1,0,0:0:0:0:
104,172,158058,1,0,0:0:0:0:
269,277,158414,6,0,P|349:251|390:225,1,120.000004577637,0|8,0:0|0:0,0:0:0:0:
404,96,158771,1,0,0:0:0:0:
68,192,159010,1,0,0:0:0:0:
274,280,159366,6,0,P|351:247|390:218,1,120.000004577637,0|8,0:0|0:0,0:0:0:0:
423,127,159723,1,0,0:0:0:0:
349,57,159842,1,0,0:0:0:0:
256,88,159962,6,0,P|212:144|192:64,1,180.000006866455,2|0,0:0|0:0,0:0:0:0:
96,264,160557,2,0,L|142:326,1,60.0000022888184,8|0,0:0|0:0,0:0:0:0:
256,88,160914,2,0,P|212:144|172:68,1,180.000006866455,2|0,0:0|0:0,0:0:0:0:
364,328,161509,2,0,L|344:264,1,60.0000022888184,8|0,0:0|0:0,0:0:0:0:
256,88,161866,6,0,P|212:144|148:68,1,180.000006866455,2|0,0:0|0:0,0:0:0:0:
460,104,162461,2,0,L|476:172,1,60.0000022888184,8|0,0:0|0:0,0:0:0:0:
256,88,162819,2,0,P|212:144|116:108,1,180.000006866455,2|0,0:0|0:0,0:0:0:0:
44,288,163414,2,0,L|31:347,1,60.0000022888184,8|0,0:0|0:0,0:0:0:0:
256,88,163771,6,0,P|204:132|228:236,1,180.000006866455,2|0,0:0|0:0,0:0:0:0:
472,168,164366,1,8,0:0:0:0:
500,184,164485,1,0,0:0:0:0:
320,178,164723,2,0,P|352:234|292:330,1,180.000006866455,2|0,0:0|0:0,0:0:0:0:
88,252,165319,1,8,0:0:0:0:
64,260,165438,1,0,0:0:0:0:
400,160,165676,1,0,0:0:0:0:
256,192,165795,12,8,167223,0:0:0:0:
124,184,167342,6,0,L|72:212,2,60.0000022888184
268,88,167820,1,0,0:0:0:0:
288,116,167938,1,0,0:0:0:0:
292,256,168176,2,0,L|356:288,1,60.0000022888184,8|0,0:0|0:0,0:0:0:0:
460,336,168533,1,0,0:0:0:0:
440,144,168771,5,0,0:0:0:0:
456,104,168890,1,0,0:0:0:0:
240,140,169128,1,8,0:0:0:0:
228,100,169247,1,0,0:0:0:0:
204,20,169485,1,0,0:0:0:0:
52,160,169723,5,0,0:0:0:0:
0,216,169842,1,0,0:0:0:0:
236,260,170080,1,8,0:0:0:0:
184,320,170201,1,0,0:0:0:0:
160,180,170438,1,0,0:0:0:0:
384,288,170676,5,0,0:0:0:0:
368,256,170796,1,0,0:0:0:0:
256,68,171033,1,8,0:0:0:0:
228,92,171152,1,0,0:0:0:0:
192,240,171390,1,0,0:0:0:0:
80,76,171628,6,0,L|120:136,1,60.0000022888184
240,284,171985,2,0,L|280:230,1,60.0000022888184,8|0,0:0|0:0,0:0:0:0:
372,96,172342,1,0,0:0:0:0:
196,28,172581,2,0,L|159:82,1,60.0000022888184
288,264,172939,2,0,L|340:308,1,60.0000022888184,8|0,0:0|0:0,0:0:0:0:
488,156,173296,1,0,0:0:0:0:
288,72,173533,6,0,L|356:104,1,60.0000022888184
212,204,173890,2,0,L|148:260,1,60.0000022888184,8|0,0:0|0:0,0:0:0:0:
64,328,174247,1,0,0:0:0:0:
64,128,174485,2,0,L|64:188,1,60.0000022888184
260,328,174842,2,0,L|264:268,1,60.0000022888184,8|0,0:0|0:0,0:0:0:0:
291,146,175080,1,0,0:0:0:0:
404,84,175201,6,0,P|432:140|408:204,1,120.000004577637,2|0,0:0|0:0,0:0:0:0:
336,280,175557,1,0,0:0:0:0:
124,208,175795,2,0,L|180:160,1,60.0000022888184,8|0,0:0|0:0,0:0:0:0:
8,232,176152,2,0,P|24:292|85:323,1,120.000004577637,2|0,0:0|0:0,0:0:0:0:
224,328,176510,1,0,0:0:0:0:
16,184,176747,2,0,L|88:232,1,60.0000022888184,8|0,0:0|0:0,0:0:0:0:
312,268,177104,6,0,P|320:216|276:148,1,120.000004577637,2|0,0:0|0:0,0:0:0:0:
176,240,177462,1,0,0:0:0:0:
120,64,177701,2,0,L|52:48,1,60.0000022888184,8|0,0:0|0:0,0:0:0:0:
68,248,178057,2,0,P|110:269|181:250,1,120.000004577637,2|0,0:0|0:0,0:0:0:0:
280,72,178414,1,0,0:0:0:0:
44,144,178652,1,8,0:0:0:0:
52,152,178771,1,0,0:0:0:0:
232,130,179009,6,0,P|248:187|232:244,1,120.000004577637,2|0,0:0|0:0,0:0:0:0:
20,304,179367,1,0,0:0:0:0:
140,88,179605,2,0,L|108:144,1,60.0000022888184,8|0,0:0|0:0,0:0:0:0:
372,132,179962,2,0,P|352:76|284:52,1,120.000004577637,2|0,0:0|0:0,0:0:0:0:
256,288,180320,1,0,0:0:0:0:
484,224,180557,1,8,0:0:0:0:
496,244,180676,1,0,0:0:0:0:
312,340,180914,6,0,P|258:288|248:228,1,120.000004577637,2|0,0:0|0:0,0:0:0:0:
388,48,181272,1,0,0:0:0:0:
260,160,181509,2,0,L|312:188,1,60.0000022888184,8|0,0:0|0:0,0:0:0:0:
316,88,181867,2,0,P|274:67|203:86,1,120.000004577637,2|0,0:0|0:0,0:0:0:0:
88,352,182224,1,0,0:0:0:0:
355,153,182461,1,8,0:0:0:0:
408,130,182580,1,0,0:0:0:0:
430,184,182701,1,0,0:0:0:0:
377,206,182819,1,8,0:0:0:0:
256,160,182939,5,0,2:2:0:0:
256,192,183057,12,0,186271,1:0:0:0:
256,192,188652,12,0,189604,0:0:0:0:
172,168,189842,5,0,0:0:0:0:
78,205,190080,1,0,0:0:0:0:
159,267,190319,1,0,0:0:0:0:
120,76,190558,6,0,B|156:60|156:60|176:24|176:24|200:32|228:24|228:24|268:32,1,167.999994873047
432,200,191510,2,0,P|331:145|173:230,1,287.999991210938,8|0,0:0|0:0,0:0:0:0:
166,265,192342,1,0,0:0:0:0:
161,291,192461,1,0,0:0:0:0:
84,168,193295,6,0,L|61:176,2,23.9999992675781
160,144,193533,2,0,L|200:92,1,47.9999985351563
424,224,193890,1,0,0:0:0:0:
481,239,194009,1,0,0:0:0:0:
484,302,194128,1,0,0:0:0:0:
426,321,194247,1,0,0:0:0:0:
387,273,194366,6,0,B|330:225|290:325|210:253,1,167.999994873047
472,112,195319,1,8,0:0:0:0:
384,262,196271,5,0,0:0:0:0:
472,112,196390,2,0,L|500:96,2,23.9999992675781
356,108,196628,1,0,0:0:0:0:
308,124,196747,1,0,0:0:0:0:
264,146,196866,2,0,L|244:191,1,47.9999985351563
164,370,197104,2,0,L|184:326,1,47.9999985351563
155,222,197342,1,0,0:0:0:0:
82,294,197461,1,0,0:0:0:0:
72,128,197641,5,0,0:0:0:0:
80,124,197701,2,0,L|156:132,1,47.9999985351563
392,160,198057,1,0,0:0:0:0:
344,284,198176,1,0,0:0:0:0:
102,255,198414,5,0,0:0:0:0:
71,295,198533,1,0,0:0:0:0:
123,301,198652,1,0,0:0:0:0:
56,102,198890,1,0,0:0:0:0:
53,50,199009,1,0,0:0:0:0:
100,76,199128,2,0,P|148:104|244:100,1,143.999995605469,8|0,0:0|0:0,0:0:0:0:
376,44,199604,2,0,L|348:92,1,47.9999985351563
460,248,199842,2,0,L|496:300,1,47.9999985351563
376,68,200081,6,0,L|348:116,1,47.9999985351563
488,244,200319,2,0,L|512:268,3,23.9999992675781
500,288,200557,2,0,P|460:288|340:332,1,167.999994873047
232,360,201033,2,0,L|184:344,2,47.9999985351563
68,200,201509,2,0,L|84:256,1,47.9999985351563
220,292,201747,1,0,0:0:0:0:
164,164,201866,1,0,0:0:0:0:
161,340,201986,6,0,P|239:367|297:305,1,167.999994873047
264,16,202938,1,8,0:0:0:0:
184,280,203890,5,0,0:0:0:0:
112,140,204128,1,0,0:0:0:0:
320,204,204366,1,0,0:0:0:0:
272,40,204604,1,0,0:0:0:0:
476,188,204842,2,0,L|472:144,1,40
460,24,205080,2,0,L|440:60,1,40
360,208,205319,2,0,L|344:228,3,20
294,142,205557,2,0,L|270:122,3,20
278,241,205795,6,0,L|270:269,3,20
221,152,206033,2,0,L|205:120,3,20
204,272,206271,2,0,L|200:304,3,20
154,173,206509,2,0,L|140:139,3,20
148,312,206747,2,0,L|140:344,3,20
20,328,206985,2,0,L|-11:320,3,20
4,200,207223,2,0,L|12:168,3,20
132,184,207461,2,0,L|164:192,3,20
256,192,207701,12,8,209128,1:0:0:0:
256,192,209604,5,0,0:0:0:0:
72,240,209842,1,0,0:0:0:0:
176,72,210081,2,0,L|112:92,1,60.0000022888184,8|0,0:0|0:0,0:0:0:0:
48,116,210438,1,0,0:0:0:0:
96,276,210795,1,0,0:0:0:0:
244,88,211033,2,0,L|180:104,1,60.0000022888184,8|0,0:0|0:0,0:0:0:0:
96,128,211391,1,0,0:0:0:0:
120,292,211747,5,0,0:0:0:0:
308,88,211985,2,0,L|248:108,1,60.0000022888184,8|0,0:0|0:0,0:0:0:0:
140,148,212343,1,0,0:0:0:0:
140,304,212701,1,0,0:0:0:0:
344,112,212938,2,0,L|276:140,1,60.0000022888184,8|0,0:0|0:0,0:0:0:0:
148,192,213296,1,0,0:0:0:0:
288,288,213533,6,0,L|324:340,1,60.0000022888184
400,116,213890,2,0,L|436:168,1,60.0000022888184,8|0,0:0|0:0,0:0:0:0:
408,368,214247,1,0,0:0:0:0:
288,288,214485,2,0,L|232:268,1,60.0000022888184
400,116,214842,2,0,L|440:72,1,60.0000022888184,8|0,0:0|0:0,0:0:0:0:
260,28,215201,1,0,0:0:0:0:
400,116,215438,6,0,L|424:172,1,60.0000022888184
260,276,215795,1,8,0:0:0:0:
252,304,215914,1,0,0:0:0:0:
92,192,216152,1,0,0:0:0:0:
220,56,216390,2,0,L|272:88,1,60.0000022888184
308,280,216747,2,0,L|252:260,1,60.0000022888184,8|0,0:0|0:0,0:0:0:0:
136,216,216985,1,0,0:0:0:0:
176,80,217105,6,0,P|240:104|256:176,1,120.000004577637,2|0,1:0|1:0,1:0:0:0:
200,328,217462,1,0,0:0:0:0:
100,236,217700,2,0,L|156:188,1,60.0000022888184,8|0,0:0|0:0,0:0:0:0:
384,300,218058,2,0,L|300:211,1,120.000004577637,2|0,1:0|0:0,0:0:0:0:
96,264,218415,1,0,0:0:0:0:
132,64,218652,2,0,L|112:152,1,60.0000022888184,8|0,0:0|0:0,0:0:0:0:
272,176,219010,6,0,P|262:233|212:272,1,120.000004577637,2|0,1:0|0:0,1:0:0:0:
40,176,219367,1,0,0:0:0:0:
190,77,219604,2,0,L|122:61,1,60.0000022888184,8|0,0:0|0:0,0:0:0:0:
128,252,219962,2,0,B|196:272|172:304|236:304,1,120.000004577637,2|0,1:0|0:0,0:0:0:0:
428,216,220319,1,0,0:0:0:0:
220,128,220557,1,8,0:0:0:0:
264,136,220676,1,0,0:0:0:0:
460,100,220915,6,0,P|484:153|452:208,1,120.000004577637,2|0,1:0|0:0,0:0:0:0:
260,304,221272,1,0,0:0:0:0:
144,116,221510,2,0,L|104:172,1,60.0000022888184,8|0,0:0|0:0,0:0:0:0:
336,132,221867,2,0,B|350:128|350:128|324:87|262:76,1,120.000004577637,2|0,1:0|0:0,0:0:0:0:
60,160,222223,1,0,0:0:0:0:
372,220,222462,1,8,0:0:0:0:
396,232,222581,1,0,0:0:0:0:
164,232,222820,6,0,P|182:288|228:325,1,120.000004577637,2|0,1:0|0:0,0:0:0:0:
512,196,223177,1,0,0:0:0:0:
304,84,223414,2,0,L|356:112,1,60.0000022888184,8|0,0:0|0:0,0:0:0:0:
348,316,223772,2,0,B|300:276|288:348|220:284,1,120.000004577637,2|0,1:0|0:0,0:0:0:0:
0,108,224129,1,0,0:0:0:0:
292,236,224366,2,0,L|326:296,1,60.0000022888184,8|0,0:0|0:0,0:0:0:0:
409,125,224604,2,0,L|437:72,2,60.0000022888184,0|8|0,0:0|0:0|0:0,0:0:0:0:
