osu file format v14

[General]
AudioFilename: audio.mp3
AudioLeadIn: 0
PreviewTime: -1
Countdown: 0
SampleSet: Normal
StackLeniency: 0.7
Mode: 0
LetterboxInBreaks: 0
WidescreenStoryboard: 0

[Editor]
Bookmarks: 3310
DistanceSpacing: 0.3
BeatDivisor: 4
GridSize: 32
TimelineZoom: 1

[Metadata]
Title:Scarlet flowers
TitleUnicode:Scarlet flowers
Artist:Buildboards
ArtistUnicode:Buildboards
Creator:pe4eneg101
Version:Insane
Source:
Tags:
BeatmapID:4533560
BeatmapSetID:2151713

[Difficulty]
HPDrainRate:5
CircleSize:4.5
OverallDifficulty:6
ApproachRate:9.5
SliderMultiplier:1.4
SliderTickRate:1

[Events]
//Background and Video events
0,0,"BG.jpg",0,0
//Break Periods
//Storyboard Layer 0 (Background)
//Storyboard Layer 1 (Fail)
//Storyboard Layer 2 (Pass)
//Storyboard Layer 3 (Foreground)
//Storyboard Layer 4 (Overlay)
//Storyboard Sound Samples

[TimingPoints]
0,206.896551724138,4,1,0,100,1,0
14897,-133.333333333333,4,1,0,100,0,0
16976,-100,4,1,0,100,0,0
20844,-133.333333333333,4,1,0,100,0,0
21931,-100,4,1,0,100,0,0
27000,-153.846153846153,4,1,0,100,0,0
37113,-181.818181818181,4,1,0,100,0,0
37731,-153.846153846153,4,1,0,100,0,0
50908,-100,4,1,0,100,0,0
62874,-133.333333333333,4,1,0,100,0,0
64121,-100,4,1,0,100,0,0
68793,-133.333333333333,4,1,0,100,0,0
70100,-100,4,1,0,100,0,0
75105,-133.333333333333,4,1,0,100,0,0
99171,-200,4,1,0,100,0,0
123069,-100,4,1,0,100,0,0
134844,-133.333333333333,4,1,0,100,0,0
135991,-100,4,1,0,100,0,0
140793,-133.333333333333,4,1,0,100,0,0
142040,-100,4,1,0,100,0,0
146896,-83.3333333333333,4,1,0,100,0,0

[Colours]
Combo1 : 232,57,70
Combo2 : 79,79,79
Combo3 : 141,135,136
Combo4 : 177,177,177
Combo5 : 58,58,58
Combo6 : 196,30,43

[HitObjects]
256,192,0,12,0,2979,0:0:0:0:
130,156,3310,6,0,P|247:114|282:134,2,168
129,173,3931,1,0,0:0:0:0:
168,226,4189,2,0,P|192:299|243:281,1,140
252,276,4500,1,0,0:0:0:0:
308,287,4931,2,0,P|320:223|336:127,1,140
231,262,5337,2,0,P|234:153|236:81,1,175
122,218,5751,2,0,P|106:116|91:20,1,175
175,273,6248,1,0,0:0:0:0:
190,261,6299,1,0,0:0:0:0:
205,249,6351,1,0,0:0:0:0:
217,241,6413,2,0,L|363:128,2,175
151,211,7241,1,0,0:0:0:0:
127,69,7613,1,0,0:0:0:0:
257,65,7820,2,0,P|331:100|344:151,1,140
311,193,8317,2,0,L|256:233,1,35
236,186,8606,2,0,L|200:246,1,56
134,228,9310,6,0,P|110:179|90:138,2,70
171,206,9672,2,0,L|224:111,1,105
234,98,9931,1,0,0:0:0:0:
309,145,10086,2,0,P|399:150|428:80,1,168
258,14,10468,2,0,P|143:18|121:47,1,140
104,37,10759,1,0,0:0:0:0:
81,47,10810,1,0,0:0:0:0:
70,70,10862,1,0,0:0:0:0:
77,95,10914,1,0,0:0:0:0:
97,109,10965,1,0,0:0:0:0:
182,76,11337,1,0,0:0:0:0:
235,195,11793,2,0,L|257:262,1,56
342,340,12331,6,0,P|398:314|409:261,2,112
142,323,12827,2,0,P|76:260|85:193,2,140
242,251,13344,1,0,0:0:0:0:
241,225,13396,2,0,L|243:142,1,84
235,74,13862,2,0,L|155:82,1,56
156,84,14068,1,0,0:0:0:0:
156,143,14317,2,0,L|233:131,1,56
237,135,14534,1,0,0:0:0:0:
263,310,15034,6,0,P|357:268|421:162,1,224
268,34,15682,2,0,P|130:99|96:228,1,280
135,246,16303,1,0,0:0:0:0:
160,247,16354,1,0,0:0:0:0:
186,245,16406,1,0,0:0:0:0:
211,239,16458,1,0,0:0:0:0:
235,230,16509,1,0,0:0:0:0:
258,217,16561,1,0,0:0:0:0:
310,119,17034,2,0,L|284:54,1,56
246,110,17399,2,0,L|204:54,1,70
219,159,17730,2,0,L|266:290,1,140
297,183,18693,5,0,0:0:0:0:
313,163,18744,5,0,0:0:0:0:
319,138,18796,5,0,0:0:0:0:
315,112,18848,5,0,0:0:0:0:
300,91,18899,5,0,0:0:0:0:
278,78,18951,5,0,0:0:0:0:
221,83,19189,2,0,P|144:109|141:158,2,140
371,264,19944,2,0,P|381:160|359:136,1,140
325,193,20358,2,0,L|268:128,1,84
246,181,20637,2,0,L|176:128,1,70
218,89,20896,6,0,P|104:141|90:264,1,236.250009012223
331,320,21517,2,0,P|385:232|407:96,1,224
374,65,22137,2,0,P|294:95|298:140,1,140
290,169,22510,1,0,0:0:0:0:
284,194,22561,1,0,0:0:0:0:
270,215,22613,1,0,0:0:0:0:
249,230,22665,1,0,0:0:0:0:
224,237,22716,1,0,0:0:0:0:
198,235,22768,1,0,0:0:0:0:
91,265,22924,1,0,0:0:0:0:
166,176,23296,2,0,L|233:106,1,84
179,72,23668,2,0,L|263:26,1,84
308,73,24528,5,0,0:0:0:0:
330,89,24579,1,0,0:0:0:0:
349,109,24631,1,0,0:0:0:0:
364,133,24683,1,0,0:0:0:0:
382,218,24993,2,0,P|329:290|228:297,1,196
143,154,25531,1,0,0:0:0:0:
224,83,25903,2,0,L|330:83,1,84
325,84,26234,1,0,0:0:0:0:
332,170,26524,2,0,P|185:174|160:245,1,224
159,224,27241,6,0,L|285:221,2,122.500004673004
203,128,27931,2,0,L|291:130,1,87.5000033378602
295,181,28379,2,0,L|289:268,1,87.5000033378602
211,228,28793,1,0,0:0:0:0:
207,352,28931,1,0,0:0:0:0:
128,301,29103,2,0,P|110:226|118:212,1,87.5000033378602
159,193,29482,2,0,P|216:199|251:249,1,122.500004673004
276,261,30275,2,0,L|344:255,2,52.5000020027161
197,261,30620,1,0,0:0:0:0:
142,219,30723,1,0,0:0:0:0:
77,117,30896,2,0,L|180:91,1,105.000004005432
220,90,31379,2,0,L|324:143,1,105.000004005432
268,290,31862,1,0,0:0:0:0:
244,276,32000,1,0,0:0:0:0:
148,202,32275,1,0,0:0:0:0:
169,121,32517,2,0,P|270:90|402:140,1,245.000009346009
397,214,33241,2,0,P|335:291|317:295,1,122.500004673004
297,253,33620,2,0,P|245:285|218:337,1,105.000004005432
148,329,34034,2,0,L|66:318,1,70.0000026702882
62,299,34413,5,0,0:0:0:0:
76,201,34724,2,0,L|120:120,2,87.5000033378602
91,224,35206,1,0,0:0:0:0:
120,183,35517,2,0,L|193:57,1,131.25000500679
216,69,36034,2,0,P|300:93|333:152,1,157.500006008148
75,223,36620,2,0,P|84:307|182:348,1,192.500007343293
234,297,37241,2,0,L|292:172,1,131.25000500679
256,136,37896,1,0,0:0:0:0:
235,104,37999,1,0,0:0:0:0:
198,97,38102,1,0,0:0:0:0:
135,126,38379,2,0,P|116:185|128:227,1,105.000004005432
177,202,38758,2,0,P|214:258|220:324,1,122.500004673004
182,282,39344,5,0,0:0:0:0:
215,272,39412,1,0,0:0:0:0:
245,254,39481,1,0,0:0:0:0:
267,227,39550,1,0,0:0:0:0:
296,147,39758,2,0,P|256:88|180:96,2,140.000005340576
298,216,40482,2,0,L|259:276,1,70.0000026702882
178,287,40758,1,0,0:0:0:0:
200,167,40965,1,0,0:0:0:0:
83,209,41224,1,0,0:0:0:0:
112,150,41517,2,0,P|154:103|251:115,1,157.500006008148
446,219,42103,6,0,P|413:298|381:321,2,122.500004673004
350,78,42793,2,0,L|282:37,1,70.0000026702882
272,32,43034,1,0,0:0:0:0:
218,50,43241,1,0,0:0:0:0:
183,56,43344,1,0,0:0:0:0:
159,80,43447,1,0,0:0:0:0:
151,114,43551,1,0,0:0:0:0:
156,137,43758,2,0,L|223:175,3,70.0000026702882
263,155,44482,2,0,L|351:112,1,87.5000033378602
342,178,44827,2,0,L|427:208,1,87.5000033378602
379,260,45362,5,0,0:0:0:0:
369,245,45517,2,0,L|310:208,1,52.5000020027161
304,268,45758,2,0,P|258:231|183:228,1,122.500004673004
224,279,46241,2,0,P|150:273|105:209,1,157.500006008148
99,135,46724,1,0,0:0:0:0:
160,241,46896,1,0,0:0:0:0:
180,175,47068,2,0,L|279:151,3,87.5000033378602
262,132,47793,2,0,P|321:181|314:271,1,157.500006008148
271,304,48241,2,0,P|175:290|154:265,1,131.25000500679
155,256,48620,1,0,0:0:0:0:
290,61,48965,1,0,0:0:0:0:
381,182,49379,1,0,0:0:0:0:
289,275,49551,2,0,P|192:226|191:150,2,192.500007343293
350,204,50482,2,0,L|287:243,1,70.0000026702882
281,176,50793,2,0,L|211:184,1,70.0000026702882
245,93,51240,21,0,0:0:0:0:
214,97,51309,1,0,0:0:0:0:
188,113,51378,1,0,0:0:0:0:
171,139,51447,1,0,0:0:0:0:
166,170,51516,1,0,0:0:0:0:
217,240,51672,1,0,0:0:0:0:
236,240,51879,2,0,P|351:190|395:115,1,210
388,114,52310,2,0,P|259:103|163:145,1,233.333333333333
109,174,52931,1,0,0:0:0:0:
207,303,53224,1,0,0:0:0:0:
331,222,53637,1,0,0:0:0:0:
421,171,54137,1,0,0:0:0:0:
438,141,54188,1,0,0:0:0:0:
433,107,54240,1,0,0:0:0:0:
409,82,54292,1,0,0:0:0:0:
375,78,54343,1,0,0:0:0:0:
373,70,54448,2,0,P|286:60|289:117,2,163.333333333333
371,91,55034,2,0,P|376:164|363:193,1,93.3333333333333
316,256,55482,1,0,0:0:0:0:
153,265,55965,2,0,L|83:210,1,70
155,197,56344,2,0,L|164:122,1,70
214,158,56620,2,0,L|275:113,1,70
364,232,57137,6,0,P|423:304|421:323,2,116.666666666667
305,210,57689,2,0,P|211:190|171:230,1,140
155,251,58137,2,0,P|51:212|64:137,2,186.666666666667
98,79,58810,2,0,P|200:39|304:71,1,210
370,129,59275,1,0,0:0:0:0:
358,213,59689,2,0,P|294:312|229:303,1,186.666666666667
201,282,60310,2,0,P|114:229|116:188,2,140
272,248,60965,2,0,P|361:175|368:131,1,163.333333333333
298,86,61655,1,0,0:0:0:0:
185,74,62034,2,0,L|125:147,1,93.3333333333333
162,225,62310,2,0,L|266:248,1,105
250,190,62586,2,0,L|343:143,1,93.3333333333333
100,108,62965,38,0,P|74:205|114:290,1,186.666666666667
135,281,63586,2,0,P|201:168|132:92,1,233.333333333333
104,172,64172,2,0,L|263:171,1,140
261,171,64655,1,0,0:0:0:0:
386,104,65068,1,0,0:0:0:0:
316,191,65448,1,0,0:0:0:0:
378,286,65862,1,0,0:0:0:0:
206,175,66655,1,0,0:0:0:0:
233,137,66723,1,0,0:0:0:0:
272,113,66792,1,0,0:0:0:0:
318,106,66861,1,0,0:0:0:0:
363,118,66930,1,0,0:0:0:0:
400,146,66999,1,0,0:0:0:0:
401,162,67086,2,0,P|382:254|319:292,2,140
324,208,67862,1,0,0:0:0:0:
243,246,68241,2,0,L|186:170,1,93.3333333333333
248,172,68586,2,0,L|242:81,1,70
268,76,68896,6,0,P|125:78|94:183,1,256.666666666667
133,237,69482,2,0,P|226:301|340:284,1,233.333333333333
349,175,70206,2,0,L|338:82,1,93.3333333333333
289,119,70551,2,0,L|251:47,1,70
215,104,70896,2,0,L|133:76,1,70
102,184,71206,1,0,0:0:0:0:
222,246,71620,1,0,0:0:0:0:
287,286,72379,2,0,P|398:227|398:213,2,163.333333333333
288,209,73103,2,0,P|321:127|291:77,1,140
280,91,73706,1,0,0:0:0:0:
140,109,74000,2,0,P|96:191|116:270,1,163.333333333333
157,278,74413,1,0,0:0:0:0:
190,266,74464,1,0,0:0:0:0:
223,255,74516,1,0,0:0:0:0:
256,244,74568,1,0,0:0:0:0:
331,213,75241,6,0,P|321:113|272:106,1,157.500006008148
232,111,75689,2,0,L|166:136,1,70.0000026702882
97,232,75982,1,0,0:0:0:0:
216,235,76241,1,0,0:0:0:0:
150,314,76500,1,0,0:0:0:0:
177,155,76724,2,0,L|264:179,1,87.5000033378602
284,248,77068,2,0,P|357:197|356:161,1,122.500004673004
302,169,77448,2,0,P|304:101|402:71,1,175.00000667572
417,103,77931,1,0,0:0:0:0:
417,137,77999,1,0,0:0:0:0:
411,172,78068,1,0,0:0:0:0:
400,205,78137,1,0,0:0:0:0:
384,236,78206,1,0,0:0:0:0:
313,246,78344,2,0,P|236:229|214:170,2,140.000005340576
333,226,78982,2,0,L|378:171,1,52.5000020027161
358,163,79293,2,0,P|318:145|290:134,1,52.5000020027161
174,96,79551,2,0,L|85:184,1,105.000004005432
329,295,80034,2,0,P|390:247|388:158,2,157.500006008148
183,70,81310,5,0,0:0:0:0:
216,47,81586,2,0,P|296:35|323:49,1,105.000004005432
414,158,81965,2,0,P|422:213|401:257,1,105.000004005432
230,335,82448,1,0,0:0:0:0:
171,177,82758,2,0,L|233:105,2,87.5000033378602
200,222,83241,1,0,0:0:0:0:
237,223,83482,2,0,L|332:224,2,78.7500030040742
358,231,83965,2,0,P|373:163|381:126,1,105.000004005432
125,133,84344,2,0,P|137:188|146:236,1,105.000004005432
210,302,84758,2,0,P|261:295|325:283,1,105.000004005432
309,91,85206,2,0,P|250:76|198:58,1,105.000004005432
256,192,85551,12,0,86896,0:0:0:0:
351,92,87206,6,0,P|286:71|242:56,2,105.000004005432
361,97,87724,1,0,0:0:0:0:
341,167,87931,2,0,P|269:191|195:185,2,131.25000500679
358,181,88586,1,0,0:0:0:0:
191,139,88862,1,0,0:0:0:0:
333,32,89327,1,0,0:0:0:0:
354,32,89448,2,0,P|416:117|400:196,1,192.500007343293
362,230,90379,2,0,P|295:247|231:216,1,140.000005340576
217,138,90828,1,0,0:0:0:0:
237,109,90896,1,0,0:0:0:0:
267,92,90965,1,0,0:0:0:0:
301,86,91034,1,0,0:0:0:0:
335,95,91103,1,0,0:0:0:0:
383,124,91379,2,0,L|383:220,1,87.5000033378602
348,257,91724,2,0,P|246:280|188:250,1,157.500006008148
181,137,92172,1,0,0:0:0:0:
137,30,92379,1,0,0:0:0:0:
303,37,92689,1,0,0:0:0:0:
450,131,93137,1,0,0:0:0:0:
446,165,93205,1,0,0:0:0:0:
433,198,93274,1,0,0:0:0:0:
412,226,93343,1,0,0:0:0:0:
384,247,93412,1,0,0:0:0:0:
352,260,93481,1,0,0:0:0:0:
291,260,93655,6,0,P|211:221|214:150,2,157.500006008148
350,229,94379,2,0,P|390:161|374:128,2,122.500004673004
254,246,95000,2,0,L|162:187,1,105.000004005432
212,162,95379,2,0,L|171:70,1,87.5000033378602
237,93,95689,2,0,L|261:29,1,52.5000020027161
336,47,96068,2,0,P|388:98|388:160,1,122.500004673004
388,162,96413,1,0,0:0:0:0:
344,325,96517,2,0,P|239:346|101:324,1,245.000009346009
60,269,97137,2,0,P|54:142|117:47,1,245.000009346009
177,48,97758,1,0,0:0:0:0:
210,39,97826,1,0,0:0:0:0:
245,43,97895,1,0,0:0:0:0:
276,57,97964,1,0,0:0:0:0:
301,82,98033,1,0,0:0:0:0:
316,113,98102,1,0,0:0:0:0:
404,166,98275,1,0,0:0:0:0:
343,230,98448,2,0,P|305:252|211:217,1,140.000005340576
171,197,99896,37,0,0:0:0:0:
169,177,100068,2,0,P|221:108|274:105,1,140
347,124,100724,1,0,0:0:0:0:
414,146,100965,2,0,P|406:222|363:259,1,128.333333333333
254,227,101724,1,0,0:0:0:0:
121,148,102103,1,0,0:0:0:0:
233,62,102517,1,0,0:0:0:0:
338,73,102758,2,0,L|381:95,1,46.6666666666667
384,106,102965,2,0,P|399:200|336:248,1,175
279,248,103810,2,0,L|224:239,1,52.5
138,194,104379,1,0,0:0:0:0:
194,68,104827,1,0,0:0:0:0:
269,88,105896,2,0,P|321:114|330:123,1,70
336,207,106275,2,0,P|302:260|257:274,1,105
146,236,106862,2,0,P|117:191|148:120,2,128.333333333333
161,241,107758,1,0,0:0:0:0:
358,267,108206,1,0,0:0:0:0:
191,274,108586,1,0,0:0:0:0:
140,165,108862,6,0,P|151:100|216:96,1,140
254,143,109413,2,0,L|282:202,1,58.3333333333333
293,217,109810,2,0,P|357:235|368:212,1,105
370,182,110172,2,0,L|337:126,1,58.3333333333333
292,59,110551,2,0,L|239:85,1,58.3333333333333
224,151,110827,2,0,L|259:237,1,93.3333333333333
306,221,111965,1,0,0:0:0:0:
317,200,112033,1,0,0:0:0:0:
320,177,112102,1,0,0:0:0:0:
314,155,112171,1,0,0:0:0:0:
299,137,112240,1,0,0:0:0:0:
279,126,112309,1,0,0:0:0:0:
256,123,112378,1,0,0:0:0:0:
148,136,112793,6,0,L|92:194,1,70
151,218,113137,2,0,L|137:295,1,70
202,278,113482,2,0,L|261:336,1,81.6666666666667
288,332,113827,1,0,0:0:0:0:
340,215,114862,1,0,0:0:0:0:
354,196,114930,1,0,0:0:0:0:
360,174,114999,1,0,0:0:0:0:
357,151,115068,1,0,0:0:0:0:
346,131,115137,1,0,0:0:0:0:
327,117,115206,1,0,0:0:0:0:
305,111,115275,1,0,0:0:0:0:
186,44,115810,2,0,L|114:110,1,93.3333333333333
160,131,116241,2,0,L|132:226,1,93.3333333333333
187,234,116724,2,0,L|246:301,1,81.6666666666667
331,69,117862,1,0,0:0:0:0:
312,54,117930,1,0,0:0:0:0:
291,44,117999,1,0,0:0:0:0:
269,38,118068,1,0,0:0:0:0:
246,37,118137,1,0,0:0:0:0:
223,40,118206,1,0,0:0:0:0:
201,49,118275,1,0,0:0:0:0:
181,62,118344,1,0,0:0:0:0:
84,88,118620,6,0,L|51:191,1,105
120,180,118965,2,0,L|153:278,1,93.3333333333333
204,227,119344,2,0,L|296:280,1,105
289,217,119758,2,0,L|383:190,1,93.3333333333333
256,192,120689,12,0,122689,0:0:0:0:
243,277,123173,5,0,0:0:0:0:
288,264,123241,1,0,0:0:0:0:
330,244,123310,1,0,0:0:0:0:
367,217,123379,1,0,0:0:0:0:
400,184,123448,1,0,0:0:0:0:
383,89,123568,1,0,0:0:0:0:
364,74,123654,2,0,P|285:35|193:54,1,163.333333333333
149,135,124068,2,0,L|102:250,1,116.666666666667
165,233,124482,2,0,L|223:341,1,116.666666666667
301,260,124965,1,0,0:0:0:0:
375,143,125224,1,0,0:0:0:0:
235,43,125534,2,0,P|134:131|145:190,1,186.666666666667
191,247,126447,1,0,0:0:0:0:
237,246,126515,1,0,0:0:0:0:
282,235,126584,1,0,0:0:0:0:
323,212,126653,1,0,0:0:0:0:
357,181,126722,1,0,0:0:0:0:
369,166,126775,2,0,L|405:91,2,70
306,49,127172,6,0,L|175:48,1,116.666666666667
165,63,127448,1,0,0:0:0:0:
205,115,127690,2,0,L|340:116,1,116.666666666667
357,133,128034,1,0,0:0:0:0:
334,182,128275,1,0,0:0:0:0:
290,199,128343,1,0,0:0:0:0:
244,206,128412,1,0,0:0:0:0:
198,203,128481,1,0,0:0:0:0:
153,190,128550,1,0,0:0:0:0:
129,146,129275,2,0,P|188:107|295:88,2,163.333333333333
127,158,129879,1,0,0:0:0:0:
122,168,129982,2,0,P|130:238|166:265,1,105
185,262,130310,2,0,L|316:265,1,116.666666666667
284,208,130689,2,0,L|389:143,1,116.666666666667
402,139,130965,1,0,0:0:0:0:
297,130,131172,2,0,P|269:45|137:85,2,245
206,158,132206,1,0,0:0:0:0:
192,202,132274,1,0,0:0:0:0:
201,247,132343,1,0,0:0:0:0:
231,282,132412,1,0,0:0:0:0:
274,300,132481,1,0,0:0:0:0:
319,294,132550,1,0,0:0:0:0:
371,230,132896,2,0,P|377:158|346:85,2,140
329,244,133586,2,0,P|236:211|114:220,1,210
126,185,134068,2,0,L|134:130,1,46.6666666666667
240,80,134413,1,0,0:0:0:0:
375,219,134689,1,0,0:0:0:0:
68,150,135000,70,0,P|108:273|244:333,1,280
252,320,135620,2,0,P|264:226|367:169,1,210
441,220,136069,1,0,0:0:0:0:
404,248,136137,1,0,0:0:0:0:
361,267,136206,1,0,0:0:0:0:
315,274,136275,1,0,0:0:0:0:
269,270,136344,1,0,0:0:0:0:
231,263,136396,2,0,P|177:219|171:149,1,140
227,71,136931,2,0,L|329:34,1,93.3333333333333
376,114,137241,2,0,P|389:192|333:295,1,186.666666666667
297,250,137793,2,0,P|210:202|293:192,1,233.333333333333
348,169,138655,1,0,0:0:0:0:
376,132,138723,1,0,0:0:0:0:
379,86,138792,1,0,0:0:0:0:
356,46,138861,1,0,0:0:0:0:
315,26,138930,1,0,0:0:0:0:
256,48,139241,2,0,P|161:114|169:147,2,163.333333333333
336,62,139862,2,0,L|410:130,1,93.3333333333333
424,155,140137,1,0,0:0:0:0:
387,202,140379,2,0,L|321:137,1,93.3333333333333
305,113,140655,1,0,0:0:0:0:
279,49,140862,6,0,P|170:88|128:153,1,186.666666666667
178,193,141379,2,0,P|258:289|398:291,1,256.666666666667
394,239,142103,1,0,0:0:0:0:
393,204,142154,1,0,0:0:0:0:
380,172,142206,1,0,0:0:0:0:
356,147,142258,1,0,0:0:0:0:
324,133,142309,1,0,0:0:0:0:
264,126,142655,2,0,L|152:120,1,93.3333333333333
149,148,142965,2,0,L|99:236,1,93.3333333333333
205,320,143448,1,0,0:0:0:0:
375,189,143896,1,0,0:0:0:0:
334,74,144483,1,0,0:0:0:0:
290,56,144551,1,0,0:0:0:0:
244,52,144620,1,0,0:0:0:0:
199,61,144689,1,0,0:0:0:0:
157,83,144758,1,0,0:0:0:0:
168,142,144931,2,0,P|156:210|211:283,2,163.333333333333
206,141,145586,2,0,L|289:147,1,70
341,212,146034,1,0,0:0:0:0:
301,288,146379,1,0,0:0:0:0:
259,290,146447,1,0,0:0:0:0:
212,290,146516,1,0,0:0:0:0:
169,273,146585,1,0,0:0:0:0:
134,243,146654,1,0,0:0:0:0:
136,83,146896,5,0,0:0:0:0:
370,98,147206,1,0,0:0:0:0:
309,251,147413,1,0,0:0:0:0:
292,267,147620,2,0,P|236:281|195:263,1,83.9999974365235
181,121,148293,2,0,L|258:88,1,83.9999974365235
123,196,148500,2,0,L|146:116,1,83.9999974365235
255,283,149103,1,0,0:0:0:0:
287,272,149275,2,0,P|324:240|333:190,1,83.9999974365235
361,253,149931,1,0,0:0:0:0:
328,73,150172,1,0,0:0:0:0:
220,161,150551,1,0,0:0:0:0:
210,185,150620,2,0,P|217:227|256:263,1,83.9999974365235
333,194,151241,1,0,0:0:0:0:
104,72,151500,1,0,0:0:0:0:
138,178,152068,1,0,0:0:0:0:
159,197,152172,2,0,P|211:232|266:212,1,111.999996582031
212,162,153051,5,0,0:0:0:0:
378,269,153206,1,0,0:0:0:0:
224,287,153586,1,0,0:0:0:0:
209,280,153758,2,0,P|184:241|194:199,1,83.9999974365235
186,101,154310,1,0,0:0:0:0:
302,102,154413,1,0,0:0:0:0:
229,311,155017,1,0,0:0:0:0:
214,305,155241,2,0,P|214:243|238:233,1,83.9999974365235
136,77,156034,1,0,0:0:0:0:
288,97,156206,1,0,0:0:0:0:
216,207,156620,1,0,0:0:0:0:
175,198,156793,2,0,P|135:191|123:151,1,83.9999974365235
348,63,157344,1,0,0:0:0:0:
362,186,157551,1,0,0:0:0:0:
154,199,158103,1,0,0:0:0:0:
154,175,158275,2,0,P|136:147|166:106,1,83.9999974365235
335,110,158689,2,0,P|363:173|361:196,1,83.9999974365235
349,204,158827,2,0,P|292:231|249:210,1,111.999996582031
