osu file format v14

[General]
AudioFilename: audio.mp3
AudioLeadIn: 0
PreviewTime: 127850
Countdown: 0
SampleSet: Soft
StackLeniency: 0.4
Mode: 0
LetterboxInBreaks: 0
WidescreenStoryboard: 0

[Editor]
Bookmarks: 23502,44371,65241,86110,106980,127850,148719,169589
DistanceSpacing: 2.5
BeatDivisor: 4
GridSize: 4
TimelineZoom: 1.7

[Metadata]
Title:Svidaniye V Tramvaye
TitleUnicode:Свидание В Трамвае
Artist:Buerak
ArtistUnicode:Буерак
Creator:Frakturehawkens
Version:Hard
Source:
Tags:Скромные апартаменты skromnyye apartamenty post-punk post punk rock russian русский alternative alt indie xbopost
BeatmapID:2228335
BeatmapSetID:1058947

[Difficulty]
HPDrainRate:4
CircleSize:3
OverallDifficulty:6.5
ApproachRate:8
SliderMultiplier:1.4
SliderTickRate:1

[Events]
//Background and Video events
0,0,"lolbly.jpg",0,0
//Break Periods
2,107180,116110
//Storyboard Layer 0 (Background)
//Storyboard Layer 1 (Fail)
//Storyboard Layer 2 (Pass)
//Storyboard Layer 3 (Foreground)
//Storyboard Layer 4 (Overlay)
//Storyboard Sound Samples

[TimingPoints]
24,326.086956521739,4,2,1,30,1,0
2632,-111.111111111111,4,2,1,45,0,0
3366,-111.111111111111,4,2,0,5,0,0
3447,-111.111111111111,4,2,1,45,0,0
5975,-111.111111111111,4,2,0,5,0,0
6056,-111.111111111111,4,2,1,45,0,0
8094,-111.111111111111,4,2,0,5,0,0
8176,-111.111111111111,4,2,1,45,0,0
10703,-111.111111111111,4,2,0,5,0,0
10784,-111.111111111111,4,2,1,45,0,0
12496,-111.111111111111,4,2,0,5,0,0
12578,-111.111111111111,4,2,1,45,0,0
13801,-111.111111111111,4,2,0,5,0,0
13882,-111.111111111111,4,2,1,45,0,0
16409,-111.111111111111,4,2,0,5,0,0
16491,-111.111111111111,4,2,1,45,0,0
18529,-111.111111111111,4,2,0,5,0,0
18610,-111.111111111111,4,2,1,45,0,0
21138,-111.111111111111,4,2,0,5,0,0
21219,-111.111111111111,4,2,1,45,0,0
22931,-111.111111111111,4,2,0,5,0,0
23013,-111.111111111111,4,2,1,45,0,0
24235,-111.111111111111,4,2,0,5,0,0
24317,-111.111111111111,4,2,1,45,0,0
26844,-111.111111111111,4,2,0,5,0,0
26926,-111.111111111111,4,2,1,45,0,0
28964,-111.111111111111,4,2,0,5,0,0
29045,-111.111111111111,4,2,1,45,0,0
31572,-111.111111111111,4,2,0,5,0,0
31654,-111.111111111111,4,2,1,45,0,0
33366,-111.111111111111,4,2,0,5,0,0
33447,-111.111111111111,4,2,1,45,0,0
34670,-111.111111111111,4,2,0,5,0,0
34752,-111.111111111111,4,2,1,45,0,0
37279,-111.111111111111,4,2,0,5,0,0
37360,-111.111111111111,4,2,1,45,0,0
39398,-111.111111111111,4,2,0,5,0,0
39480,-111.111111111111,4,2,1,45,0,0
42007,-111.111111111111,4,2,0,5,0,0
42089,-111.111111111111,4,2,1,45,0,0
43801,-111.111111111111,4,2,0,5,0,0
43882,-111.111111111111,4,2,1,45,0,0
44371,-100,4,2,1,40,0,0
65241,-90.9090909090909,4,2,1,50,0,0
86110,-100,4,2,1,60,0,1
86273,-133.333333333333,4,2,1,60,0,1
88719,-100,4,2,1,60,0,1
89371,-133.333333333333,4,2,1,60,0,1
91328,-100,4,2,1,60,0,1
91980,-133.333333333333,4,2,1,60,0,1
93937,-100,4,2,1,60,0,1
94589,-133.333333333333,4,2,1,60,0,1
96545,-100,4,2,1,60,0,1
97197,-133.333333333333,4,2,1,60,0,1
99154,-100,4,2,1,60,0,1
99806,-133.333333333333,4,2,1,60,0,1
101763,-100,4,2,1,60,0,1
102415,-133.333333333333,4,2,1,60,0,1
104371,-100,4,2,1,60,0,1
105023,-133.333333333333,4,2,1,60,0,1
106980,-153.846153846153,4,2,1,30,0,0
117415,-153.846153846153,4,2,1,30,0,0
126545,-153.846153846153,4,2,1,45,0,0
127850,-76.9230769230769,4,2,1,70,0,1
169589,-76.9230769230769,4,2,1,70,0,0

[Colours]
Combo1 : 64,244,213
Combo2 : 179,131,111
Combo3 : 236,203,72
Combo4 : 252,27,105

[HitObjects]
256,192,24,12,8,2306,3:3:0:0:
267,0,2632,6,0,B|289:61|289:61|260:118,1,125.999996154785,4|2,3:1|1:2,0:0:0:0:
197,167,3121,2,0,P|154:159|103:155,1,94.499997116089,2|0,2:2|0:0,0:0:0:0:
103,155,3447,1,2,2:2:0:0:
43,211,3610,2,0,B|21:237|21:237|31:267,1,62.9999980773926,0|0,1:2|0:0,0:0:0:0:
88,322,3937,6,0,P|188:291|232:288,1,125.999996154785,2|2,3:2|1:2,0:0:0:0:
289,278,4426,2,0,P|393:273|436:282,1,125.999996154785,2|6,2:2|2:2,0:0:0:0:
461,344,4915,1,2,1:2:0:0:
496,270,5078,1,6,2:2:0:0:
449,202,5241,6,0,P|453:133|464:58,1,125.999996154785,0|2,3:2|1:2,0:0:0:0:
387,40,5730,2,0,B|348:53|348:53|334:110,1,94.499997116089,2|0,2:2|0:0,0:0:0:0:
335,104,6056,1,2,2:2:0:0:
300,182,6219,2,0,P|256:175|221:173,1,62.9999980773926,0|4,1:2|2:2,0:0:0:0:
173,123,6545,6,0,B|136:170|136:170|64:156,1,125.999996154785,2|2,3:2|1:2,0:0:0:0:
44,79,7034,2,0,B|81:32|81:32|153:46,1,125.999996154785,2|6,2:2|2:2,0:0:0:0:
133,125,7523,2,0,L|61:112,1,62.9999980773926,2|6,1:2|2:2,0:0:0:0:
24,182,7850,6,0,P|45:231|62:280,1,94.499997116089,0|0,3:2|0:0,0:0:0:0:
58,269,8176,1,2,1:2:0:0:
107,335,8339,2,0,L|184:323,1,62.9999980773926,2|0,2:2|3:2,0:0:0:0:
182,244,8665,1,2,2:2:0:0:
182,244,8828,2,0,L|244:253,2,62.9999980773926,2|4|0,1:2|2:2|3:2,0:0:0:0:
191,162,9317,5,2,2:2:0:0:
209,82,9480,1,2,1:2:0:0:
227,2,9643,2,0,B|292:3|292:3|319:70,1,125.999996154785,2|6,2:2|2:2,0:0:0:0:
284,135,10132,2,0,L|274:197,1,62.9999980773926,2|6,1:2|2:2,0:0:0:0:
264,278,10458,6,0,P|316:284|367:294,1,94.499997116089,0|0,3:2|0:0,0:0:0:0:
357,291,10784,1,2,1:2:0:0:
434,265,10947,2,0,B|448:237|448:237|441:195,1,62.9999980773926,2|0,2:2|3:2,0:0:0:0:
371,165,11273,1,2,2:2:0:0:
371,165,11437,2,0,B|372:133|372:133|399:100,2,62.9999980773926,2|4|0,1:2|2:2|3:2,0:0:0:0:
312,221,11925,5,2,2:2:0:0:
232,240,12088,1,2,1:2:0:0:
152,258,12251,2,0,L|40:220,1,94.499997116089,2|0,2:2|0:0,0:0:0:0:
62,227,12578,5,6,1:2:0:0:
160,148,12741,1,6,1:2:0:0:
111,31,12904,1,6,1:2:0:0:
15,113,13067,6,0,P|77:108|165:104,1,125.999996154785,4|2,3:1|1:2,0:0:0:0:
198,47,13556,2,0,B|245:40|245:40|285:89,1,94.499997116089,2|0,2:2|0:0,0:0:0:0:
274,76,13882,1,2,2:2:0:0:
218,136,14045,2,0,P|207:194|207:207,1,62.9999980773926,0|0,1:2|0:0,0:0:0:0:
259,260,14371,6,0,B|333:236|320:293|391:262,1,125.999996154785,2|2,3:2|1:2,0:0:0:0:
362,186,14860,2,0,B|422:159|409:216|483:192,1,125.999996154785,2|6,2:2|2:2,0:0:0:0:
505,113,15350,1,2,1:2:0:0:
443,59,15513,1,6,2:2:0:0:
370,96,15676,6,0,P|302:91|246:77,1,125.999996154785,0|2,3:2|1:2,0:0:0:0:
188,135,16165,2,0,P|155:169|161:231,1,94.499997116089,2|0,2:2|0:0,0:0:0:0:
152,214,16491,1,2,2:2:0:0:
214,268,16654,2,0,L|297:259,1,62.9999980773926,0|4,1:2|2:2,0:0:0:0:
300,339,16980,6,0,B|243:360|243:360|192:299,1,125.999996154785,2|2,3:2|1:2,0:0:0:0:
225,231,17469,2,0,B|282:210|282:210|333:271,1,125.999996154785,2|6,2:2|2:2,0:0:0:0:
379,320,17958,2,0,L|450:340,1,62.9999980773926,2|6,1:2|2:2,0:0:0:0:
498,280,18284,6,0,P|477:231|460:182,1,94.499997116089,0|0,3:2|0:0,0:0:0:0:
464,193,18610,1,2,1:2:0:0:
468,111,18773,2,0,L|500:47,1,62.9999980773926,2|0,2:2|3:2,0:0:0:0:
419,25,19100,1,2,2:2:0:0:
419,25,19263,2,0,L|390:81,2,62.9999980773926,2|4|0,1:2|2:2|3:2,0:0:0:0:
329,19,19751,5,2,2:2:0:0:
249,37,19914,1,2,1:2:0:0:
169,55,20077,2,0,B|170:120|170:120|237:147,1,125.999996154785,2|6,2:2|2:2,0:0:0:0:
301,176,20566,2,0,L|363:166,1,62.9999980773926,2|6,1:2|2:2,0:0:0:0:
393,242,20893,6,0,L|289:260,1,94.499997116089,0|0,3:2|0:0,0:0:0:0:
299,258,21218,1,2,1:2:0:0:
227,298,21381,2,0,B|213:270|213:270|220:228,1,62.9999980773926,2|0,2:2|3:2,0:0:0:0:
152,189,21707,1,2,2:2:0:0:
152,189,21871,2,0,B|120:190|120:190|87:217,2,62.9999980773926,2|4|0,1:2|2:2|3:2,0:0:0:0:
228,161,22359,5,2,2:2:0:0:
206,81,22522,1,2,1:2:0:0:
132,45,22687,2,0,P|88:59|34:70,1,94.499997116089,2|0,2:2|0:0,0:0:0:0:
41,70,23012,5,6,1:2:0:0:
112,173,23175,1,6,1:2:0:0:
222,112,23338,1,6,1:2:0:0:
301,210,23502,6,0,B|279:271|279:271|308:328,1,125.999996154785,4|2,3:1|1:2,0:0:0:0:
383,353,23991,2,0,P|425:337|474:333,1,94.499997116089,2|0,2:2|0:0,0:0:0:0:
474,333,24317,1,2,2:2:0:0:
481,251,24480,2,0,P|488:220|499:178,1,62.9999980773926,0|0,1:2|0:0,0:0:0:0:
446,123,24807,6,0,P|380:124|323:62,1,125.999996154785,2|2,3:2|1:2,0:0:0:0:
292,18,25295,2,0,P|230:15|180:52,1,125.999996154785,2|6,2:2|2:2,0:0:0:0:
180,135,25785,1,2,1:2:0:0:
108,94,25948,1,6,2:2:0:0:
107,12,26111,6,0,P|98:57|79:140,1,125.999996154785,0|2,3:2|1:2,0:0:0:0:
27,197,26600,2,0,B|55:236|55:236|108:230,1,94.499997116089,2|0,2:2|0:0,0:0:0:0:
101,230,26926,1,2,2:2:0:0:
157,170,27089,2,0,P|201:163|236:161,1,62.9999980773926,0|4,1:2|2:2,0:0:0:0:
240,240,27415,6,0,B|265:278|265:278|343:297,1,125.999996154785,2|2,3:2|1:2,0:0:0:0:
373,220,27904,2,0,B|413:240|413:240|490:217,1,125.999996154785,2|6,2:2|2:2,0:0:0:0:
483,136,28393,2,0,L|421:153,1,62.9999980773926,2|6,1:2|2:2,0:0:0:0:
340,140,28720,6,0,P|361:91|378:42,1,94.499997116089,0|0,3:2|0:0,0:0:0:0:
374,53,29046,1,2,1:2:0:0:
300,16,29209,2,0,P|271:17|238:35,1,62.9999980773926,2|0,2:2|3:2,0:0:0:0:
163,57,29534,1,2,2:2:0:0:
163,57,29697,2,0,P|134:58|101:76,2,62.9999980773926,2|4|0,1:2|2:2|3:2,0:0:0:0:
223,113,30187,5,2,2:2:0:0:
197,190,30350,1,2,1:2:0:0:
168,266,30513,2,0,B|103:267|103:267|76:334,1,125.999996154785,2|6,2:2|2:2,0:0:0:0:
148,368,31002,2,0,B|183:371|183:371|220:342,1,62.9999980773926,2|6,1:2|2:2,0:0:0:0:
248,284,31328,6,0,P|300:290|351:300,1,94.499997116089,0|0,3:2|0:0,0:0:0:0:
341,297,31654,1,2,1:2:0:0:
404,245,31817,2,0,P|401:213|401:172,1,62.9999980773926,2|0,2:2|3:2,0:0:0:0:
328,143,32143,1,2,2:2:0:0:
328,143,32306,2,0,P|333:111|344:72,2,62.9999980773926,2|4|0,1:2|2:2|3:2,0:0:0:0:
262,191,32795,5,2,2:2:0:0:
247,110,32958,1,2,1:2:0:0:
311,61,33121,2,0,L|423:23,1,94.499997116089,2|0,2:2|0:0,0:0:0:0:
400,30,33448,5,6,1:2:0:0:
347,144,33611,1,6,1:2:0:0:
230,96,33774,1,6,1:2:0:0:
242,221,33937,6,0,P|180:216|92:212,1,125.999996154785,4|2,3:1|1:2,0:0:0:0:
124,131,34426,2,0,B|77:124|77:124|37:173,1,94.499997116089,2|0,2:2|0:0,0:0:0:0:
47,160,34752,1,2,2:2:0:0:
41,245,34915,2,0,P|46:281|52:316,1,62.9999980773926,0|0,1:2|0:0,0:0:0:0:
121,347,35241,6,0,P|170:301|245:321,1,125.999996154785,2|2,3:2|1:2,0:0:0:0:
257,381,35730,2,0,L|383:359,1,125.999996154785,2|6,2:2|2:2,0:0:0:0:
462,344,36220,1,2,1:2:0:0:
408,281,36383,1,6,2:2:0:0:
429,201,36546,6,0,P|438:151|457:68,1,125.999996154785,0|2,3:2|1:2,0:0:0:0:
382,39,37035,2,0,P|348:72|286:66,1,94.499997116089,2|0,2:2|0:0,0:0:0:0:
302,74,37361,1,2,2:2:0:0:
257,142,37524,2,0,P|256:178|278:216,1,62.9999980773926,0|4,1:2|2:2,0:0:0:0:
297,278,37850,6,0,B|240:299|240:299|189:238,1,125.999996154785,2|2,3:2|1:2,0:0:0:0:
173,170,38339,2,0,L|41:206,1,125.999996154785,2|6,2:2|2:2,0:0:0:0:
69,283,38828,2,0,L|130:297,1,62.9999980773926,2|6,1:2|2:2,0:0:0:0:
185,358,39154,6,0,P|225:342|285:326,1,94.499997116089,0|0,3:2|0:0,0:0:0:0:
274,328,39480,1,2,1:2:0:0:
333,271,39643,2,0,L|397:303,1,62.9999980773926,2|0,2:2|3:2,0:0:0:0:
419,222,39970,1,2,2:2:0:0:
419,222,40133,2,0,L|363:193,2,62.9999980773926,2|4|0,1:2|2:2|3:2,0:0:0:0:
472,283,40621,5,2,2:2:0:0:
389,299,40784,1,2,1:2:0:0:
308,314,40947,2,0,P|291:253|274:171,1,125.999996154785,2|6,2:2|2:2,0:0:0:0:
311,117,41436,2,0,P|303:85|295:42,1,62.9999980773926,2|6,1:2|2:2,0:0:0:0:
216,66,41762,6,0,L|108:85,1,94.499997116089,0|0,3:2|0:0,0:0:0:0:
122,82,42088,1,2,1:2:0:0:
51,124,42251,2,0,B|32:149|32:149|39:179,1,62.9999980773926,2|0,2:2|3:2,0:0:0:0:
121,172,42578,1,2,2:2:0:0:
199,149,42741,2,0,B|194:117|194:117|168:101,2,62.9999980773926,2|4|0,1:2|2:2|3:2,0:0:0:0:
121,172,43229,5,2,2:2:0:0:
99,250,43392,1,2,1:2:0:0:
79,329,43556,2,0,P|123:339|178:355,1,94.499997116089,2|0,2:2|0:0,0:0:0:0:
170,352,43882,5,6,1:2:0:0:
184,226,44045,1,6,1:2:0:0:
301,272,44208,1,6,1:2:0:0:
315,138,44371,6,0,P|311:88|305:41,1,70,4|0,3:1|0:0,0:0:0:0:
370,1,44697,2,0,P|442:-7|473:59,1,140,2|0,1:2|3:2,0:0:0:0:
328,150,45350,1,2,1:2:0:0:
328,150,45513,1,2,2:2:0:0:
328,150,45676,6,0,B|407:139|383:218|467:209,1,140,0|2,3:2|1:2,0:0:0:0:
491,129,46165,1,2,2:2:0:0:
411,298,46491,5,0,0:0:0:0:
411,298,46654,2,0,L|325:313,1,70,2|6,1:2|2:2,0:0:0:0:
284,380,46980,6,0,P|202:326|149:310,1,140,0|2,3:2|1:2,0:0:0:0:
104,243,47469,2,0,P|63:249|44:279,1,70,2|0,2:2|3:2,0:0:0:0:
80,354,47795,1,0,0:0:0:0:
162,313,47958,1,2,1:2:0:0:
162,313,48121,1,2,2:2:0:0:
195,228,48284,1,0,3:2:0:0:
110,116,48610,5,2,1:2:0:0:
110,116,48773,1,0,0:0:0:0:
220,29,49100,5,0,0:0:0:0:
220,29,49263,2,0,L|301:44,1,70,2|6,1:2|2:2,0:0:0:0:
343,114,49589,6,0,B|283:148|283:148|193:100,1,140,0|2,3:2|1:2,0:0:0:0:
188,151,50078,2,0,P|189:200|195:231,1,70,2|0,2:2|3:2,0:0:0:0:
228,254,50404,1,0,0:0:0:0:
204,296,50567,2,0,P|124:318|50:342,1,140,2|0,1:2|3:2,0:0:0:0:
69,335,51056,5,0,0:0:0:0:
117,346,51219,1,2,1:2:0:0:
164,357,51382,1,2,2:2:0:0:
246,304,51708,6,0,P|282:312|325:323,2,70,0|2|0,0:0|1:2|0:0,0:0:0:0:
221,261,52197,6,0,B|187:201|187:201|235:111,1,140,0|2,3:2|1:2,0:0:0:0:
269,133,52686,2,0,B|305:128|305:128|342:150,1,70,2|0,2:2|3:2,0:0:0:0:
352,190,53012,1,0,0:0:0:0:
400,199,53175,2,0,P|432:138|476:64,1,140,2|0,1:2|3:2,0:0:0:0:
468,76,53664,5,0,0:0:0:0:
421,87,53827,1,2,1:2:0:0:
374,98,53990,1,2,2:2:0:0:
301,31,54316,6,0,P|265:23|222:12,2,70,0|2|0,0:0|1:2|0:0,0:0:0:0:
374,98,54806,6,0,P|356:202|350:253,1,140,4|2,3:1|1:2,0:0:0:0:
294,306,55295,2,0,B|259:315|259:315|230:297,1,70,2|0,2:2|3:2,0:0:0:0:
205,209,55621,1,0,0:0:0:0:
205,209,55784,2,0,B|176:191|176:191|141:200,1,70,2|2,1:2|2:2,0:0:0:0:
133,291,56110,1,0,3:2:0:0:
42,280,56273,2,0,P|14:171|-2:129,2,140,0|2|0,0:0|2:2|0:0,0:0:0:0:
133,291,57089,2,0,P|144:330|149:362,1,70,2|6,1:2|2:2,0:0:0:0:
230,319,57415,6,0,P|304:301|373:295,1,140,0|2,3:2|1:2,0:0:0:0:
419,220,57904,2,0,P|421:184|426:150,1,70,2|0,2:2|3:2,0:0:0:0:
488,83,58230,1,0,0:0:0:0:
429,13,58393,1,2,1:2:0:0:
429,13,58556,1,2,2:2:0:0:
367,80,58719,1,0,3:2:0:0:
503,112,59045,5,2,1:2:0:0:
503,112,59208,1,2,2:2:0:0:
380,179,59534,5,0,0:0:0:0:
380,179,59697,2,0,L|299:194,1,70,2|6,1:2|2:2,0:0:0:0:
247,256,60023,6,0,B|208:204|208:204|234:127,1,140,0|2,3:2|1:2,0:0:0:0:
269,101,60513,2,0,L|254:17,1,70,2|0,2:2|3:2,0:0:0:0:
213,8,60839,1,0,0:0:0:0:
189,50,61002,2,0,P|137:59|41:83,1,140,2|0,1:2|3:2,0:0:0:0:
52,79,61491,5,0,0:0:0:0:
69,125,61654,1,2,1:2:0:0:
76,173,61817,1,2,2:2:0:0:
81,270,62143,6,0,P|45:262|2:251,2,70,0|2|0,0:0|1:2|0:0,0:0:0:0:
116,303,62632,6,0,B|186:288|165:358|252:333,1,140,0|2,3:2|1:2,0:0:0:0:
277,298,63121,2,0,B|293:266|293:266|275:233,1,70,2|0,2:2|3:2,0:0:0:0:
230,219,63447,1,0,0:0:0:0:
267,187,63610,2,0,L|418:203,1,140,2|0,1:2|3:2,0:0:0:0:
406,201,64100,5,0,0:0:0:0:
436,162,64263,1,2,1:2:0:0:
408,120,64426,1,2,2:2:0:0:
443,28,64752,6,0,P|482:20|517:12,2,70,0|2|0,0:0|1:2|0:0,0:0:0:0:
408,102,65241,6,0,P|360:108|300:116,1,77.0000023498536,4|2,3:1|2:3,0:0:0:0:
283,190,65567,1,2,1:1:0:0:
283,190,65730,2,0,P|235:196|115:218,1,154.000004699707,2|2,2:3|2:3,0:0:0:0:
107,303,66219,2,0,P|153:329|182:354,1,77.0000023498536,2|2,1:1|2:3,0:0:0:0:
237,279,66545,6,0,P|243:200|263:104,1,154.000004699707,2|2,3:1|1:1,0:0:0:0:
221,41,67034,2,0,P|178:28|125:20,1,77.0000023498536,2|0,2:3|3:2,0:0:0:0:
60,56,67360,1,2,2:3:0:0:
16,137,67523,2,0,P|26:180|45:230,1,77.0000023498536,2|2,1:1|2:3,0:0:0:0:
110,154,67850,1,0,3:2:0:0:
160,331,68176,5,2,1:1:0:0:
160,331,68339,2,0,P|236:322|316:314,1,154.000004699707,2|2,2:3|2:3,0:0:0:0:
394,358,68828,2,0,P|403:309|411:275,1,77.0000023498536,2|2,1:1|2:3,0:0:0:0:
317,294,69154,6,0,P|343:191|371:121,1,154.000004699707,2|2,3:1|1:1,0:0:0:0:
438,96,69643,2,0,P|473:104|515:123,2,77.0000023498536,2|0|2,2:3|3:2|2:3,0:0:0:0:
360,45,70132,1,2,1:1:0:0:
270,67,70295,6,0,P|186:97|106:114,1,154.000004699707,2|2,2:3|2:3,0:0:0:0:
75,32,70784,1,2,1:1:0:0:
75,32,70947,2,0,B|44:50|44:50|32:96,1,77.0000023498536,2|0,2:3|3:2,0:0:0:0:
10,179,71273,1,2,2:3:0:0:
99,203,71437,2,0,P|125:243|180:365,1,154.000004699707,2|0,1:1|3:2,0:0:0:0:
262,324,71926,5,2,2:3:0:0:
262,324,72089,1,2,1:1:0:0:
262,324,72252,1,2,2:3:0:0:
390,191,72578,6,0,L|490:185,2,77.0000023498536,2|2|2,2:3|1:1|2:3,0:0:0:0:
430,274,73067,6,0,P|425:130|424:100,1,154.000004699707,2|2,3:2|1:1,0:0:0:0:
504,73,73556,2,0,B|488:38|488:38|437:24,1,77.0000023498536,2|0,2:3|3:2,0:0:0:0:
362,54,73882,1,2,2:3:0:0:
414,129,74045,2,0,P|334:165|277:205,1,154.000004699707,2|0,1:1|3:2,0:0:0:0:
228,125,74534,5,2,2:3:0:0:
228,125,74697,1,2,1:1:0:0:
228,125,74860,1,2,2:3:0:0:
44,97,75187,5,2,1:3:0:0:
188,42,75350,1,2,1:1:0:0:
96,13,75513,1,0,1:3:0:0:
177,144,75676,6,0,P|194:229|208:322,1,154.000004699707,4|2,3:1|1:1,0:0:0:0:
271,358,76165,2,0,P|311:369|360:388,1,77.0000023498536,2|0,2:3|3:2,0:0:0:0:
421,330,76491,1,2,2:3:0:0:
453,243,76654,2,0,P|430:211|411:178,1,77.0000023498536,2|2,1:1|2:3,0:0:0:0:
395,87,76980,2,0,B|301:118|375:144|257:188,1,154.000004699707,2|2,3:1|1:1,0:0:0:0:
205,122,77469,2,0,P|169:137|132:147,2,77.0000023498536,2|0|2,0:3|3:0|0:3,0:0:0:0:
218,33,77958,5,2,1:1:0:0:
218,33,78121,2,0,P|180:18|137:7,2,77.0000023498536,2|0|2,2:3|3:2|2:3,0:0:0:0:
223,130,78610,1,2,1:1:0:0:
223,130,78773,2,0,P|172:221|143:291,1,154.000004699707,2|2,2:3|2:3,0:0:0:0:
210,338,79263,2,0,B|247:343|247:343|283:305,1,77.0000023498536,2|2,1:1|2:3,0:0:0:0:
355,359,79589,6,0,B|364:276|364:276|297:210,1,154.000004699707,2|2,3:1|1:1,0:0:0:0:
397,266,80078,2,0,L|471:338,2,77.0000023498536,2|0|2,2:3|3:2|2:3,0:0:0:0:
410,174,80567,2,0,P|421:129|439:77,1,77.0000023498536,2|2,1:1|2:3,0:0:0:0:
356,43,80893,6,0,P|272:59|201:70,1,154.000004699707,0|2,3:2|1:1,0:0:0:0:
118,34,81382,2,0,P|99:77|84:122,1,77.0000023498536,2|0,2:3|3:2,0:0:0:0:
156,168,81708,1,2,2:3:0:0:
70,203,81871,2,0,P|38:275|10:356,1,154.000004699707,2|0,1:1|3:2,0:0:0:0:
109,384,82360,5,2,2:3:0:0:
109,384,82523,1,2,1:1:0:0:
109,384,82687,1,2,2:3:0:0:
156,205,83013,6,0,P|156:167|147:120,2,77.0000023498536,2|2|2,2:3|1:1|2:3,0:0:0:0:
234,254,83502,6,0,P|372:242|421:240,1,154.000004699707,2|2,3:2|1:1,0:0:0:0:
454,177,83991,2,0,B|463:138|463:138|431:86,1,77.0000023498536,2|0,2:3|3:2,0:0:0:0:
376,43,84317,1,2,2:3:0:0:
359,133,84480,2,0,P|275:115|196:110,1,154.000004699707,2|0,1:1|3:2,0:0:0:0:
213,17,84969,5,2,2:3:0:0:
213,17,85132,1,2,1:1:0:0:
213,17,85295,1,2,2:3:0:0:
139,186,85621,5,2,1:3:0:0:
3,124,85784,1,2,1:1:0:0:
96,106,85947,1,0,1:3:0:0:
22,222,86110,5,4,3:1:0:0:
22,222,86273,2,0,L|132:213,1,105.000004005432,2|0,2:1|0:0,0:0:0:0:
187,271,86763,1,2,3:1:0:0:
266,243,86926,1,2,2:1:0:0:
251,160,87089,1,0,1:1:0:0:
251,160,87252,2,0,B|286:122|286:122|342:128,1,105.000004005432,2|2,2:1|2:1,0:0:0:0:
421,141,87741,1,0,1:1:0:0:
342,110,87904,2,0,B|291:98|291:98|268:47,1,105.000004005432,2|2,2:1|2:1,0:0:0:0:
200,96,88393,1,0,1:1:0:0:
200,96,88556,1,2,2:1:0:0:
302,190,88719,6,0,P|295:280|295:356,1,140,10|10,3:1|1:1,0:0:0:0:
294,329,89371,6,0,P|259:324|224:320,1,52.5000020027161,2|2,3:1|2:1,0:0:0:0:
211,243,89697,1,0,1:1:0:0:
275,188,89860,2,0,L|399:180,1,105.000004005432,2|2,2:1|2:1,0:0:0:0:
422,108,90350,1,0,1:1:0:0:
382,34,90513,2,0,L|277:27,1,105.000004005432,2|2,2:1|2:1,0:0:0:0:
250,106,91002,1,0,1:1:0:0:
250,106,91165,1,2,2:1:0:0:
132,30,91328,6,0,P|58:73|66:135,1,140,10|10,3:1|1:1,0:0:0:0:
57,119,91980,5,2,3:1:0:0:
133,153,92143,1,2,2:1:0:0:
119,235,92306,1,0,1:1:0:0:
192,276,92469,2,0,B|311:248,1,105.000004005432,2|2,2:1|2:1,0:0:0:0:
328,175,92958,1,0,1:1:0:0:
308,256,93121,2,0,B|332:358,1,105.000004005432,2|2,2:1|2:1,0:0:0:0:
248,351,93610,1,0,1:1:0:0:
248,351,93773,1,2,2:1:0:0:
110,382,93937,6,0,B|95:309|95:309|147:257,1,140,10|10,3:1|1:1,0:0:0:0:
141,262,94589,6,0,P|139:233|134:204,1,52.5000020027161,2|2,3:1|2:1,0:0:0:0:
65,163,94915,1,0,1:1:0:0:
126,105,95078,2,0,B|170:137|170:137|235:126,1,105.000004005432,2|2,2:1|2:1,0:0:0:0:
279,68,95567,1,0,1:1:0:0:
345,118,95730,2,0,P|351:162|360:201,1,78.7500030040742,2|0,2:1|0:0,0:0:0:0:
381,214,96056,5,2,1:1:0:0:
480,246,96219,1,0,1:1:0:0:
453,165,96382,1,2,1:1:0:0:
408,296,96545,6,0,B|317:311|371:353|280:369,1,140,14|10,3:1|1:1,0:0:0:0:
292,366,97197,5,2,3:1:0:0:
238,301,97360,1,2,2:1:0:0:
158,328,97523,1,0,1:1:0:0:
158,328,97687,2,0,B|127:285|127:285|152:229,1,105.000004005432,2|2,2:1|2:1,0:0:0:0:
227,266,98176,1,0,1:1:0:0:
214,182,98339,2,0,B|245:139|245:139|220:83,1,105.000004005432,2|2,2:1|2:1,0:0:0:0:
147,127,98828,1,0,1:1:0:0:
147,127,98991,1,2,2:1:0:0:
82,251,99154,6,0,L|252:279,1,140,10|10,3:1|1:1,0:0:0:0:
220,273,99806,6,0,L|264:333,1,52.5000020027161,2|2,3:1|2:1,0:0:0:0:
327,349,100132,1,0,1:1:0:0:
395,300,100295,2,0,P|433:258|489:266,1,105.000004005432,2|2,2:1|2:1,0:0:0:0:
508,181,100784,1,0,1:1:0:0:
510,97,100947,2,0,P|470:64|469:14,1,105.000004005432,2|2,2:1|2:1,0:0:0:0:
385,2,101437,1,0,1:1:0:0:
385,2,101600,1,2,2:1:0:0:
410,139,101763,6,0,L|262:169,1,140,10|10,3:1|1:1,0:0:0:0:
272,166,102415,5,2,3:1:0:0:
197,205,102578,1,2,2:1:0:0:
122,167,102741,1,0,1:1:0:0:
135,84,102904,2,0,B|94:51|94:51|29:61,1,105.000004005432,2|2,2:1|2:1,0:0:0:0:
1,132,103393,1,0,1:1:0:0:
30,53,103556,2,0,B|82:43|82:43|115:0,1,105.000004005432,2|2,2:1|2:1,0:0:0:0:
209,29,104045,1,0,1:1:0:0:
209,29,104208,1,2,2:1:0:0:
293,143,104371,6,0,P|362:155|382:226,1,140,10|10,3:1|1:1,0:0:0:0:
384,214,105023,6,0,L|448:206,1,52.5000020027161,2|2,3:1|2:1,0:0:0:0:
450,124,105350,1,0,1:1:0:0:
385,69,105513,2,0,L|261:50,1,105.000004005432,2|2,2:1|2:1,0:0:0:0:
218,108,106002,1,0,1:1:0:0:
271,172,106165,2,0,B|299:200|299:200|293:249,1,78.7500030040742,2|0,2:1|0:0,0:0:0:0:
271,257,106491,5,2,1:1:0:0:
169,232,106654,1,0,1:1:0:0:
144,334,106817,1,2,1:1:0:0:
245,352,106980,1,12,3:2:0:0:
258,191,117415,5,12,3:2:0:0:
258,191,117741,6,0,L|253:133,1,45.4999979171754,4|0,2:2|0:0,0:0:0:0:
313,88,118067,2,0,L|318:30,2,45.4999979171754,0|0|4,0:0|0:0|2:2,0:0:0:0:
385,126,118556,2,0,P|439:174|414:235,1,136.499993751526,8|4,0:0|2:2,0:0:0:0:
368,289,119208,2,0,B|261:263|282:357|190:332,1,181.999991668702,8|0,2:2|0:0,0:0:0:0:
144,275,120023,5,8,3:2:0:0:
144,275,120350,6,0,L|154:223,1,45.4999979171754,4|0,2:2|0:0,0:0:0:0:
79,194,120676,2,0,L|69:142,1,45.4999979171754
130,94,121002,1,4,2:2:0:0:
130,94,121165,2,0,P|224:133|225:218,2,181.999991668702,8|8|0,2:2|2:2|0:0,0:0:0:0:
50,73,122632,5,8,3:2:0:0:
50,72,122958,6,0,L|101:65,1,45.4999979171754,4|0,2:2|0:0,0:0:0:0:
155,121,123284,2,0,L|200:127,2,45.4999979171754,0|0|4,0:0|0:0|2:2,0:0:0:0:
170,40,123773,2,0,P|246:32|277:89,1,136.499993751526,8|4,2:2|2:2,0:0:0:0:
279,157,124426,2,0,P|365:163|393:74,1,181.999991668702,8|0,2:2|0:0,0:0:0:0:
341,24,125241,5,8,3:2:0:0:
341,24,125567,6,0,L|294:16,1,45.4999979171754,4|0,2:2|0:0,0:0:0:0:
221,49,125893,2,0,L|229:96,1,45.4999979171754
165,146,126219,1,4,2:2:0:0:
165,146,126382,2,0,L|118:138,1,45.4999979171754,0|0,0:0|3:2,0:0:0:0:
94,249,126708,5,2,1:2:0:0:
94,249,126871,1,2,1:2:0:0:
63,70,127197,5,2,1:2:0:0:
63,70,127360,1,0,1:2:0:0:
0,137,127523,6,0,L|3:168,1,22.7499989585877,0|0,3:2|3:2,0:0:0:0:
25,160,127687,2,0,L|28:191,1,22.7499989585877,0|0,3:2|3:2,0:0:0:0:
0,207,127850,6,0,B|110:189|67:275|185:249,1,181.999991668701,6|2,3:1|1:2,0:0:0:0:
233,189,128339,1,2,2:2:0:0:
167,125,128502,2,0,L|155:60,1,45.4999979171754,2|0,3:1|0:0,0:0:0:0:
149,35,128665,1,2,2:1:0:0:
239,42,128828,1,2,1:1:0:0:
293,114,128991,6,0,L|411:140,1,90.9999958343507,2|0,2:1|3:0,0:0:0:0:
444,67,129317,2,0,L|362:156,1,90.9999958343507,2|0,2:1|1:0,0:0:0:0:
413,219,129643,2,0,P|438:281|463:363,1,136.499993751526,10|0,2:1|0:0,0:0:0:0:
458,347,129969,1,10,2:1:0:0:
368,341,130132,2,0,B|357:299|357:299|394:256,1,90.9999958343507,0|10,1:0|2:1,0:0:0:0:
478,257,130458,1,2,3:3:0:0:
302,210,130784,5,2,1:2:0:0:
302,210,130947,2,0,B|223:162|223:162|119:192,1,181.999991668702,2|2,2:2|2:2,0:0:0:0:
180,267,131437,1,2,1:2:0:0:
122,337,131600,2,0,P|65:339|32:351,2,90.9999958343508,2|0|2,2:1|3:0|2:1,0:0:0:0:
180,267,132089,1,2,1:0:0:0:
136,186,132252,2,0,P|91:176|52:153,2,90.9999958343508,10|0|2,2:1|3:0|2:1,0:0:0:0:
226,183,132741,2,0,B|250:184|250:184|281:153,1,45.4999979171754,2|0,1:1|0:0,0:0:0:0:
295,134,132904,1,2,2:1:0:0:
168,83,133067,6,0,P|180:204|177:295,1,181.999991668702,2|2,3:3|1:2,0:0:0:0:
118,331,133556,1,2,2:2:0:0:
206,353,133719,2,0,L|281:369,1,45.4999979171754,2|0,3:1|0:0,0:0:0:0:
295,370,133882,1,2,2:1:0:0:
352,299,134045,1,2,1:1:0:0:
279,244,134208,6,0,P|286:195|296:139,1,90.9999958343508,2|0,2:1|3:0,0:0:0:0:
203,140,134534,2,0,P|252:147|308:157,1,90.9999958343508,2|0,2:1|1:0,0:0:0:0:
364,98,134860,2,0,P|435:104|512:110,1,136.499993751526,10|0,2:1|0:0,0:0:0:0:
500,109,135187,1,10,2:1:0:0:
479,20,135350,2,0,B|426:1|426:1|373:19,1,90.9999958343508,2|10,1:2|2:1,0:0:0:0:
364,98,135676,1,2,3:3:0:0:
501,216,136002,5,2,1:2:0:0:
501,216,136165,2,0,B|425:272|425:272|318:234,1,181.999991668702,2|2,2:2|2:1,0:0:0:0:
379,159,136655,1,2,1:1:0:0:
336,78,136818,2,0,B|289:68|289:68|245:100,2,90.9999958343508,2|0|2,2:1|3:0|2:1,0:0:0:0:
379,159,137307,1,2,1:0:0:0:
289,174,137470,2,0,L|195:191,1,90.9999958343508,2|0,2:1|3:0,0:0:0:0:
110,205,137795,1,2,2:1:0:0:
26,169,137958,6,0,P|20:199|15:231,1,45.4999979171754,2|0,1:0|1:0,0:0:0:0:
10,258,138121,2,0,P|5:280|1:302,1,45.4999979171754,2|0,1:0|1:0,0:0:0:0:
25,239,138284,6,0,B|120:234|72:327|187:320,1,181.999991668702,6|2,3:1|1:2,0:0:0:0:
237,253,138773,1,2,2:2:0:0:
315,300,138937,2,0,L|392:329,1,45.4999979171754,2|0,3:1|0:0,0:0:0:0:
400,331,139100,1,2,2:1:0:0:
468,271,139263,1,2,1:1:0:0:
385,232,139426,6,0,P|369:170|356:135,1,90.9999958343508,2|0,2:1|3:0,0:0:0:0:
423,79,139752,2,0,P|377:123|353:152,1,90.9999958343508,2|0,2:1|1:0,0:0:0:0:
270,129,140078,2,0,B|194:103|210:166|121:110,1,136.499993751526,10|0,2:1|0:0,0:0:0:0:
138,120,140404,1,10,2:1:0:0:
92,41,140567,2,0,B|51:62|51:62|49:119,1,90.9999958343508,0|10,1:0|2:1,0:0:0:0:
80,192,140893,1,2,3:3:0:0:
255,144,141219,6,0,P|263:190|269:242,1,90.9999958343508,2|2,1:2|2:2,0:0:0:0:
209,303,141545,1,0,3:2:0:0:
290,343,141708,1,2,2:2:0:0:
348,273,141871,1,2,1:2:0:0:
268,233,142034,2,0,P|276:184|289:126,2,90.9999958343508,2|0|2,2:1|3:0|2:1,0:0:0:0:
348,273,142523,1,2,1:0:0:0:
439,266,142687,2,0,P|447:217|460:159,2,90.9999958343508,10|0|2,2:1|3:0|2:1,0:0:0:0:
348,273,143176,2,0,L|335:326,1,45.4999979171754,2|0,1:1|0:0,0:0:0:0:
327,361,143339,1,2,2:1:0:0:
208,293,143502,6,0,P|206:216|315:165,1,181.999991668702,2|2,3:3|1:2,0:0:0:0:
355,220,143991,1,2,2:2:0:0:
372,130,144154,2,0,L|382:72,1,45.4999979171754,2|0,3:1|0:0,0:0:0:0:
387,40,144317,1,2,2:1:0:0:
299,65,144480,1,2,1:1:0:0:
235,0,144643,6,0,P|194:15|130:30,1,90.9999958343508,2|0,2:1|3:0,0:0:0:0:
105,107,144969,2,0,P|123:67|158:11,1,90.9999958343508,2|0,2:1|1:0,0:0:0:0:
200,100,145295,2,0,P|238:164|287:253,1,136.499993751526,10|0,2:1|0:0,0:0:0:0:
268,218,145621,1,10,2:1:0:0:
298,303,145784,2,0,B|254:320|254:320|207:280,1,90.9999958343508,2|10,1:2|2:1,0:0:0:0:
163,220,146110,1,2,3:3:0:0:
330,146,146437,5,2,1:2:0:0:
330,146,146600,2,0,B|434:124|398:199|506:180,1,181.999991668702,2|2,2:2|2:1,0:0:0:0:
474,93,147089,1,2,1:1:0:0:
394,49,147252,2,0,P|346:43|301:31,2,90.9999958343508,2|0|2,2:1|3:0|2:1,0:0:0:0:
474,93,147741,1,2,1:0:0:0:
400,146,147904,2,0,P|355:164|314:187,2,90.9999958343508,2|0|2,2:1|3:0|2:1,0:0:0:0:
365,62,148393,6,0,P|368:39|373:17,1,45.4999979171754,2|0,1:0|1:0,0:0:0:0:
417,4,148556,2,0,P|439:7|461:12,1,45.4999979171754,2|0,1:0|1:0,0:0:0:0:
394,49,148719,6,0,P|303:55|192:69,1,181.999991668702,6|2,3:1|1:2,0:0:0:0:
164,143,149208,1,2,2:2:0:0:
223,211,149371,2,0,P|216:238|207:291,1,45.4999979171754,2|0,3:1|0:0,0:0:0:0:
207,300,149534,1,2,2:1:0:0:
150,371,149697,1,2,1:1:0:0:
72,323,149860,6,0,P|54:266|41:231,1,90.9999958343508,2|0,2:1|3:0,0:0:0:0:
102,166,150187,2,0,P|160:178|197:185,1,90.9999958343508,2|0,2:1|1:0,0:0:0:0:
159,349,150513,2,0,P|209:297|270:244,1,136.499993751526,10|0,2:1|0:0,0:0:0:0:
257,254,150839,1,10,2:1:0:0:
286,167,151002,2,0,P|344:179|381:186,1,90.9999958343508,0|10,1:0|2:1,0:0:0:0:
351,273,151328,1,2,3:3:0:0:
351,91,151654,5,2,1:2:0:0:
351,91,151817,2,0,P|338:19|234:11,1,181.999991668702,2|2,2:2|2:2,0:0:0:0:
209,89,152306,1,2,1:2:0:0:
147,22,152469,2,0,L|46:50,2,90.9999958343508,2|0|2,2:1|3:0|2:1,0:0:0:0:
209,89,152958,1,2,1:0:0:0:
193,178,153121,2,0,L|92:206,2,90.9999958343508,10|0|2,2:1|3:0|2:1,0:0:0:0:
209,89,153610,2,0,L|277:104,1,45.4999979171754,2|0,1:1|0:0,0:0:0:0:
298,109,153773,1,2,2:1:0:0:
397,198,153937,6,0,B|371:290|439:268|396:381,1,181.999991668702,2|2,3:3|1:2,0:0:0:0:
323,322,154426,1,2,2:2:0:0:
293,235,154589,2,0,L|304:169,1,45.4999979171754,2|0,3:1|0:0,0:0:0:0:
312,145,154752,1,2,2:1:0:0:
394,106,154915,1,2,1:1:0:0:
397,198,155078,6,0,P|454:227|487:254,1,90.9999958343508,2|0,2:1|3:0,0:0:0:0:
476,334,155404,2,0,P|472:270|479:228,1,90.9999958343508,2|0,2:1|1:0,0:0:0:0:
323,322,155730,2,0,P|237:286|170:272,1,136.499993751526,10|0,2:1|0:0,0:0:0:0:
195,275,156056,1,10,2:1:0:0:
133,343,156219,2,0,B|101:310|101:310|117:243,1,90.9999958343508,2|10,1:2|2:1,0:0:0:0:
167,194,156545,1,2,3:3:0:0:
32,77,156871,5,2,1:2:0:0:
32,77,157034,2,0,L|219:40,1,181.999991668702,2|2,2:2|2:1,0:0:0:0:
278,101,157523,1,2,1:1:0:0:
202,152,157687,2,0,B|157:140|157:140|143:89,2,90.9999958343508,2|0|2,2:1|3:0|2:1,0:0:0:0:
278,101,158176,1,2,1:0:0:0:
278,101,158339,1,2,2:1:0:0:
339,168,158502,2,0,P|327:211|318:265,1,90.9999958343508,0|2,3:0|2:1,0:0:0:0:
360,337,158828,6,0,P|338:344|317:352,1,45.4999979171754,2|0,1:0|1:0,0:0:0:0:
360,366,158991,2,0,P|381:371|403:378,1,45.4999979171754,2|0,1:0|1:0,0:0:0:0:
391,347,159154,6,0,P|475:305|470:224,1,181.999991668702,6|2,3:1|1:2,0:0:0:0:
394,179,159643,1,2,2:2:0:0:
475,137,159806,2,0,L|482:83,1,45.4999979171754,2|0,3:1|0:0,0:0:0:0:
485,46,159969,1,2,2:1:0:0:
405,1,160132,1,2,1:1:0:0:
371,85,160295,6,0,L|275:100,1,90.9999958343508,2|0,2:1|3:0,0:0:0:0:
198,60,160621,2,0,L|102:75,1,90.9999958343508,2|0,2:1|1:0,0:0:0:0:
49,231,160947,2,0,P|114:224|130:151,1,136.499993751526,10|0,2:1|0:0,0:0:0:0:
134,163,161273,1,10,2:1:0:0:
45,142,161437,2,0,B|12:108|12:108|19:57,1,90.9999958343508,0|10,1:0|2:1,0:0:0:0:
108,74,161763,1,2,3:3:0:0:
26,236,162089,6,0,B|56:270|56:270|125:258,1,90.9999958343508,2|2,1:2|2:2,0:0:0:0:
161,194,162415,1,0,3:2:0:0:
197,277,162578,1,2,2:2:0:0:
259,211,162741,1,2,1:2:0:0:
292,295,162904,2,0,P|276:344|264:393,2,90.9999958343508,2|0|2,2:1|3:0|2:1,0:0:0:0:
366,242,163393,1,2,1:0:0:0:
338,155,163556,2,0,P|354:106|366:57,2,90.9999958343508,10|0|2,2:1|3:0|2:1,0:0:0:0:
259,211,164045,2,0,L|206:198,1,45.4999979171754,2|0,1:1|0:0,0:0:0:0:
171,190,164208,1,2,2:1:0:0:
92,300,164371,6,0,B|189:275|170:364|272:334,1,181.999991668702,2|2,3:3|1:2,0:0:0:0:
296,252,164860,1,2,2:2:0:0:
222,197,165023,2,0,L|147:210,1,45.4999979171754,2|0,3:1|0:0,0:0:0:0:
132,215,165187,1,2,2:1:0:0:
73,144,165350,1,2,1:1:0:0:
159,115,165513,6,0,P|179:57|194:24,1,90.9999958343508,2|0,2:1|3:0,0:0:0:0:
277,57,165839,2,0,P|259:98|244:142,1,90.9999958343508,2|0,2:1|1:0,0:0:0:0:
78,173,166165,2,0,P|39:100|6:40,1,136.499993751526,10|0,2:1|0:0,0:0:0:0:
13,52,166491,1,10,2:1:0:0:
89,3,166654,2,0,P|143:18|190:37,1,90.9999958343508,2|10,1:2|2:1,0:0:0:0:
159,115,166980,1,2,3:3:0:0:
295,235,167306,5,2,1:2:0:0:
295,235,167469,2,0,B|325:269|325:269|317:333,1,90.9999958343508,2|0,2:2|3:0,0:0:0:0:
229,300,167795,1,2,2:1:0:0:
152,349,167958,1,2,1:1:0:0:
101,273,168121,2,0,P|38:255|-14:247,1,90.9999958343508,2|0,2:1|3:0,0:0:0:0:
39,163,168447,2,0,P|102:181|154:189,2,90.9999958343508,2|2|2,2:1|1:0|2:1,0:0:0:0:
65,75,168937,2,0,P|110:85|171:106,1,90.9999958343508,0|2,3:0|2:1,0:0:0:0:
212,167,169263,6,0,P|234:162|256:158,1,45.4999979171754,2|0,1:0|1:0,0:0:0:0:
293,131,169426,2,0,P|296:108|301:86,1,45.4999979171754,2|0,1:0|1:0,0:0:0:0:
341,65,169589,5,14,1:1:0:0:
429,44,169752,1,14,1:1:0:0:
405,131,169915,1,14,1:1:0:0:
