osu file format v14

[General]
AudioFilename: audio.mp3
AudioLeadIn: 0
PreviewTime: 37883
Countdown: 0
SampleSet: Soft
StackLeniency: 0.7
Mode: 3
LetterboxInBreaks: 0
SpecialStyle: 0
WidescreenStoryboard: 0

[Editor]
Bookmarks: 21383,53383,64049,74716,85383,106716,128049,134716
DistanceSpacing: 0.85
BeatDivisor: 4
GridSize: 32
TimelineZoom: 1.2

[Metadata]
Title:Sportivnye ochki
TitleUnicode:Спортивные очки
Artist:Buerak
ArtistUnicode:Буерак
Creator:Morbon
Version:CoolCat
Source:
Tags:Russian Post-Punk
BeatmapID:1168173
BeatmapSetID:551514

[Difficulty]
HPDrainRate:7
CircleSize:4
OverallDifficulty:8
ApproachRate:5
SliderMultiplier:1.7
SliderTickRate:1

[Events]
//Background and Video events
0,0,"rjnsdjxrf[.jpg",0,0
//Break Periods
//Storyboard Layer 0 (Background)
//Storyboard Layer 1 (Fail)
//Storyboard Layer 2 (Pass)
//Storyboard Layer 3 (Foreground)
//Storyboard Sound Samples

[TimingPoints]
50,333.333333333333,4,2,0,5,1,0
106716,-100,4,2,0,5,0,1
128049,-100,4,2,0,5,0,0

[HitObjects]
448,192,50,5,0,0:0:0:0:
320,192,133,1,0,0:0:0:0:
192,192,216,1,0,0:0:0:0:
64,192,299,1,0,0:0:0:0:
320,192,383,1,0,0:0:0:0:
192,192,466,1,0,0:0:0:0:
64,192,549,1,0,0:0:0:0:
320,192,633,1,0,0:0:0:0:
192,192,716,1,0,0:0:0:0:
64,192,799,1,0,0:0:0:0:
320,192,883,1,0,0:0:0:0:
192,192,966,1,0,0:0:0:0:
64,192,1049,1,0,0:0:0:0:
192,192,1133,1,0,0:0:0:0:
320,192,1216,1,0,0:0:0:0:
448,192,1299,1,0,0:0:0:0:
64,192,1383,1,0,0:0:0:0:
192,192,1466,1,0,0:0:0:0:
320,192,1549,1,0,0:0:0:0:
448,192,1633,1,0,0:0:0:0:
192,192,1716,1,0,0:0:0:0:
320,192,1799,1,0,0:0:0:0:
448,192,1883,1,0,0:0:0:0:
192,192,1966,1,0,0:0:0:0:
320,192,2049,1,0,0:0:0:0:
448,192,2133,1,0,0:0:0:0:
192,192,2216,1,0,0:0:0:0:
320,192,2299,1,0,0:0:0:0:
448,192,2383,1,0,0:0:0:0:
320,192,2466,1,0,0:0:0:0:
192,192,2549,1,0,0:0:0:0:
64,192,2633,1,0,0:0:0:0:
448,192,2716,1,0,0:0:0:0:
192,192,2716,1,0,0:0:0:0:
320,192,2799,1,0,0:0:0:0:
64,192,2883,1,0,0:0:0:0:
320,192,2966,1,0,0:0:0:0:
64,192,3049,1,0,0:0:0:0:
320,192,3133,1,0,0:0:0:0:
64,192,3216,1,0,0:0:0:0:
320,192,3299,1,0,0:0:0:0:
64,192,3383,1,0,0:0:0:0:
320,192,3466,1,0,0:0:0:0:
64,192,3549,1,0,0:0:0:0:
320,192,3633,1,0,0:0:0:0:
64,192,3716,1,0,0:0:0:0:
320,192,3799,1,0,0:0:0:0:
64,192,3883,1,0,0:0:0:0:
320,192,3966,1,0,0:0:0:0:
192,192,4049,1,0,0:0:0:0:
448,192,4133,1,0,0:0:0:0:
192,192,4216,1,0,0:0:0:0:
448,192,4299,1,0,0:0:0:0:
192,192,4383,1,0,0:0:0:0:
448,192,4466,1,0,0:0:0:0:
192,192,4549,1,0,0:0:0:0:
448,192,4633,1,0,0:0:0:0:
320,192,4716,1,0,0:0:0:0:
192,192,4799,1,0,0:0:0:0:
320,192,4883,1,0,0:0:0:0:
192,192,4966,1,0,0:0:0:0:
320,192,5049,1,0,0:0:0:0:
192,192,5133,1,0,0:0:0:0:
320,192,5216,1,0,0:0:0:0:
192,192,5299,1,0,0:0:0:0:
448,192,5383,1,0,0:0:0:0:
64,192,5383,1,0,0:0:0:0:
320,192,5466,1,0,0:0:0:0:
192,192,5549,1,0,0:0:0:0:
320,192,5633,1,0,0:0:0:0:
64,192,5716,1,0,0:0:0:0:
448,192,5799,1,0,0:0:0:0:
192,192,5883,1,0,0:0:0:0:
320,192,5966,1,0,0:0:0:0:
192,192,6049,1,0,0:0:0:0:
448,192,6133,1,0,0:0:0:0:
64,192,6216,1,0,0:0:0:0:
320,192,6299,1,0,0:0:0:0:
192,192,6383,1,0,0:0:0:0:
320,192,6466,1,0,0:0:0:0:
64,192,6549,1,0,0:0:0:0:
448,192,6633,1,0,0:0:0:0:
320,192,6716,1,0,0:0:0:0:
192,192,6716,1,0,0:0:0:0:
64,192,6799,1,0,0:0:0:0:
448,192,6883,1,0,0:0:0:0:
64,192,6966,1,0,0:0:0:0:
320,192,7049,1,0,0:0:0:0:
192,192,7133,1,0,0:0:0:0:
448,192,7216,1,0,0:0:0:0:
64,192,7299,1,0,0:0:0:0:
448,192,7383,1,0,0:0:0:0:
192,192,7466,1,0,0:0:0:0:
320,192,7549,1,0,0:0:0:0:
64,192,7633,1,0,0:0:0:0:
192,192,7716,1,0,0:0:0:0:
320,192,7799,1,0,0:0:0:0:
192,192,7883,1,0,0:0:0:0:
64,192,7966,1,0,0:0:0:0:
320,192,8049,1,0,0:0:0:0:
448,192,8049,1,0,0:0:0:0:
192,192,8133,1,0,0:0:0:0:
320,192,8216,1,0,0:0:0:0:
192,192,8299,1,0,0:0:0:0:
320,192,8383,1,0,0:0:0:0:
192,192,8466,1,0,0:0:0:0:
320,192,8549,1,0,0:0:0:0:
192,192,8633,1,0,0:0:0:0:
320,192,8716,1,0,0:0:0:0:
192,192,8799,1,0,0:0:0:0:
320,192,8883,1,0,0:0:0:0:
192,192,8966,1,0,0:0:0:0:
320,192,9049,1,0,0:0:0:0:
192,192,9133,1,0,0:0:0:0:
320,192,9216,1,0,0:0:0:0:
192,192,9299,1,0,0:0:0:0:
448,192,9383,1,0,0:0:0:0:
64,192,9466,1,0,0:0:0:0:
448,192,9549,1,0,0:0:0:0:
64,192,9633,1,0,0:0:0:0:
448,192,9716,1,0,0:0:0:0:
64,192,9799,1,0,0:0:0:0:
448,192,9883,1,0,0:0:0:0:
64,192,9966,1,0,0:0:0:0:
448,192,10049,1,0,0:0:0:0:
192,192,10133,1,0,0:0:0:0:
448,192,10216,1,0,0:0:0:0:
192,192,10299,1,0,0:0:0:0:
448,192,10383,1,0,0:0:0:0:
192,192,10466,1,0,0:0:0:0:
448,192,10549,1,0,0:0:0:0:
192,192,10633,1,0,0:0:0:0:
64,192,10716,1,0,0:0:0:0:
320,192,10716,1,0,0:0:0:0:
192,192,10799,1,0,0:0:0:0:
448,192,10883,1,0,0:0:0:0:
320,192,10966,1,0,0:0:0:0:
64,192,11049,1,0,0:0:0:0:
192,192,11133,1,0,0:0:0:0:
448,192,11216,1,0,0:0:0:0:
320,192,11299,1,0,0:0:0:0:
64,192,11383,1,0,0:0:0:0:
192,192,11466,1,0,0:0:0:0:
448,192,11549,1,0,0:0:0:0:
320,192,11633,1,0,0:0:0:0:
64,192,11716,1,0,0:0:0:0:
192,192,11799,1,0,0:0:0:0:
320,192,11883,1,0,0:0:0:0:
448,192,11966,1,0,0:0:0:0:
320,192,12049,1,0,0:0:0:0:
64,192,12049,1,0,0:0:0:0:
448,192,12133,1,0,0:0:0:0:
192,192,12216,1,0,0:0:0:0:
64,192,12299,1,0,0:0:0:0:
320,192,12383,1,0,0:0:0:0:
448,192,12466,1,0,0:0:0:0:
192,192,12549,1,0,0:0:0:0:
64,192,12633,1,0,0:0:0:0:
320,192,12716,1,0,0:0:0:0:
448,192,12799,1,0,0:0:0:0:
192,192,12883,1,0,0:0:0:0:
64,192,12966,1,0,0:0:0:0:
320,192,13049,1,0,0:0:0:0:
448,192,13133,1,0,0:0:0:0:
320,192,13216,1,0,0:0:0:0:
192,192,13299,1,0,0:0:0:0:
64,192,13383,1,0,0:0:0:0:
448,192,13383,1,0,0:0:0:0:
192,192,13466,1,0,0:0:0:0:
448,192,13549,1,0,0:0:0:0:
192,192,13633,1,0,0:0:0:0:
448,192,13716,1,0,0:0:0:0:
192,192,13799,1,0,0:0:0:0:
448,192,13883,1,0,0:0:0:0:
192,192,13966,1,0,0:0:0:0:
448,192,14049,1,0,0:0:0:0:
192,192,14133,1,0,0:0:0:0:
448,192,14216,1,0,0:0:0:0:
192,192,14299,1,0,0:0:0:0:
448,192,14383,1,0,0:0:0:0:
192,192,14466,1,0,0:0:0:0:
448,192,14549,1,0,0:0:0:0:
192,192,14633,1,0,0:0:0:0:
64,192,14716,1,0,0:0:0:0:
192,192,14799,1,0,0:0:0:0:
64,192,14883,1,0,0:0:0:0:
192,192,14966,1,0,0:0:0:0:
64,192,15049,1,0,0:0:0:0:
192,192,15133,1,0,0:0:0:0:
64,192,15216,1,0,0:0:0:0:
192,192,15299,1,0,0:0:0:0:
320,192,15383,1,0,0:0:0:0:
448,192,15466,1,0,0:0:0:0:
320,192,15549,1,0,0:0:0:0:
448,192,15633,1,0,0:0:0:0:
320,192,15716,1,0,0:0:0:0:
448,192,15799,1,0,0:0:0:0:
320,192,15883,1,0,0:0:0:0:
448,192,15966,1,0,0:0:0:0:
320,192,16049,1,0,0:0:0:0:
64,192,16049,1,0,0:0:0:0:
192,192,16133,1,0,0:0:0:0:
320,192,16216,1,0,0:0:0:0:
192,192,16299,1,0,0:0:0:0:
320,192,16383,1,0,0:0:0:0:
192,192,16466,1,0,0:0:0:0:
320,192,16549,1,0,0:0:0:0:
448,192,16633,1,0,0:0:0:0:
320,192,16716,1,0,0:0:0:0:
448,192,16799,1,0,0:0:0:0:
320,192,16883,1,0,0:0:0:0:
448,192,16966,1,0,0:0:0:0:
320,192,17049,1,0,0:0:0:0:
192,192,17133,1,0,0:0:0:0:
64,192,17216,1,0,0:0:0:0:
192,192,17299,1,0,0:0:0:0:
320,192,17383,1,0,0:0:0:0:
448,192,17383,1,0,0:0:0:0:
192,192,17466,1,0,0:0:0:0:
320,192,17549,1,0,0:0:0:0:
192,192,17633,1,0,0:0:0:0:
320,192,17716,1,0,0:0:0:0:
192,192,17799,1,0,0:0:0:0:
64,192,17883,1,0,0:0:0:0:
192,192,17966,1,0,0:0:0:0:
64,192,18049,1,0,0:0:0:0:
192,192,18133,1,0,0:0:0:0:
64,192,18216,1,0,0:0:0:0:
192,192,18299,1,0,0:0:0:0:
320,192,18383,1,0,0:0:0:0:
448,192,18466,1,0,0:0:0:0:
320,192,18549,1,0,0:0:0:0:
192,192,18633,1,0,0:0:0:0:
320,192,18716,1,0,0:0:0:0:
448,192,18799,1,0,0:0:0:0:
320,192,18883,1,0,0:0:0:0:
448,192,18966,1,0,0:0:0:0:
320,192,19049,1,0,0:0:0:0:
448,192,19133,1,0,0:0:0:0:
320,192,19216,1,0,0:0:0:0:
448,192,19299,1,0,0:0:0:0:
320,192,19383,1,0,0:0:0:0:
448,192,19466,1,0,0:0:0:0:
320,192,19549,1,0,0:0:0:0:
448,192,19633,1,0,0:0:0:0:
320,192,19716,1,0,0:0:0:0:
448,192,19799,1,0,0:0:0:0:
320,192,19883,1,0,0:0:0:0:
448,192,19966,1,0,0:0:0:0:
320,192,20049,1,0,0:0:0:0:
64,192,20133,1,0,0:0:0:0:
320,192,20216,1,0,0:0:0:0:
64,192,20299,1,0,0:0:0:0:
320,192,20383,1,0,0:0:0:0:
64,192,20466,1,0,0:0:0:0:
320,192,20549,1,0,0:0:0:0:
64,192,20633,1,0,0:0:0:0:
320,192,20716,1,0,0:0:0:0:
192,192,20799,1,0,0:0:0:0:
448,192,20883,1,0,0:0:0:0:
192,192,20966,1,0,0:0:0:0:
448,192,21049,1,0,0:0:0:0:
192,192,21133,1,0,0:0:0:0:
448,192,21216,1,0,0:0:0:0:
192,192,21299,1,0,0:0:0:0:
448,192,21383,1,0,0:0:0:0:
64,192,21383,1,0,0:0:0:0:
320,192,21383,1,0,0:0:0:0:
64,192,21549,1,0,0:0:0:0:
192,192,21549,1,0,0:0:0:0:
320,192,21549,1,0,0:0:0:0:
320,192,21716,1,0,0:0:0:0:
448,192,21716,1,0,0:0:0:0:
64,192,21716,1,0,0:0:0:0:
448,192,21883,1,0,0:0:0:0:
64,192,21883,1,0,0:0:0:0:
192,192,21883,1,0,0:0:0:0:
192,192,22049,1,0,0:0:0:0:
320,192,22049,1,0,0:0:0:0:
448,192,22049,1,0,0:0:0:0:
320,192,22216,1,0,0:0:0:0:
64,192,22216,1,0,0:0:0:0:
192,192,22216,1,0,0:0:0:0:
64,192,22383,1,0,0:0:0:0:
320,192,22383,1,0,0:0:0:0:
448,192,22383,1,0,0:0:0:0:
448,192,22549,1,0,0:0:0:0:
192,192,22549,1,0,0:0:0:0:
64,192,22549,1,0,0:0:0:0:
64,192,22716,1,0,0:0:0:0:
320,192,22716,1,0,0:0:0:0:
448,192,22716,1,0,0:0:0:0:
448,192,22883,1,0,0:0:0:0:
192,192,22883,1,0,0:0:0:0:
64,192,22883,1,0,0:0:0:0:
192,192,23049,1,0,0:0:0:0:
320,192,23049,1,0,0:0:0:0:
448,192,23049,1,0,0:0:0:0:
320,192,23216,1,0,0:0:0:0:
192,192,23216,1,0,0:0:0:0:
64,192,23216,1,0,0:0:0:0:
192,192,23383,1,0,0:0:0:0:
320,192,23383,1,0,0:0:0:0:
448,192,23383,1,0,0:0:0:0:
320,192,23549,1,0,0:0:0:0:
192,192,23549,1,0,0:0:0:0:
64,192,23549,1,0,0:0:0:0:
64,192,23716,1,0,0:0:0:0:
192,192,23716,1,0,0:0:0:0:
448,192,23716,1,0,0:0:0:0:
448,192,23883,1,0,0:0:0:0:
320,192,23883,1,0,0:0:0:0:
64,192,23883,1,0,0:0:0:0:
64,192,24049,1,0,0:0:0:0:
192,192,24049,1,0,0:0:0:0:
320,192,24049,1,0,0:0:0:0:
448,192,24049,1,0,0:0:0:0:
192,192,24216,1,0,0:0:0:0:
448,192,24216,1,0,0:0:0:0:
64,192,24216,1,0,0:0:0:0:
64,192,24383,1,0,0:0:0:0:
320,192,24383,1,0,0:0:0:0:
192,192,24383,1,0,0:0:0:0:
192,192,24549,1,0,0:0:0:0:
64,192,24549,1,0,0:0:0:0:
448,192,24549,1,0,0:0:0:0:
64,192,24716,1,0,0:0:0:0:
320,192,24716,1,0,0:0:0:0:
192,192,24716,1,0,0:0:0:0:
448,192,24883,1,0,0:0:0:0:
192,192,24883,1,0,0:0:0:0:
64,192,24883,1,0,0:0:0:0:
64,192,25049,1,0,0:0:0:0:
448,192,25049,1,0,0:0:0:0:
320,192,25049,1,0,0:0:0:0:
448,192,25216,1,0,0:0:0:0:
64,192,25216,1,0,0:0:0:0:
192,192,25216,1,0,0:0:0:0:
64,192,25383,1,0,0:0:0:0:
320,192,25383,1,0,0:0:0:0:
448,192,25383,1,0,0:0:0:0:
448,192,25549,1,0,0:0:0:0:
192,192,25549,1,0,0:0:0:0:
64,192,25549,1,0,0:0:0:0:
320,192,25716,1,0,0:0:0:0:
448,192,25716,1,0,0:0:0:0:
64,192,25716,1,0,0:0:0:0:
448,192,25883,1,0,0:0:0:0:
320,192,25883,1,0,0:0:0:0:
192,192,25883,1,0,0:0:0:0:
64,192,26049,1,0,0:0:0:0:
320,192,26049,1,0,0:0:0:0:
448,192,26049,1,0,0:0:0:0:
192,192,26216,1,0,0:0:0:0:
64,192,26216,1,0,0:0:0:0:
448,192,26216,1,0,0:0:0:0:
64,192,26383,1,0,0:0:0:0:
320,192,26383,1,0,0:0:0:0:
192,192,26383,1,0,0:0:0:0:
192,192,26549,1,0,0:0:0:0:
64,192,26549,1,0,0:0:0:0:
448,192,26549,1,0,0:0:0:0:
64,192,26716,1,0,0:0:0:0:
192,192,26716,1,0,0:0:0:0:
320,192,26716,1,0,0:0:0:0:
448,192,26716,1,0,0:0:0:0:
192,192,26883,1,0,0:0:0:0:
320,192,27049,1,0,0:0:0:0:
448,192,27049,1,0,0:0:0:0:
192,192,27216,1,0,0:0:0:0:
192,192,27383,1,0,0:0:0:0:
448,192,27383,1,0,0:0:0:0:
64,192,27383,1,0,0:0:0:0:
192,192,27549,1,0,0:0:0:0:
64,192,27549,1,0,0:0:0:0:
320,192,27549,1,0,0:0:0:0:
64,192,27716,1,0,0:0:0:0:
192,192,27716,1,0,0:0:0:0:
448,192,27716,1,0,0:0:0:0:
64,192,27883,1,0,0:0:0:0:
448,192,27883,1,0,0:0:0:0:
320,192,27883,1,0,0:0:0:0:
320,192,28049,1,0,0:0:0:0:
448,192,28049,1,0,0:0:0:0:
192,192,28049,1,0,0:0:0:0:
320,192,28216,1,0,0:0:0:0:
448,192,28216,1,0,0:0:0:0:
64,192,28216,1,0,0:0:0:0:
448,192,28383,1,0,0:0:0:0:
192,192,28383,1,0,0:0:0:0:
64,192,28383,1,0,0:0:0:0:
320,192,28549,1,0,0:0:0:0:
192,192,28549,1,0,0:0:0:0:
64,192,28549,1,0,0:0:0:0:
448,192,28716,1,0,0:0:0:0:
192,192,28716,1,0,0:0:0:0:
64,192,28716,1,0,0:0:0:0:
320,192,28883,1,0,0:0:0:0:
64,192,28883,1,0,0:0:0:0:
192,192,28883,1,0,0:0:0:0:
192,192,29049,1,0,0:0:0:0:
64,192,29049,1,0,0:0:0:0:
448,192,29049,1,0,0:0:0:0:
320,192,29216,1,0,0:0:0:0:
64,192,29216,1,0,0:0:0:0:
448,192,29216,1,0,0:0:0:0:
64,192,29383,1,0,0:0:0:0:
192,192,29383,1,0,0:0:0:0:
448,192,29383,1,0,0:0:0:0:
320,192,29383,1,0,0:0:0:0:
64,192,29549,1,0,0:0:0:0:
320,192,29716,1,0,0:0:0:0:
448,192,29716,1,0,0:0:0:0:
192,192,29883,1,0,0:0:0:0:
320,192,30049,1,0,0:0:0:0:
448,192,30049,1,0,0:0:0:0:
192,192,30049,1,0,0:0:0:0:
192,192,30216,1,0,0:0:0:0:
64,192,30216,1,0,0:0:0:0:
448,192,30216,1,0,0:0:0:0:
320,192,30383,1,0,0:0:0:0:
192,192,30383,1,0,0:0:0:0:
448,192,30383,1,0,0:0:0:0:
448,192,30549,1,0,0:0:0:0:
64,192,30549,1,0,0:0:0:0:
192,192,30549,1,0,0:0:0:0:
448,192,30716,1,0,0:0:0:0:
64,192,30716,1,0,0:0:0:0:
320,192,30716,1,0,0:0:0:0:
448,192,30883,1,0,0:0:0:0:
192,192,30883,1,0,0:0:0:0:
64,192,30883,1,0,0:0:0:0:
64,192,31049,1,0,0:0:0:0:
192,192,31049,1,0,0:0:0:0:
320,192,31049,1,0,0:0:0:0:
64,192,31216,1,0,0:0:0:0:
320,192,31216,1,0,0:0:0:0:
448,192,31216,1,0,0:0:0:0:
320,192,31383,1,0,0:0:0:0:
192,192,31383,1,0,0:0:0:0:
64,192,31383,1,0,0:0:0:0:
64,192,31549,1,0,0:0:0:0:
320,192,31549,1,0,0:0:0:0:
448,192,31549,1,0,0:0:0:0:
320,192,31716,1,0,0:0:0:0:
64,192,31716,1,0,0:0:0:0:
192,192,31716,1,0,0:0:0:0:
448,192,31883,1,0,0:0:0:0:
64,192,31883,1,0,0:0:0:0:
320,192,31883,1,0,0:0:0:0:
64,192,32049,1,0,0:0:0:0:
192,192,32049,1,0,0:0:0:0:
320,192,32049,1,0,0:0:0:0:
448,192,32049,1,0,0:0:0:0:
448,192,32216,1,0,0:0:0:0:
320,192,32383,1,0,0:0:0:0:
192,192,32383,1,0,0:0:0:0:
64,192,32549,1,0,0:0:0:0:
192,192,32716,1,0,0:0:0:0:
64,192,32716,1,0,0:0:0:0:
448,192,32716,1,0,0:0:0:0:
192,192,32883,1,0,0:0:0:0:
64,192,32883,1,0,0:0:0:0:
320,192,32883,1,0,0:0:0:0:
448,192,33049,1,0,0:0:0:0:
64,192,33049,1,0,0:0:0:0:
448,192,33216,1,0,0:0:0:0:
320,192,33216,1,0,0:0:0:0:
192,192,33216,1,0,0:0:0:0:
64,192,33383,1,0,0:0:0:0:
320,192,33383,1,0,0:0:0:0:
448,192,33383,1,0,0:0:0:0:
64,192,33549,1,0,0:0:0:0:
192,192,33549,1,0,0:0:0:0:
320,192,33549,1,0,0:0:0:0:
448,192,33716,1,0,0:0:0:0:
320,192,33716,1,0,0:0:0:0:
192,192,33883,1,0,0:0:0:0:
448,192,33883,1,0,0:0:0:0:
64,192,33883,1,0,0:0:0:0:
320,192,34049,1,0,0:0:0:0:
448,192,34049,1,0,0:0:0:0:
64,192,34049,1,0,0:0:0:0:
192,192,34216,1,0,0:0:0:0:
320,192,34216,1,0,0:0:0:0:
448,192,34216,1,0,0:0:0:0:
64,192,34383,1,0,0:0:0:0:
448,192,34383,1,0,0:0:0:0:
320,192,34383,1,0,0:0:0:0:
64,192,34549,1,0,0:0:0:0:
192,192,34549,1,0,0:0:0:0:
448,192,34549,1,0,0:0:0:0:
192,192,34716,1,0,0:0:0:0:
64,192,34716,1,0,0:0:0:0:
320,192,34716,1,0,0:0:0:0:
448,192,34716,1,0,0:0:0:0:
192,192,34883,1,0,0:0:0:0:
320,192,35049,1,0,0:0:0:0:
448,192,35049,1,0,0:0:0:0:
192,192,35216,1,0,0:0:0:0:
64,192,35383,1,0,0:0:0:0:
192,192,35383,1,0,0:0:0:0:
320,192,35383,1,0,0:0:0:0:
192,192,35549,1,0,0:0:0:0:
64,192,35549,1,0,0:0:0:0:
320,192,35549,1,0,0:0:0:0:
192,192,35716,1,0,0:0:0:0:
64,192,35716,1,0,0:0:0:0:
64,192,35883,1,0,0:0:0:0:
192,192,35883,1,0,0:0:0:0:
320,192,35883,1,0,0:0:0:0:
64,192,36049,1,0,0:0:0:0:
320,192,36049,1,0,0:0:0:0:
64,192,36216,1,0,0:0:0:0:
448,192,36216,1,0,0:0:0:0:
192,192,36216,1,0,0:0:0:0:
448,192,36383,1,0,0:0:0:0:
64,192,36383,1,0,0:0:0:0:
320,192,36383,1,0,0:0:0:0:
64,192,36549,1,0,0:0:0:0:
448,192,36549,1,0,0:0:0:0:
192,192,36549,1,0,0:0:0:0:
320,192,36716,1,0,0:0:0:0:
192,192,36716,1,0,0:0:0:0:
64,192,36716,1,0,0:0:0:0:
448,192,36883,1,0,0:0:0:0:
64,192,36883,1,0,0:0:0:0:
192,192,36883,1,0,0:0:0:0:
320,192,37049,1,0,0:0:0:0:
448,192,37049,1,0,0:0:0:0:
64,192,37049,1,0,0:0:0:0:
320,192,37216,1,0,0:0:0:0:
64,192,37216,1,0,0:0:0:0:
192,192,37216,1,0,0:0:0:0:
64,192,37383,1,0,0:0:0:0:
192,192,37383,1,0,0:0:0:0:
320,192,37383,1,0,0:0:0:0:
448,192,37383,1,0,0:0:0:0:
192,192,37549,1,0,0:0:0:0:
320,192,37549,1,0,0:0:0:0:
320,192,37716,1,0,0:0:0:0:
192,192,37883,1,0,0:0:0:0:
64,192,38049,1,0,0:0:0:0:
192,192,38049,1,0,0:0:0:0:
448,192,38049,1,0,0:0:0:0:
64,192,38216,1,0,0:0:0:0:
192,192,38216,1,0,0:0:0:0:
320,192,38216,1,0,0:0:0:0:
192,192,38383,1,0,0:0:0:0:
64,192,38383,1,0,0:0:0:0:
64,192,38549,1,0,0:0:0:0:
320,192,38549,1,0,0:0:0:0:
448,192,38549,1,0,0:0:0:0:
448,192,38716,1,0,0:0:0:0:
192,192,38716,1,0,0:0:0:0:
64,192,38716,1,0,0:0:0:0:
448,192,38883,1,0,0:0:0:0:
192,192,38883,1,0,0:0:0:0:
64,192,39049,1,0,0:0:0:0:
192,192,39049,1,0,0:0:0:0:
448,192,39049,1,0,0:0:0:0:
320,192,39216,1,0,0:0:0:0:
448,192,39216,1,0,0:0:0:0:
192,192,39383,1,0,0:0:0:0:
448,192,39383,1,0,0:0:0:0:
64,192,39383,1,0,0:0:0:0:
448,192,39549,1,0,0:0:0:0:
320,192,39549,1,0,0:0:0:0:
64,192,39549,1,0,0:0:0:0:
64,192,39716,1,0,0:0:0:0:
192,192,39716,1,0,0:0:0:0:
64,192,39883,1,0,0:0:0:0:
320,192,39883,1,0,0:0:0:0:
448,192,39883,1,0,0:0:0:0:
448,192,40049,1,0,0:0:0:0:
320,192,40049,1,0,0:0:0:0:
192,192,40049,1,0,0:0:0:0:
64,192,40049,1,0,0:0:0:0:
320,192,40216,1,0,0:0:0:0:
64,192,40383,1,0,0:0:0:0:
192,192,40383,1,0,0:0:0:0:
320,192,40549,1,0,0:0:0:0:
448,192,40549,1,0,0:0:0:0:
64,192,40716,1,0,0:0:0:0:
320,192,40716,1,0,0:0:0:0:
448,192,40716,1,0,0:0:0:0:
320,192,40883,1,0,0:0:0:0:
192,192,40883,1,0,0:0:0:0:
64,192,40883,1,0,0:0:0:0:
192,192,41049,1,0,0:0:0:0:
448,192,41049,1,0,0:0:0:0:
64,192,41049,1,0,0:0:0:0:
320,192,41216,1,0,0:0:0:0:
192,192,41216,1,0,0:0:0:0:
64,192,41216,1,0,0:0:0:0:
64,192,41383,1,0,0:0:0:0:
192,192,41383,1,0,0:0:0:0:
448,192,41383,1,0,0:0:0:0:
448,192,41549,1,0,0:0:0:0:
320,192,41549,1,0,0:0:0:0:
448,192,41716,1,0,0:0:0:0:
64,192,41716,1,0,0:0:0:0:
320,192,41716,1,0,0:0:0:0:
64,192,41883,1,0,0:0:0:0:
448,192,41883,1,0,0:0:0:0:
64,192,42049,1,0,0:0:0:0:
192,192,42049,1,0,0:0:0:0:
448,192,42049,1,0,0:0:0:0:
64,192,42216,1,0,0:0:0:0:
320,192,42216,1,0,0:0:0:0:
192,192,42216,1,0,0:0:0:0:
192,192,42383,1,0,0:0:0:0:
448,192,42383,1,0,0:0:0:0:
64,192,42383,1,0,0:0:0:0:
320,192,42549,1,0,0:0:0:0:
64,192,42549,1,0,0:0:0:0:
448,192,42549,1,0,0:0:0:0:
64,192,42716,1,0,0:0:0:0:
320,192,42716,1,0,0:0:0:0:
192,192,42716,1,0,0:0:0:0:
448,192,42716,1,0,0:0:0:0:
320,192,42883,1,0,0:0:0:0:
192,192,42883,1,0,0:0:0:0:
320,192,43049,1,0,0:0:0:0:
448,192,43049,1,0,0:0:0:0:
192,192,43216,1,0,0:0:0:0:
64,192,43216,1,0,0:0:0:0:
320,192,43383,1,0,0:0:0:0:
448,192,43383,1,0,0:0:0:0:
64,192,43383,1,0,0:0:0:0:
192,192,43549,1,0,0:0:0:0:
64,192,43549,1,0,0:0:0:0:
448,192,43549,1,0,0:0:0:0:
64,192,43716,1,0,0:0:0:0:
448,192,43716,1,0,0:0:0:0:
320,192,43716,1,0,0:0:0:0:
192,192,43883,1,0,0:0:0:0:
64,192,43883,1,0,0:0:0:0:
448,192,43883,1,0,0:0:0:0:
448,192,44049,1,0,0:0:0:0:
192,192,44049,1,0,0:0:0:0:
320,192,44216,1,0,0:0:0:0:
192,192,44216,1,0,0:0:0:0:
64,192,44216,1,0,0:0:0:0:
64,192,44383,1,0,0:0:0:0:
448,192,44383,1,0,0:0:0:0:
192,192,44383,1,0,0:0:0:0:
320,192,44549,1,0,0:0:0:0:
64,192,44549,1,0,0:0:0:0:
448,192,44549,1,0,0:0:0:0:
64,192,44716,1,0,0:0:0:0:
448,192,44716,1,0,0:0:0:0:
192,192,44716,1,0,0:0:0:0:
320,192,44883,1,0,0:0:0:0:
192,192,44883,1,0,0:0:0:0:
64,192,44883,1,0,0:0:0:0:
64,192,45049,1,0,0:0:0:0:
448,192,45049,1,0,0:0:0:0:
192,192,45049,1,0,0:0:0:0:
320,192,45216,1,0,0:0:0:0:
192,192,45216,1,0,0:0:0:0:
64,192,45216,1,0,0:0:0:0:
64,192,45383,1,0,0:0:0:0:
448,192,45383,1,0,0:0:0:0:
320,192,45383,1,0,0:0:0:0:
192,192,45383,1,0,0:0:0:0:
320,192,45549,1,0,0:0:0:0:
448,192,45549,1,0,0:0:0:0:
448,192,45716,1,0,0:0:0:0:
320,192,45883,1,0,0:0:0:0:
448,192,45883,1,0,0:0:0:0:
320,192,46049,1,0,0:0:0:0:
64,192,46049,1,0,0:0:0:0:
448,192,46049,1,0,0:0:0:0:
64,192,46216,1,0,0:0:0:0:
448,192,46216,1,0,0:0:0:0:
192,192,46216,1,0,0:0:0:0:
320,192,46383,1,0,0:0:0:0:
192,192,46383,1,0,0:0:0:0:
64,192,46549,1,0,0:0:0:0:
448,192,46549,1,0,0:0:0:0:
320,192,46549,1,0,0:0:0:0:
192,192,46716,1,0,0:0:0:0:
64,192,46716,1,0,0:0:0:0:
448,192,46716,1,0,0:0:0:0:
64,192,46883,1,0,0:0:0:0:
320,192,46883,1,0,0:0:0:0:
192,192,46883,1,0,0:0:0:0:
192,192,47049,1,0,0:0:0:0:
64,192,47049,1,0,0:0:0:0:
448,192,47049,1,0,0:0:0:0:
64,192,47216,1,0,0:0:0:0:
448,192,47216,1,0,0:0:0:0:
320,192,47216,1,0,0:0:0:0:
320,192,47383,1,0,0:0:0:0:
192,192,47383,1,0,0:0:0:0:
64,192,47383,1,0,0:0:0:0:
64,192,47549,1,0,0:0:0:0:
448,192,47549,1,0,0:0:0:0:
192,192,47549,1,0,0:0:0:0:
320,192,47716,1,0,0:0:0:0:
64,192,47716,1,0,0:0:0:0:
448,192,47716,1,0,0:0:0:0:
64,192,47883,1,0,0:0:0:0:
320,192,47883,1,0,0:0:0:0:
192,192,47883,1,0,0:0:0:0:
320,192,48049,1,0,0:0:0:0:
192,192,48049,1,0,0:0:0:0:
64,192,48049,1,0,0:0:0:0:
448,192,48049,1,0,0:0:0:0:
192,192,48216,1,0,0:0:0:0:
64,192,48216,1,0,0:0:0:0:
320,192,48383,1,0,0:0:0:0:
448,192,48383,1,0,0:0:0:0:
192,192,48549,1,0,0:0:0:0:
64,192,48549,1,0,0:0:0:0:
64,192,48716,1,0,0:0:0:0:
448,192,48716,1,0,0:0:0:0:
192,192,48716,1,0,0:0:0:0:
192,192,48883,1,0,0:0:0:0:
448,192,48883,1,0,0:0:0:0:
448,192,49049,1,0,0:0:0:0:
320,192,49049,1,0,0:0:0:0:
192,192,49049,1,0,0:0:0:0:
320,192,49216,1,0,0:0:0:0:
192,192,49216,1,0,0:0:0:0:
448,192,49216,1,0,0:0:0:0:
64,192,49383,1,0,0:0:0:0:
192,192,49383,1,0,0:0:0:0:
320,192,49549,1,0,0:0:0:0:
64,192,49549,1,0,0:0:0:0:
448,192,49549,1,0,0:0:0:0:
64,192,49716,1,0,0:0:0:0:
448,192,49716,1,0,0:0:0:0:
192,192,49716,1,0,0:0:0:0:
320,192,49883,1,0,0:0:0:0:
192,192,49883,1,0,0:0:0:0:
64,192,49883,1,0,0:0:0:0:
448,192,50049,1,0,0:0:0:0:
320,192,50049,1,0,0:0:0:0:
192,192,50049,1,0,0:0:0:0:
320,192,50216,1,0,0:0:0:0:
192,192,50216,1,0,0:0:0:0:
64,192,50216,1,0,0:0:0:0:
448,192,50383,1,0,0:0:0:0:
320,192,50383,1,0,0:0:0:0:
192,192,50383,1,0,0:0:0:0:
320,192,50549,1,0,0:0:0:0:
64,192,50549,1,0,0:0:0:0:
448,192,50549,1,0,0:0:0:0:
64,192,50716,1,0,0:0:0:0:
448,192,50716,1,0,0:0:0:0:
320,192,50716,1,0,0:0:0:0:
192,192,50716,1,0,0:0:0:0:
192,192,50883,1,0,0:0:0:0:
320,192,51049,1,0,0:0:0:0:
64,192,51049,1,0,0:0:0:0:
448,192,51216,1,0,0:0:0:0:
192,192,51216,1,0,0:0:0:0:
192,192,51383,1,0,0:0:0:0:
64,192,51383,1,0,0:0:0:0:
448,192,51383,1,0,0:0:0:0:
64,192,51549,1,0,0:0:0:0:
320,192,51549,1,0,0:0:0:0:
192,192,51549,1,0,0:0:0:0:
320,192,51716,1,0,0:0:0:0:
192,192,51716,1,0,0:0:0:0:
448,192,51716,1,0,0:0:0:0:
64,192,51883,1,0,0:0:0:0:
448,192,51883,1,0,0:0:0:0:
320,192,51883,1,0,0:0:0:0:
320,192,52049,1,0,0:0:0:0:
192,192,52049,1,0,0:0:0:0:
64,192,52049,1,0,0:0:0:0:
64,192,52216,1,0,0:0:0:0:
448,192,52216,1,0,0:0:0:0:
192,192,52216,1,0,0:0:0:0:
448,192,52383,1,0,0:0:0:0:
320,192,52383,1,0,0:0:0:0:
192,192,52383,1,0,0:0:0:0:
320,192,52549,1,0,0:0:0:0:
64,192,52549,1,0,0:0:0:0:
64,192,52716,1,0,0:0:0:0:
320,192,52716,1,0,0:0:0:0:
192,192,52716,1,0,0:0:0:0:
192,192,52883,1,0,0:0:0:0:
64,192,52883,1,0,0:0:0:0:
448,192,52883,1,0,0:0:0:0:
64,192,53049,1,0,0:0:0:0:
448,192,53049,1,0,0:0:0:0:
320,192,53049,1,0,0:0:0:0:
320,192,53216,1,0,0:0:0:0:
192,192,53216,1,0,0:0:0:0:
448,192,53216,1,0,0:0:0:0:
64,192,53383,1,0,0:0:0:0:
448,192,53383,1,0,0:0:0:0:
192,192,53383,1,0,0:0:0:0:
192,192,53549,1,0,0:0:0:0:
320,192,53716,1,0,0:0:0:0:
192,192,53883,1,0,0:0:0:0:
64,192,53883,1,0,0:0:0:0:
320,192,54049,1,0,0:0:0:0:
448,192,54216,1,0,0:0:0:0:
320,192,54383,1,0,0:0:0:0:
192,192,54549,1,0,0:0:0:0:
320,192,54716,1,0,0:0:0:0:
448,192,54716,1,0,0:0:0:0:
64,192,54716,1,0,0:0:0:0:
192,192,54883,1,0,0:0:0:0:
192,192,55049,1,0,0:0:0:0:
320,192,55216,1,0,0:0:0:0:
448,192,55216,1,0,0:0:0:0:
64,192,55383,1,0,0:0:0:0:
192,192,55549,1,0,0:0:0:0:
64,192,55716,1,0,0:0:0:0:
320,192,55883,1,0,0:0:0:0:
192,192,56049,1,0,0:0:0:0:
448,192,56049,1,0,0:0:0:0:
320,192,56216,1,0,0:0:0:0:
64,192,56383,1,0,0:0:0:0:
320,192,56549,1,0,0:0:0:0:
448,192,56549,1,0,0:0:0:0:
64,192,56716,1,0,0:0:0:0:
320,192,56883,1,0,0:0:0:0:
192,192,57049,1,0,0:0:0:0:
448,192,57216,1,0,0:0:0:0:
192,192,57383,1,0,0:0:0:0:
64,192,57383,1,0,0:0:0:0:
64,192,57549,1,0,0:0:0:0:
192,192,57549,1,0,0:0:0:0:
320,192,57716,1,0,0:0:0:0:
64,192,57883,1,0,0:0:0:0:
192,192,57883,1,0,0:0:0:0:
192,192,58049,1,0,0:0:0:0:
320,192,58049,1,0,0:0:0:0:
320,192,58216,1,0,0:0:0:0:
448,192,58216,1,0,0:0:0:0:
320,192,58383,1,0,0:0:0:0:
192,192,58383,1,0,0:0:0:0:
192,192,58549,1,0,0:0:0:0:
64,192,58549,1,0,0:0:0:0:
320,192,58716,1,0,0:0:0:0:
448,192,58716,1,0,0:0:0:0:
192,192,58716,1,0,0:0:0:0:
192,192,58883,1,0,0:0:0:0:
320,192,59049,1,0,0:0:0:0:
192,192,59216,1,0,0:0:0:0:
64,192,59216,1,0,0:0:0:0:
320,192,59383,1,0,0:0:0:0:
448,192,59549,1,0,0:0:0:0:
320,192,59716,1,0,0:0:0:0:
192,192,59883,1,0,0:0:0:0:
64,192,60049,1,0,0:0:0:0:
320,192,60049,1,0,0:0:0:0:
192,192,60216,1,0,0:0:0:0:
192,192,60383,1,0,0:0:0:0:
320,192,60549,1,0,0:0:0:0:
64,192,60549,1,0,0:0:0:0:
448,192,60716,1,0,0:0:0:0:
320,192,60883,1,0,0:0:0:0:
320,192,61049,1,0,0:0:0:0:
448,192,61216,1,0,0:0:0:0:
192,192,61383,1,0,0:0:0:0:
64,192,61383,1,0,0:0:0:0:
320,192,61549,1,0,0:0:0:0:
448,192,61716,1,0,0:0:0:0:
192,192,61883,1,0,0:0:0:0:
64,192,61883,1,0,0:0:0:0:
320,192,62049,1,0,0:0:0:0:
448,192,62216,1,0,0:0:0:0:
192,192,62383,1,0,0:0:0:0:
320,192,62549,1,0,0:0:0:0:
448,192,62716,1,0,0:0:0:0:
192,192,62716,1,0,0:0:0:0:
320,192,62883,1,0,0:0:0:0:
64,192,63049,1,0,0:0:0:0:
448,192,63049,1,0,0:0:0:0:
192,192,63216,1,0,0:0:0:0:
448,192,63383,1,0,0:0:0:0:
64,192,63383,1,0,0:0:0:0:
320,192,63549,1,0,0:0:0:0:
64,192,63716,1,0,0:0:0:0:
448,192,63716,1,0,0:0:0:0:
192,192,63883,1,0,0:0:0:0:
320,192,63883,1,0,0:0:0:0:
448,192,64049,1,0,0:0:0:0:
64,192,64049,1,0,0:0:0:0:
192,192,64049,1,0,0:0:0:0:
320,192,64383,1,0,0:0:0:0:
320,192,64549,1,0,0:0:0:0:
320,192,64716,1,0,0:0:0:0:
320,192,64883,1,0,0:0:0:0:
320,192,65049,1,0,0:0:0:0:
320,192,65216,1,0,0:0:0:0:
192,192,65383,1,0,0:0:0:0:
192,192,65549,1,0,0:0:0:0:
192,192,65716,1,0,0:0:0:0:
192,192,65883,1,0,0:0:0:0:
192,192,66049,1,0,0:0:0:0:
192,192,66216,1,0,0:0:0:0:
192,192,66383,1,0,0:0:0:0:
192,192,66549,1,0,0:0:0:0:
448,192,66716,1,0,0:0:0:0:
448,192,66883,1,0,0:0:0:0:
448,192,67049,1,0,0:0:0:0:
448,192,67216,1,0,0:0:0:0:
448,192,67383,1,0,0:0:0:0:
448,192,67549,1,0,0:0:0:0:
448,192,67716,1,0,0:0:0:0:
448,192,67883,1,0,0:0:0:0:
64,192,68049,1,0,0:0:0:0:
64,192,68216,1,0,0:0:0:0:
64,192,68383,1,0,0:0:0:0:
64,192,68549,1,0,0:0:0:0:
64,192,68716,1,0,0:0:0:0:
64,192,68883,1,0,0:0:0:0:
64,192,69049,1,0,0:0:0:0:
64,192,69216,1,0,0:0:0:0:
192,192,69383,1,0,0:0:0:0:
192,192,69549,1,0,0:0:0:0:
192,192,69716,1,0,0:0:0:0:
192,192,69883,1,0,0:0:0:0:
192,192,70049,1,0,0:0:0:0:
192,192,70216,1,0,0:0:0:0:
192,192,70383,1,0,0:0:0:0:
192,192,70549,1,0,0:0:0:0:
448,192,70716,1,0,0:0:0:0:
448,192,70883,1,0,0:0:0:0:
448,192,71049,1,0,0:0:0:0:
448,192,71216,1,0,0:0:0:0:
448,192,71383,1,0,0:0:0:0:
448,192,71549,1,0,0:0:0:0:
448,192,71716,1,0,0:0:0:0:
448,192,71883,1,0,0:0:0:0:
64,192,72049,1,0,0:0:0:0:
64,192,72216,1,0,0:0:0:0:
64,192,72383,1,0,0:0:0:0:
64,192,72549,1,0,0:0:0:0:
64,192,72716,1,0,0:0:0:0:
64,192,72883,1,0,0:0:0:0:
64,192,73049,1,0,0:0:0:0:
64,192,73216,1,0,0:0:0:0:
320,192,73383,1,0,0:0:0:0:
320,192,73549,1,0,0:0:0:0:
320,192,73716,1,0,0:0:0:0:
320,192,73883,1,0,0:0:0:0:
320,192,74049,1,0,0:0:0:0:
320,192,74216,1,0,0:0:0:0:
320,192,74383,1,0,0:0:0:0:
320,192,74549,1,0,0:0:0:0:
64,192,74716,1,0,0:0:0:0:
192,192,74716,1,0,0:0:0:0:
448,192,74716,1,0,0:0:0:0:
192,192,74883,1,0,0:0:0:0:
192,192,75049,1,0,0:0:0:0:
320,192,75049,1,0,0:0:0:0:
192,192,75216,1,0,0:0:0:0:
192,192,75383,1,0,0:0:0:0:
64,192,75383,1,0,0:0:0:0:
192,192,75549,1,0,0:0:0:0:
192,192,75716,1,0,0:0:0:0:
448,192,75716,1,0,0:0:0:0:
192,192,75883,1,0,0:0:0:0:
192,192,76049,1,0,0:0:0:0:
320,192,76049,1,0,0:0:0:0:
320,192,76216,1,0,0:0:0:0:
320,192,76383,1,0,0:0:0:0:
64,192,76383,1,0,0:0:0:0:
320,192,76549,1,0,0:0:0:0:
320,192,76716,1,0,0:0:0:0:
448,192,76716,1,0,0:0:0:0:
320,192,76883,1,0,0:0:0:0:
320,192,77049,1,0,0:0:0:0:
192,192,77049,1,0,0:0:0:0:
320,192,77216,1,0,0:0:0:0:
320,192,77383,1,0,0:0:0:0:
448,192,77383,1,0,0:0:0:0:
448,192,77549,1,0,0:0:0:0:
448,192,77716,1,0,0:0:0:0:
320,192,77716,1,0,0:0:0:0:
448,192,77883,1,0,0:0:0:0:
448,192,78049,1,0,0:0:0:0:
192,192,78049,1,0,0:0:0:0:
448,192,78216,1,0,0:0:0:0:
448,192,78383,1,0,0:0:0:0:
320,192,78383,1,0,0:0:0:0:
448,192,78549,1,0,0:0:0:0:
448,192,78716,1,0,0:0:0:0:
64,192,78716,1,0,0:0:0:0:
64,192,78883,1,0,0:0:0:0:
64,192,79049,1,0,0:0:0:0:
192,192,79049,1,0,0:0:0:0:
64,192,79216,1,0,0:0:0:0:
64,192,79383,1,0,0:0:0:0:
320,192,79383,1,0,0:0:0:0:
64,192,79549,1,0,0:0:0:0:
64,192,79716,1,0,0:0:0:0:
448,192,79716,1,0,0:0:0:0:
64,192,79883,1,0,0:0:0:0:
64,192,80049,1,0,0:0:0:0:
320,192,80049,1,0,0:0:0:0:
320,192,80216,1,0,0:0:0:0:
320,192,80383,1,0,0:0:0:0:
192,192,80383,1,0,0:0:0:0:
320,192,80549,1,0,0:0:0:0:
320,192,80716,1,0,0:0:0:0:
448,192,80716,1,0,0:0:0:0:
320,192,80883,1,0,0:0:0:0:
320,192,81049,1,0,0:0:0:0:
64,192,81049,1,0,0:0:0:0:
320,192,81216,1,0,0:0:0:0:
320,192,81383,1,0,0:0:0:0:
448,192,81383,1,0,0:0:0:0:
448,192,81549,1,0,0:0:0:0:
448,192,81716,1,0,0:0:0:0:
64,192,81716,1,0,0:0:0:0:
448,192,81883,1,0,0:0:0:0:
448,192,82049,1,0,0:0:0:0:
192,192,82049,1,0,0:0:0:0:
448,192,82216,1,0,0:0:0:0:
448,192,82383,1,0,0:0:0:0:
64,192,82383,1,0,0:0:0:0:
448,192,82549,1,0,0:0:0:0:
192,192,82716,1,0,0:0:0:0:
448,192,82716,1,0,0:0:0:0:
192,192,82883,1,0,0:0:0:0:
192,192,83049,1,0,0:0:0:0:
320,192,83049,1,0,0:0:0:0:
192,192,83216,1,0,0:0:0:0:
192,192,83383,1,0,0:0:0:0:
448,192,83383,1,0,0:0:0:0:
192,192,83549,1,0,0:0:0:0:
192,192,83716,1,0,0:0:0:0:
320,192,83716,1,0,0:0:0:0:
192,192,83883,1,0,0:0:0:0:
192,192,84049,1,0,0:0:0:0:
64,192,84049,1,0,0:0:0:0:
64,192,84216,1,0,0:0:0:0:
320,192,84216,1,0,0:0:0:0:
64,192,84383,1,0,0:0:0:0:
448,192,84383,1,0,0:0:0:0:
320,192,84549,1,0,0:0:0:0:
64,192,84549,1,0,0:0:0:0:
448,192,84716,1,0,0:0:0:0:
64,192,84716,1,0,0:0:0:0:
320,192,84883,1,0,0:0:0:0:
64,192,84883,1,0,0:0:0:0:
64,192,85049,1,0,0:0:0:0:
192,192,85049,1,0,0:0:0:0:
448,192,85383,1,0,0:0:0:0:
64,192,85383,1,0,0:0:0:0:
320,192,85383,1,0,0:0:0:0:
64,192,85549,1,0,0:0:0:0:
320,192,85549,1,0,0:0:0:0:
320,192,85716,1,0,0:0:0:0:
64,192,85716,1,0,0:0:0:0:
320,192,85883,1,0,0:0:0:0:
64,192,85883,1,0,0:0:0:0:
320,192,86049,1,0,0:0:0:0:
64,192,86049,1,0,0:0:0:0:
320,192,86216,1,0,0:0:0:0:
64,192,86216,1,0,0:0:0:0:
320,192,86383,1,0,0:0:0:0:
64,192,86383,1,0,0:0:0:0:
320,192,86549,1,0,0:0:0:0:
64,192,86549,1,0,0:0:0:0:
192,192,86716,1,0,0:0:0:0:
448,192,86716,1,0,0:0:0:0:
448,192,86883,1,0,0:0:0:0:
192,192,86883,1,0,0:0:0:0:
448,192,87049,1,0,0:0:0:0:
192,192,87049,1,0,0:0:0:0:
448,192,87216,1,0,0:0:0:0:
192,192,87216,1,0,0:0:0:0:
448,192,87383,1,0,0:0:0:0:
192,192,87383,1,0,0:0:0:0:
448,192,87549,1,0,0:0:0:0:
192,192,87549,1,0,0:0:0:0:
448,192,87716,1,0,0:0:0:0:
192,192,87716,1,0,0:0:0:0:
448,192,87883,1,0,0:0:0:0:
192,192,87883,1,0,0:0:0:0:
64,192,88049,1,0,0:0:0:0:
192,192,88049,1,0,0:0:0:0:
64,192,88216,1,0,0:0:0:0:
192,192,88216,1,0,0:0:0:0:
64,192,88383,1,0,0:0:0:0:
192,192,88383,1,0,0:0:0:0:
64,192,88549,1,0,0:0:0:0:
192,192,88549,1,0,0:0:0:0:
64,192,88716,1,0,0:0:0:0:
192,192,88716,1,0,0:0:0:0:
64,192,88883,1,0,0:0:0:0:
192,192,88883,1,0,0:0:0:0:
64,192,89049,1,0,0:0:0:0:
192,192,89049,1,0,0:0:0:0:
64,192,89216,1,0,0:0:0:0:
192,192,89216,1,0,0:0:0:0:
64,192,89383,1,0,0:0:0:0:
448,192,89383,1,0,0:0:0:0:
64,192,89549,1,0,0:0:0:0:
448,192,89549,1,0,0:0:0:0:
448,192,89716,1,0,0:0:0:0:
64,192,89716,1,0,0:0:0:0:
448,192,89883,1,0,0:0:0:0:
64,192,89883,1,0,0:0:0:0:
448,192,90049,1,0,0:0:0:0:
64,192,90049,1,0,0:0:0:0:
448,192,90216,1,0,0:0:0:0:
64,192,90216,1,0,0:0:0:0:
448,192,90383,1,0,0:0:0:0:
64,192,90383,1,0,0:0:0:0:
448,192,90549,1,0,0:0:0:0:
64,192,90549,1,0,0:0:0:0:
320,192,90716,1,0,0:0:0:0:
448,192,90716,1,0,0:0:0:0:
320,192,90883,1,0,0:0:0:0:
448,192,90883,1,0,0:0:0:0:
320,192,91049,1,0,0:0:0:0:
448,192,91049,1,0,0:0:0:0:
320,192,91216,1,0,0:0:0:0:
448,192,91216,1,0,0:0:0:0:
320,192,91383,1,0,0:0:0:0:
448,192,91383,1,0,0:0:0:0:
320,192,91549,1,0,0:0:0:0:
448,192,91549,1,0,0:0:0:0:
320,192,91716,1,0,0:0:0:0:
448,192,91716,1,0,0:0:0:0:
320,192,91883,1,0,0:0:0:0:
448,192,91883,1,0,0:0:0:0:
320,192,92049,1,0,0:0:0:0:
64,192,92049,1,0,0:0:0:0:
320,192,92216,1,0,0:0:0:0:
64,192,92216,1,0,0:0:0:0:
320,192,92383,1,0,0:0:0:0:
64,192,92383,1,0,0:0:0:0:
320,192,92549,1,0,0:0:0:0:
64,192,92549,1,0,0:0:0:0:
320,192,92716,1,0,0:0:0:0:
64,192,92716,1,0,0:0:0:0:
320,192,92883,1,0,0:0:0:0:
64,192,92883,1,0,0:0:0:0:
320,192,93049,1,0,0:0:0:0:
64,192,93049,1,0,0:0:0:0:
320,192,93216,1,0,0:0:0:0:
64,192,93216,1,0,0:0:0:0:
192,192,93383,1,0,0:0:0:0:
320,192,93383,1,0,0:0:0:0:
192,192,93549,1,0,0:0:0:0:
320,192,93549,1,0,0:0:0:0:
192,192,93716,1,0,0:0:0:0:
320,192,93716,1,0,0:0:0:0:
192,192,93883,1,0,0:0:0:0:
320,192,93883,1,0,0:0:0:0:
192,192,94049,1,0,0:0:0:0:
320,192,94049,1,0,0:0:0:0:
192,192,94216,1,0,0:0:0:0:
320,192,94216,1,0,0:0:0:0:
192,192,94383,1,0,0:0:0:0:
320,192,94383,1,0,0:0:0:0:
192,192,94549,1,0,0:0:0:0:
320,192,94549,1,0,0:0:0:0:
64,192,94716,1,0,0:0:0:0:
192,192,94716,1,0,0:0:0:0:
64,192,94883,1,0,0:0:0:0:
192,192,94883,1,0,0:0:0:0:
64,192,95049,1,0,0:0:0:0:
192,192,95049,1,0,0:0:0:0:
64,192,95216,1,0,0:0:0:0:
192,192,95216,1,0,0:0:0:0:
64,192,95383,1,0,0:0:0:0:
192,192,95383,1,0,0:0:0:0:
320,192,95466,1,0,0:0:0:0:
448,192,95466,1,0,0:0:0:0:
64,192,95633,1,0,0:0:0:0:
192,192,95633,1,0,0:0:0:0:
320,192,95716,1,0,0:0:0:0:
448,192,95716,1,0,0:0:0:0:
64,192,95883,1,0,0:0:0:0:
192,192,95966,1,0,0:0:0:0:
320,192,96049,1,0,0:0:0:0:
448,192,96049,1,0,0:0:0:0:
64,192,96049,1,0,0:0:0:0:
192,192,96216,1,0,0:0:0:0:
448,192,96216,1,0,0:0:0:0:
320,192,96383,1,0,0:0:0:0:
64,192,96383,1,0,0:0:0:0:
448,192,96549,1,0,0:0:0:0:
192,192,96549,1,0,0:0:0:0:
320,192,96716,1,0,0:0:0:0:
64,192,96716,1,0,0:0:0:0:
448,192,96883,1,0,0:0:0:0:
192,192,96883,1,0,0:0:0:0:
320,192,97049,1,0,0:0:0:0:
64,192,97049,1,0,0:0:0:0:
448,192,97216,1,0,0:0:0:0:
192,192,97216,1,0,0:0:0:0:
320,192,97383,1,0,0:0:0:0:
192,192,97383,1,0,0:0:0:0:
64,192,97549,1,0,0:0:0:0:
192,192,97549,1,0,0:0:0:0:
192,192,97716,1,0,0:0:0:0:
320,192,97716,1,0,0:0:0:0:
64,192,97883,1,0,0:0:0:0:
192,192,97883,1,0,0:0:0:0:
192,192,98049,1,0,0:0:0:0:
320,192,98049,1,0,0:0:0:0:
64,192,98216,1,0,0:0:0:0:
192,192,98216,1,0,0:0:0:0:
192,192,98383,1,0,0:0:0:0:
320,192,98383,1,0,0:0:0:0:
64,192,98549,1,0,0:0:0:0:
192,192,98549,1,0,0:0:0:0:
192,192,98716,1,0,0:0:0:0:
448,192,98716,1,0,0:0:0:0:
320,192,98883,1,0,0:0:0:0:
64,192,98883,1,0,0:0:0:0:
448,192,99049,1,0,0:0:0:0:
192,192,99049,1,0,0:0:0:0:
320,192,99216,1,0,0:0:0:0:
64,192,99216,1,0,0:0:0:0:
448,192,99383,1,0,0:0:0:0:
192,192,99383,1,0,0:0:0:0:
320,192,99549,1,0,0:0:0:0:
64,192,99549,1,0,0:0:0:0:
448,192,99716,1,0,0:0:0:0:
192,192,99716,1,0,0:0:0:0:
320,192,99883,1,0,0:0:0:0:
64,192,99883,1,0,0:0:0:0:
64,192,100049,1,0,0:0:0:0:
192,192,100049,1,0,0:0:0:0:
320,192,100216,1,0,0:0:0:0:
448,192,100216,1,0,0:0:0:0:
64,192,100383,1,0,0:0:0:0:
192,192,100383,1,0,0:0:0:0:
320,192,100549,1,0,0:0:0:0:
448,192,100549,1,0,0:0:0:0:
64,192,100716,1,0,0:0:0:0:
192,192,100716,1,0,0:0:0:0:
320,192,100883,1,0,0:0:0:0:
448,192,100883,1,0,0:0:0:0:
64,192,101049,1,0,0:0:0:0:
192,192,101049,1,0,0:0:0:0:
320,192,101216,1,0,0:0:0:0:
448,192,101216,1,0,0:0:0:0:
64,192,101383,1,0,0:0:0:0:
192,192,101383,1,0,0:0:0:0:
192,192,101549,1,0,0:0:0:0:
320,192,101549,1,0,0:0:0:0:
320,192,101716,1,0,0:0:0:0:
448,192,101716,1,0,0:0:0:0:
192,192,101883,1,0,0:0:0:0:
320,192,101883,1,0,0:0:0:0:
64,192,102049,1,0,0:0:0:0:
192,192,102049,1,0,0:0:0:0:
192,192,102216,1,0,0:0:0:0:
320,192,102216,1,0,0:0:0:0:
320,192,102383,1,0,0:0:0:0:
448,192,102383,1,0,0:0:0:0:
192,192,102549,1,0,0:0:0:0:
320,192,102549,1,0,0:0:0:0:
64,192,102716,1,0,0:0:0:0:
320,192,102716,1,0,0:0:0:0:
192,192,102883,1,0,0:0:0:0:
448,192,102883,1,0,0:0:0:0:
320,192,103049,1,0,0:0:0:0:
64,192,103049,1,0,0:0:0:0:
192,192,103216,1,0,0:0:0:0:
448,192,103216,1,0,0:0:0:0:
320,192,103383,1,0,0:0:0:0:
64,192,103383,1,0,0:0:0:0:
192,192,103549,1,0,0:0:0:0:
448,192,103549,1,0,0:0:0:0:
320,192,103716,1,0,0:0:0:0:
64,192,103716,1,0,0:0:0:0:
192,192,103883,1,0,0:0:0:0:
448,192,103883,1,0,0:0:0:0:
192,192,104049,1,0,0:0:0:0:
320,192,104049,1,0,0:0:0:0:
320,192,104216,1,0,0:0:0:0:
448,192,104216,1,0,0:0:0:0:
192,192,104383,1,0,0:0:0:0:
320,192,104383,1,0,0:0:0:0:
64,192,104549,1,0,0:0:0:0:
192,192,104549,1,0,0:0:0:0:
192,192,104716,1,0,0:0:0:0:
320,192,104716,1,0,0:0:0:0:
320,192,104883,1,0,0:0:0:0:
448,192,104883,1,0,0:0:0:0:
192,192,105049,1,0,0:0:0:0:
320,192,105049,1,0,0:0:0:0:
64,192,105216,1,0,0:0:0:0:
192,192,105216,1,0,0:0:0:0:
64,192,105383,1,0,0:0:0:0:
448,192,105383,1,0,0:0:0:0:
192,192,105549,1,0,0:0:0:0:
320,192,105549,1,0,0:0:0:0:
64,192,105716,1,0,0:0:0:0:
448,192,105716,1,0,0:0:0:0:
192,192,105883,1,0,0:0:0:0:
320,192,105883,1,0,0:0:0:0:
64,192,106049,1,0,0:0:0:0:
448,192,106049,1,0,0:0:0:0:
192,192,106133,1,0,0:0:0:0:
320,192,106133,1,0,0:0:0:0:
448,192,106299,1,0,0:0:0:0:
64,192,106299,1,0,0:0:0:0:
320,192,106383,1,0,0:0:0:0:
192,192,106383,1,0,0:0:0:0:
64,192,106549,1,0,0:0:0:0:
192,192,106605,1,0,0:0:0:0:
320,192,106661,1,0,0:0:0:0:
448,192,106716,1,0,0:0:0:0:
192,192,106716,128,0,106799:0:0:0:0:
64,192,106716,128,0,106799:0:0:0:0:
192,192,106883,128,0,106966:0:0:0:0:
320,192,106883,128,0,106966:0:0:0:0:
192,192,107049,128,0,107133:0:0:0:0:
64,192,107049,128,0,107133:0:0:0:0:
320,192,107216,128,0,107299:0:0:0:0:
192,192,107216,128,0,107299:0:0:0:0:
448,192,107383,128,0,107466:0:0:0:0:
320,192,107383,128,0,107466:0:0:0:0:
320,192,107549,128,0,107633:0:0:0:0:
192,192,107549,128,0,107633:0:0:0:0:
320,192,107716,128,0,107799:0:0:0:0:
448,192,107716,128,0,107799:0:0:0:0:
192,192,107883,128,0,107966:0:0:0:0:
320,192,107883,128,0,107966:0:0:0:0:
320,192,108049,128,0,108133:0:0:0:0:
64,192,108049,128,0,108133:0:0:0:0:
192,192,108216,128,0,108299:0:0:0:0:
448,192,108216,128,0,108299:0:0:0:0:
64,192,108383,128,0,108466:0:0:0:0:
320,192,108383,128,0,108466:0:0:0:0:
448,192,108549,128,0,108633:0:0:0:0:
192,192,108549,128,0,108633:0:0:0:0:
320,192,108716,128,0,108799:0:0:0:0:
64,192,108716,128,0,108799:0:0:0:0:
448,192,108883,128,0,108966:0:0:0:0:
192,192,108883,128,0,108966:0:0:0:0:
320,192,109049,128,0,109133:0:0:0:0:
64,192,109049,128,0,109133:0:0:0:0:
448,192,109216,128,0,109299:0:0:0:0:
192,192,109216,128,0,109299:0:0:0:0:
320,192,109383,128,0,109466:0:0:0:0:
448,192,109383,128,0,109466:0:0:0:0:
320,192,109549,128,0,109633:0:0:0:0:
192,192,109549,128,0,109633:0:0:0:0:
192,192,109716,128,0,109799:0:0:0:0:
64,192,109716,128,0,109799:0:0:0:0:
192,192,109883,128,0,109966:0:0:0:0:
320,192,109883,128,0,109966:0:0:0:0:
320,192,110049,128,0,110133:0:0:0:0:
448,192,110049,128,0,110133:0:0:0:0:
320,192,110216,128,0,110299:0:0:0:0:
192,192,110216,128,0,110299:0:0:0:0:
64,192,110383,128,0,110466:0:0:0:0:
192,192,110383,128,0,110466:0:0:0:0:
192,192,110549,128,0,110633:0:0:0:0:
320,192,110549,128,0,110633:0:0:0:0:
448,192,110716,128,0,110799:0:0:0:0:
64,192,110716,128,0,110799:0:0:0:0:
192,192,110883,128,0,110966:0:0:0:0:
320,192,110883,128,0,110966:0:0:0:0:
448,192,111049,128,0,111133:0:0:0:0:
64,192,111049,128,0,111133:0:0:0:0:
192,192,111216,128,0,111299:0:0:0:0:
320,192,111216,128,0,111299:0:0:0:0:
448,192,111383,128,0,111466:0:0:0:0:
64,192,111383,128,0,111466:0:0:0:0:
448,192,111549,128,0,111633:0:0:0:0:
64,192,111549,128,0,111633:0:0:0:0:
320,192,111716,128,0,111799:0:0:0:0:
192,192,111716,128,0,111799:0:0:0:0:
448,192,111883,128,0,111966:0:0:0:0:
64,192,111883,128,0,111966:0:0:0:0:
320,192,112049,128,0,112133:0:0:0:0:
192,192,112049,128,0,112133:0:0:0:0:
320,192,112216,128,0,112299:0:0:0:0:
448,192,112216,128,0,112299:0:0:0:0:
192,192,112383,128,0,112466:0:0:0:0:
64,192,112383,128,0,112466:0:0:0:0:
448,192,112549,128,0,112633:0:0:0:0:
320,192,112549,128,0,112633:0:0:0:0:
192,192,112716,128,0,112799:0:0:0:0:
64,192,112716,128,0,112799:0:0:0:0:
192,192,112883,128,0,112966:0:0:0:0:
320,192,112883,128,0,112966:0:0:0:0:
448,192,113049,128,0,113133:0:0:0:0:
320,192,113049,128,0,113133:0:0:0:0:
192,192,113216,128,0,113299:0:0:0:0:
64,192,113216,128,0,113299:0:0:0:0:
320,192,113383,128,0,113466:0:0:0:0:
448,192,113383,128,0,113466:0:0:0:0:
448,192,113549,128,0,113633:0:0:0:0:
64,192,113549,128,0,113633:0:0:0:0:
192,192,113716,128,0,113799:0:0:0:0:
64,192,113716,128,0,113799:0:0:0:0:
320,192,113883,128,0,113966:0:0:0:0:
192,192,113883,128,0,113966:0:0:0:0:
448,192,114049,128,0,114133:0:0:0:0:
192,192,114049,128,0,114133:0:0:0:0:
320,192,114216,128,0,114299:0:0:0:0:
64,192,114216,128,0,114299:0:0:0:0:
448,192,114383,128,0,114466:0:0:0:0:
192,192,114383,128,0,114466:0:0:0:0:
320,192,114549,128,0,114633:0:0:0:0:
64,192,114549,128,0,114633:0:0:0:0:
448,192,114716,128,0,114799:0:0:0:0:
64,192,114716,128,0,114799:0:0:0:0:
320,192,114883,128,0,114966:0:0:0:0:
64,192,114883,128,0,114966:0:0:0:0:
192,192,115049,128,0,115133:0:0:0:0:
64,192,115049,128,0,115133:0:0:0:0:
64,192,115216,128,0,115299:0:0:0:0:
192,192,115216,128,0,115299:0:0:0:0:
64,192,115383,128,0,115466:0:0:0:0:
320,192,115383,128,0,115466:0:0:0:0:
448,192,115549,128,0,115633:0:0:0:0:
64,192,115549,128,0,115633:0:0:0:0:
320,192,115716,128,0,115799:0:0:0:0:
192,192,115716,128,0,115799:0:0:0:0:
448,192,115883,128,0,115966:0:0:0:0:
64,192,115883,128,0,115966:0:0:0:0:
320,192,116049,128,0,116133:0:0:0:0:
192,192,116049,128,0,116133:0:0:0:0:
320,192,116216,128,0,116299:0:0:0:0:
192,192,116216,128,0,116299:0:0:0:0:
320,192,116383,128,0,116466:0:0:0:0:
448,192,116383,128,0,116466:0:0:0:0:
192,192,116549,128,0,116633:0:0:0:0:
64,192,116549,128,0,116633:0:0:0:0:
448,192,116716,1,0,0:0:0:0:
320,192,116716,1,0,0:0:0:0:
192,192,116799,1,0,0:0:0:0:
64,192,116799,1,0,0:0:0:0:
448,192,116883,1,0,0:0:0:0:
320,192,116883,1,0,0:0:0:0:
192,192,116966,1,0,0:0:0:0:
64,192,116966,1,0,0:0:0:0:
448,192,117049,1,0,0:0:0:0:
320,192,117049,1,0,0:0:0:0:
192,192,117133,1,0,0:0:0:0:
64,192,117133,1,0,0:0:0:0:
448,192,117216,1,0,0:0:0:0:
320,192,117216,1,0,0:0:0:0:
192,192,117299,1,0,0:0:0:0:
64,192,117299,1,0,0:0:0:0:
320,192,117383,128,0,117466:0:0:0:0:
448,192,117383,128,0,117466:0:0:0:0:
64,192,117383,128,0,117466:0:0:0:0:
192,192,117383,128,0,117466:0:0:0:0:
448,192,117549,128,0,117633:0:0:0:0:
320,192,117549,128,0,117633:0:0:0:0:
64,192,117549,128,0,117633:0:0:0:0:
64,192,117716,128,0,117799:0:0:0:0:
320,192,117716,128,0,117799:0:0:0:0:
192,192,117716,128,0,117799:0:0:0:0:
448,192,117883,128,0,117966:0:0:0:0:
320,192,117883,128,0,117966:0:0:0:0:
64,192,117883,128,0,117966:0:0:0:0:
64,192,118049,128,0,118133:0:0:0:0:
192,192,118049,128,0,118133:0:0:0:0:
448,192,118049,128,0,118133:0:0:0:0:
192,192,118216,128,0,118299:0:0:0:0:
64,192,118216,128,0,118299:0:0:0:0:
320,192,118216,128,0,118299:0:0:0:0:
192,192,118383,128,0,118466:0:0:0:0:
448,192,118383,128,0,118466:0:0:0:0:
64,192,118383,128,0,118466:0:0:0:0:
448,192,118549,128,0,118633:0:0:0:0:
320,192,118549,128,0,118633:0:0:0:0:
64,192,118549,128,0,118633:0:0:0:0:
320,192,118716,128,0,118799:0:0:0:0:
64,192,118716,128,0,118799:0:0:0:0:
192,192,118716,128,0,118799:0:0:0:0:
448,192,118716,128,0,118799:0:0:0:0:
192,192,118883,128,0,118966:0:0:0:0:
64,192,118883,128,0,118966:0:0:0:0:
320,192,118883,128,0,118966:0:0:0:0:
448,192,119049,128,0,119133:0:0:0:0:
320,192,119049,128,0,119133:0:0:0:0:
64,192,119049,128,0,119133:0:0:0:0:
320,192,119216,128,0,119299:0:0:0:0:
192,192,119216,128,0,119299:0:0:0:0:
64,192,119216,128,0,119299:0:0:0:0:
320,192,119383,128,0,119466:0:0:0:0:
64,192,119383,128,0,119466:0:0:0:0:
448,192,119383,128,0,119466:0:0:0:0:
192,192,119549,128,0,119633:0:0:0:0:
64,192,119549,128,0,119633:0:0:0:0:
320,192,119549,128,0,119633:0:0:0:0:
192,192,119716,128,0,119799:0:0:0:0:
448,192,119716,128,0,119799:0:0:0:0:
320,192,119716,128,0,119799:0:0:0:0:
448,192,119883,128,0,119966:0:0:0:0:
320,192,119883,128,0,119966:0:0:0:0:
64,192,119883,128,0,119966:0:0:0:0:
64,192,120049,128,0,120133:0:0:0:0:
192,192,120049,128,0,120133:0:0:0:0:
448,192,120049,128,0,120133:0:0:0:0:
320,192,120049,128,0,120133:0:0:0:0:
192,192,120216,128,0,120299:0:0:0:0:
448,192,120216,128,0,120299:0:0:0:0:
320,192,120216,128,0,120299:0:0:0:0:
448,192,120383,128,0,120466:0:0:0:0:
320,192,120383,128,0,120466:0:0:0:0:
64,192,120383,128,0,120466:0:0:0:0:
320,192,120549,128,0,120633:0:0:0:0:
192,192,120549,128,0,120633:0:0:0:0:
64,192,120549,128,0,120633:0:0:0:0:
64,192,120716,128,0,120799:0:0:0:0:
192,192,120716,128,0,120799:0:0:0:0:
448,192,120716,128,0,120799:0:0:0:0:
192,192,120883,128,0,120966:0:0:0:0:
64,192,120883,128,0,120966:0:0:0:0:
320,192,120883,128,0,120966:0:0:0:0:
192,192,121049,128,0,121133:0:0:0:0:
448,192,121049,128,0,121133:0:0:0:0:
64,192,121049,128,0,121133:0:0:0:0:
448,192,121216,128,0,121299:0:0:0:0:
320,192,121216,128,0,121299:0:0:0:0:
64,192,121216,128,0,121299:0:0:0:0:
320,192,121383,128,0,121466:0:0:0:0:
192,192,121383,128,0,121466:0:0:0:0:
448,192,121383,128,0,121466:0:0:0:0:
64,192,121383,128,0,121466:0:0:0:0:
192,192,121549,128,0,121633:0:0:0:0:
448,192,121549,128,0,121633:0:0:0:0:
320,192,121549,128,0,121633:0:0:0:0:
448,192,121716,128,0,121799:0:0:0:0:
320,192,121716,128,0,121799:0:0:0:0:
64,192,121716,128,0,121799:0:0:0:0:
192,192,121883,128,0,121966:0:0:0:0:
448,192,121883,128,0,121966:0:0:0:0:
64,192,121883,128,0,121966:0:0:0:0:
320,192,122049,128,0,122133:0:0:0:0:
192,192,122049,128,0,122133:0:0:0:0:
64,192,122049,128,0,122133:0:0:0:0:
64,192,122216,128,0,122299:0:0:0:0:
448,192,122216,128,0,122299:0:0:0:0:
192,192,122216,128,0,122299:0:0:0:0:
320,192,122383,128,0,122466:0:0:0:0:
64,192,122383,128,0,122466:0:0:0:0:
448,192,122383,128,0,122466:0:0:0:0:
192,192,122549,128,0,122633:0:0:0:0:
320,192,122549,128,0,122633:0:0:0:0:
448,192,122549,128,0,122633:0:0:0:0:
320,192,122716,128,0,122799:0:0:0:0:
448,192,122716,128,0,122799:0:0:0:0:
192,192,122716,128,0,122799:0:0:0:0:
64,192,122716,128,0,122799:0:0:0:0:
192,192,122883,128,0,122966:0:0:0:0:
64,192,122883,128,0,122966:0:0:0:0:
448,192,122883,128,0,122966:0:0:0:0:
320,192,123049,128,0,123133:0:0:0:0:
64,192,123049,128,0,123133:0:0:0:0:
192,192,123049,128,0,123133:0:0:0:0:
448,192,123216,128,0,123299:0:0:0:0:
64,192,123216,128,0,123299:0:0:0:0:
192,192,123216,128,0,123299:0:0:0:0:
64,192,123383,128,0,123466:0:0:0:0:
320,192,123383,128,0,123466:0:0:0:0:
192,192,123383,128,0,123466:0:0:0:0:
192,192,123549,128,0,123633:0:0:0:0:
64,192,123549,128,0,123633:0:0:0:0:
448,192,123549,128,0,123633:0:0:0:0:
64,192,123716,128,0,123799:0:0:0:0:
320,192,123716,128,0,123799:0:0:0:0:
192,192,123716,128,0,123799:0:0:0:0:
64,192,123883,128,0,123966:0:0:0:0:
448,192,123883,128,0,123966:0:0:0:0:
192,192,123883,128,0,123966:0:0:0:0:
64,192,124049,128,0,124133:0:0:0:0:
320,192,124049,128,0,124133:0:0:0:0:
448,192,124049,128,0,124133:0:0:0:0:
192,192,124049,128,0,124133:0:0:0:0:
448,192,124216,128,0,124299:0:0:0:0:
320,192,124216,128,0,124299:0:0:0:0:
64,192,124216,128,0,124299:0:0:0:0:
448,192,124383,128,0,124466:0:0:0:0:
320,192,124383,128,0,124466:0:0:0:0:
192,192,124383,128,0,124466:0:0:0:0:
320,192,124549,128,0,124633:0:0:0:0:
448,192,124549,128,0,124633:0:0:0:0:
64,192,124549,128,0,124633:0:0:0:0:
320,192,124716,128,0,124799:0:0:0:0:
448,192,124716,128,0,124799:0:0:0:0:
192,192,124716,128,0,124799:0:0:0:0:
64,192,124883,128,0,124966:0:0:0:0:
448,192,124883,128,0,124966:0:0:0:0:
320,192,124883,128,0,124966:0:0:0:0:
320,192,125049,128,0,125133:0:0:0:0:
192,192,125049,128,0,125133:0:0:0:0:
448,192,125049,128,0,125133:0:0:0:0:
320,192,125216,128,0,125299:0:0:0:0:
64,192,125216,128,0,125299:0:0:0:0:
448,192,125216,128,0,125299:0:0:0:0:
320,192,125383,128,0,125466:0:0:0:0:
448,192,125383,128,0,125466:0:0:0:0:
192,192,125383,128,0,125466:0:0:0:0:
64,192,125383,128,0,125466:0:0:0:0:
192,192,125549,128,0,125633:0:0:0:0:
64,192,125549,128,0,125633:0:0:0:0:
448,192,125549,128,0,125633:0:0:0:0:
320,192,125716,128,0,125799:0:0:0:0:
192,192,125716,128,0,125799:0:0:0:0:
448,192,125716,128,0,125799:0:0:0:0:
64,192,125883,128,0,125966:0:0:0:0:
192,192,125883,128,0,125966:0:0:0:0:
320,192,125883,128,0,125966:0:0:0:0:
448,192,126049,128,0,126133:0:0:0:0:
64,192,126049,128,0,126133:0:0:0:0:
320,192,126049,128,0,126133:0:0:0:0:
320,192,126216,128,0,126299:0:0:0:0:
192,192,126216,128,0,126299:0:0:0:0:
64,192,126216,128,0,126299:0:0:0:0:
448,192,126383,128,0,126466:0:0:0:0:
320,192,126383,128,0,126466:0:0:0:0:
192,192,126383,128,0,126466:0:0:0:0:
64,192,126549,128,0,126633:0:0:0:0:
448,192,126549,128,0,126633:0:0:0:0:
192,192,126549,128,0,126633:0:0:0:0:
64,192,126716,128,0,126799:0:0:0:0:
320,192,126716,128,0,126799:0:0:0:0:
448,192,126716,128,0,126799:0:0:0:0:
192,192,126716,128,0,126799:0:0:0:0:
64,192,126883,128,0,126966:0:0:0:0:
448,192,126883,128,0,126966:0:0:0:0:
320,192,126883,128,0,126966:0:0:0:0:
192,192,127049,128,0,127133:0:0:0:0:
320,192,127049,128,0,127133:0:0:0:0:
64,192,127049,128,0,127133:0:0:0:0:
320,192,127216,128,0,127299:0:0:0:0:
448,192,127216,128,0,127299:0:0:0:0:
64,192,127216,128,0,127299:0:0:0:0:
64,192,127383,1,0,0:0:0:0:
192,192,127383,1,0,0:0:0:0:
320,192,127466,1,0,0:0:0:0:
448,192,127466,1,0,0:0:0:0:
64,192,127549,1,0,0:0:0:0:
192,192,127549,1,0,0:0:0:0:
320,192,127633,1,0,0:0:0:0:
448,192,127633,1,0,0:0:0:0:
64,192,127716,1,0,0:0:0:0:
192,192,127716,1,0,0:0:0:0:
320,192,127799,1,0,0:0:0:0:
448,192,127799,1,0,0:0:0:0:
64,192,127883,1,0,0:0:0:0:
192,192,127883,1,0,0:0:0:0:
320,192,127966,1,0,0:0:0:0:
448,192,127966,1,0,0:0:0:0:
448,192,128049,128,0,134799:0:0:0:0:
320,192,128049,128,0,134883:0:0:0:0:
64,192,128049,128,0,135049:0:0:0:0:
192,192,128049,128,0,134966:0:0:0:0:
