osu file format v14

[General]
AudioFilename: audio.mp3
AudioLeadIn: 0
PreviewTime: 33260
Countdown: 1
SampleSet: Normal
StackLeniency: 0.7
Mode: 0
LetterboxInBreaks: 0
WidescreenStoryboard: 1

[Editor]
DistanceSpacing: 1.5
BeatDivisor: 4
GridSize: 4
TimelineZoom: 2.3

[Metadata]
Title:Hurry Up!
TitleUnicode:Hurry Up!
Artist:Bubble Bobble Arcade OST
ArtistUnicode:Bubble Bobble Arcade OST
Creator:pingal1ty
Version:Insane pattern change
Source:
Tags:
BeatmapID:1391207
BeatmapSetID:644051

[Difficulty]
HPDrainRate:6
CircleSize:3
OverallDifficulty:8.5
ApproachRate:9
SliderMultiplier:1.7
SliderTickRate:1

[Events]
//Background and Video events
0,0,"bubble-bobble-08-20-15-1.jpg",0,0
//Break Periods
//Storyboard Layer 0 (Background)
//Storyboard Layer 1 (Fail)
//Storyboard Layer 2 (Pass)
//Storyboard Layer 3 (Foreground)
//Storyboard Sound Samples

[TimingPoints]
176,350.36967572305,4,1,0,50,1,0
5781,-100,4,1,0,50,0,0
10336,-50,4,1,0,50,0,0
10687,-100,4,1,0,50,0,1
33285,-100,4,1,0,50,0,0
43972,-50,4,1,0,50,0,0
44322,-100,4,1,0,50,0,1
66921,-100,4,1,0,50,0,0
70249,-100,4,1,0,5,0,0

[HitObjects]
48,320,176,5,0,0:0:0:0:
252,185,351,1,0,0:0:0:0:
110,163,526,2,0,P|106:206|121:245,1,85
303,315,832,1,0,0:0:0:0:
303,315,876,2,0,P|341:296|368:264,1,85
338,72,1227,2,0,P|284:42|222:51,1,85
80,40,1577,5,0,0:0:0:0:
252,185,1752,1,0,0:0:0:0:
338,72,1927,1,0,0:0:0:0:
338,72,2015,1,0,0:0:0:0:
370,262,2190,1,0,0:0:0:0:
370,262,2278,2,0,P|343:294|306:313,2,85
111,168,2803,1,0,0:0:0:0:
111,168,2891,1,0,0:0:0:0:
111,168,2978,5,0,0:0:0:0:
303,315,3154,1,0,0:0:0:0:
181,123,3329,1,0,0:0:0:0:
385,198,3504,1,0,0:0:0:0:
200,264,3679,1,0,0:0:0:0:
303,83,3854,1,0,0:0:0:0:
303,83,3942,2,0,L|164:129,1,127.5
385,198,4380,6,0,L|277:235,1,85
200,264,4730,1,0,0:0:0:0:
200,264,4818,1,0,0:0:0:0:
35,84,5081,1,0,0:0:0:0:
303,83,5256,1,0,0:0:0:0:
170,288,5431,1,0,0:0:0:0:
156,51,5606,1,0,0:0:0:0:
374,153,5781,5,0,0:0:0:0:
170,288,5956,1,0,0:0:0:0:
116,157,6132,2,0,P|81:132|39:125,1,85
170,288,6438,1,0,0:0:0:0:
170,288,6482,2,0,P|207:269|234:237,1,85
28,264,6833,2,0,P|23:306|39:346,1,85
272,320,7183,1,0,0:0:0:0:
64,208,7358,1,0,0:0:0:0:
224,40,7533,1,0,0:0:0:0:
224,40,7621,1,0,0:0:0:0:
234,237,7796,1,0,0:0:0:0:
234,237,7884,2,0,P|207:269|170:288,2,85
361,141,8409,5,0,0:0:0:0:
361,141,8497,1,0,0:0:0:0:
361,141,8584,1,0,0:0:0:0:
153,284,8760,1,0,0:0:0:0:
290,96,8935,1,0,0:0:0:0:
71,167,9110,1,0,0:0:0:0:
290,239,9285,1,0,0:0:0:0:
153,52,9460,1,0,0:0:0:0:
169,56,9548,2,0,L|308:102,1,127.5
87,171,9986,6,0,L|167:198,1,85
425,171,10336,2,0,L|345:198,1,85
56,312,10687,5,0,0:0:0:0:
193,125,10862,1,0,0:0:0:0:
193,357,11037,1,0,0:0:0:0:
56,169,11212,1,0,0:0:0:0:
275,240,11387,1,0,0:0:0:0:
90,338,11563,5,0,0:0:0:0:
29,111,11738,1,0,0:0:0:0:
255,50,11913,1,0,0:0:0:0:
316,276,12088,1,0,0:0:0:0:
90,338,12263,5,0,0:0:0:0:
255,50,12438,1,0,0:0:0:0:
316,276,12613,1,0,0:0:0:0:
29,111,12788,1,0,0:0:0:0:
176,360,12964,5,0,0:0:0:0:
10,194,13139,1,0,0:0:0:0:
176,29,13314,1,0,0:0:0:0:
341,194,13490,1,0,0:0:0:0:
420,338,13665,5,0,0:0:0:0:
255,50,13840,1,0,0:0:0:0:
194,276,14015,1,0,0:0:0:0:
481,111,14190,1,0,0:0:0:0:
420,338,14365,5,0,0:0:0:0:
481,111,14540,1,0,0:0:0:0:
255,50,14715,1,0,0:0:0:0:
194,276,14890,1,0,0:0:0:0:
420,338,15065,5,0,0:0:0:0:
255,50,15240,1,0,0:0:0:0:
194,276,15415,1,0,0:0:0:0:
481,111,15590,1,0,0:0:0:0:
169,194,15766,5,0,0:0:0:0:
334,360,15941,1,0,0:0:0:0:
500,194,16116,1,0,0:0:0:0:
334,29,16292,1,0,0:0:0:0:
107,287,16468,5,0,0:0:0:0:
277,189,16643,1,0,0:0:0:0:
107,109,16818,1,0,0:0:0:0:
107,287,16993,2,0,B|180:288|180:288|184:284|184:284|184:292|184:292|188:288|188:288|283:287,1,170
339,183,17519,2,0,L|251:183,1,85
131,183,17869,1,0,0:0:0:0:
59,63,18044,2,0,B|99:51|99:51|147:63,1,85
366,65,18395,2,0,B|408:76|408:76|448:64,1,85
252,185,18745,5,0,0:0:0:0:
40,252,18920,1,0,0:0:0:0:
104,84,19095,1,0,0:0:0:0:
260,280,19270,1,0,0:0:0:0:
260,280,19446,6,0,L|172:280,1,85
128,192,19796,2,0,L|304:192,1,170
344,104,20322,2,0,L|168:104,1,170
128,16,20847,2,0,L|216:16,1,85
296,192,21198,2,0,P|224:272|24:200,1,340
98,89,22074,5,0,0:0:0:0:
187,76,22249,1,0,0:0:0:0:
259,131,22425,1,0,0:0:0:0:
271,222,22600,1,0,0:0:0:0:
79,55,22774,5,0,0:0:0:0:
197,38,22949,1,0,0:0:0:0:
294,112,23125,1,0,0:0:0:0:
310,233,23300,1,0,0:0:0:0:
216,293,23476,5,0,0:0:0:0:
127,305,23651,1,0,0:0:0:0:
55,250,23826,1,0,0:0:0:0:
43,161,24001,1,0,0:0:0:0:
236,327,24176,5,0,0:0:0:0:
117,344,24351,1,0,0:0:0:0:
21,270,24526,1,0,0:0:0:0:
5,151,24701,1,0,0:0:0:0:
98,89,24877,5,0,0:0:0:0:
187,76,25052,1,0,0:0:0:0:
259,131,25228,1,0,0:0:0:0:
271,222,25403,1,0,0:0:0:0:
79,55,25577,5,0,0:0:0:0:
197,38,25752,1,0,0:0:0:0:
294,112,25928,1,0,0:0:0:0:
310,233,26103,1,0,0:0:0:0:
216,293,26279,5,0,0:0:0:0:
127,305,26454,1,0,0:0:0:0:
55,250,26629,1,0,0:0:0:0:
43,161,26804,1,0,0:0:0:0:
236,327,26979,5,0,0:0:0:0:
117,344,27154,1,0,0:0:0:0:
21,270,27329,1,0,0:0:0:0:
5,151,27504,1,0,0:0:0:0:
248,44,27680,5,0,0:0:0:0:
112,112,27855,1,0,0:0:0:0:
115,267,28030,1,0,0:0:0:0:
115,267,28205,2,0,L|291:267,1,170
347,163,28731,2,0,L|259:163,1,85
139,163,29081,1,0,0:0:0:0:
67,43,29256,2,0,L|155:43,1,85
456,44,29607,2,0,L|368:44,1,85
260,165,29957,5,0,0:0:0:0:
56,256,30132,1,0,0:0:0:0:
96,88,30307,1,0,0:0:0:0:
268,260,30482,1,0,0:0:0:0:
268,260,30658,6,0,L|180:260,1,85
136,172,31008,2,0,L|312:172,1,170
352,84,31534,2,0,L|256:84,1,85
104,84,31884,2,0,L|192:84,2,85
304,172,32410,2,0,P|232:252|32:180,1,340
173,160,33285,5,0,0:0:0:0:
82,335,33460,1,0,0:0:0:0:
263,336,33636,1,0,0:0:0:0:
464,320,33811,5,0,0:0:0:0:
260,185,33986,1,0,0:0:0:0:
402,163,34161,2,0,P|406:206|391:245,1,85
209,315,34468,1,0,0:0:0:0:
209,315,34511,2,0,P|171:296|144:264,1,85
174,72,34862,2,0,P|228:42|290:51,1,85
260,185,35212,1,0,0:0:0:0:
56,50,35387,1,0,0:0:0:0:
250,43,35562,1,0,0:0:0:0:
250,43,35650,1,0,0:0:0:0:
144,264,35825,1,0,0:0:0:0:
144,264,35913,2,0,P|171:296|208:315,2,85
401,168,36438,5,0,0:0:0:0:
401,168,36526,1,0,0:0:0:0:
401,168,36613,1,0,0:0:0:0:
193,311,36789,1,0,0:0:0:0:
330,123,36964,1,0,0:0:0:0:
111,194,37139,1,0,0:0:0:0:
330,266,37314,1,0,0:0:0:0:
193,79,37489,1,0,0:0:0:0:
209,83,37577,2,0,L|348:129,1,127.5
127,198,38015,6,0,L|235:235,1,85
326,262,38365,1,0,0:0:0:0:
346,270,38453,1,0,0:0:0:0:
477,84,38716,1,0,0:0:0:0:
209,83,38891,1,0,0:0:0:0:
342,288,39066,1,0,0:0:0:0:
356,51,39241,1,0,0:0:0:0:
138,153,39416,5,0,0:0:0:0:
342,288,39591,1,0,0:0:0:0:
396,157,39767,2,0,P|431:132|473:125,1,85
342,288,40074,1,0,0:0:0:0:
342,288,40117,2,0,P|305:269|278:237,1,85
484,264,40468,2,0,P|489:305|473:345,1,85
484,265,40818,1,0,0:0:0:0:
280,130,40993,1,0,0:0:0:0:
473,125,41168,1,0,0:0:0:0:
473,125,41256,1,0,0:0:0:0:
276,235,41431,1,0,0:0:0:0:
278,237,41519,2,0,P|305:269|342:288,2,85
151,141,42044,5,0,0:0:0:0:
151,141,42132,1,0,0:0:0:0:
151,141,42219,1,0,0:0:0:0:
358,284,42395,1,0,0:0:0:0:
221,96,42570,1,0,0:0:0:0:
440,167,42745,1,0,0:0:0:0:
221,239,42920,1,0,0:0:0:0:
358,52,43095,1,0,0:0:0:0:
343,56,43183,2,0,L|204:102,1,127.5
425,171,43621,6,0,L|345:198,1,85
87,171,43972,6,0,L|167:198,1,85
387,270,44322,1,0,0:0:0:0:
250,83,44497,1,0,0:0:0:0:
250,315,44672,1,0,0:0:0:0:
387,127,44847,1,0,0:0:0:0:
168,198,45022,1,0,0:0:0:0:
405,287,45198,5,0,0:0:0:0:
233,54,45373,1,0,0:0:0:0:
233,344,45548,1,0,0:0:0:0:
405,109,45723,1,0,0:0:0:0:
387,270,45898,5,0,0:0:0:0:
250,83,46073,1,0,0:0:0:0:
387,127,46249,1,0,0:0:0:0:
168,198,46424,1,0,0:0:0:0:
410,295,46599,5,0,0:0:0:0:
238,61,46774,1,0,0:0:0:0:
410,116,46950,1,0,0:0:0:0:
136,205,47125,1,0,0:0:0:0:
250,315,47300,5,0,0:0:0:0:
250,83,47475,1,0,0:0:0:0:
168,198,47650,1,0,0:0:0:0:
387,127,47825,1,0,0:0:0:0:
247,348,48000,5,0,0:0:0:0:
247,58,48175,1,0,0:0:0:0:
145,202,48350,1,0,0:0:0:0:
418,113,48527,1,0,0:0:0:0:
387,270,48701,5,0,0:0:0:0:
250,83,48876,1,0,0:0:0:0:
250,315,49051,1,0,0:0:0:0:
387,127,49226,1,0,0:0:0:0:
405,287,49402,5,0,0:0:0:0:
233,54,49577,1,0,0:0:0:0:
233,344,49752,1,0,0:0:0:0:
405,109,49927,1,0,0:0:0:0:
405,287,50103,5,0,0:0:0:0:
233,54,50278,1,0,0:0:0:0:
405,109,50453,1,0,0:0:0:0:
405,287,50628,2,0,L|229:287,1,170
173,183,51154,2,0,L|261:183,1,85
381,183,51504,1,0,0:0:0:0:
453,63,51679,2,0,L|365:63,1,85
64,64,52030,2,0,L|152:64,1,85
260,185,52380,5,0,0:0:0:0:
464,320,52555,1,0,0:0:0:0:
472,76,52730,1,0,0:0:0:0:
252,280,52905,1,0,0:0:0:0:
252,280,53081,6,0,L|340:280,1,85
384,192,53431,2,0,L|208:192,1,170
168,104,53957,2,0,L|344:104,1,170
384,16,54482,2,0,L|296:16,1,85
216,192,54833,2,0,P|288:272|488:200,1,340
321,87,55709,5,0,0:0:0:0:
247,117,55884,1,0,0:0:0:0:
216,192,56060,1,0,0:0:0:0:
247,267,56235,1,0,0:0:0:0:
433,55,56409,5,0,0:0:0:0:
315,38,56584,1,0,0:0:0:0:
218,112,56760,1,0,0:0:0:0:
202,233,56935,1,0,0:0:0:0:
322,297,57110,5,0,0:0:0:0:
397,267,57285,1,0,0:0:0:0:
428,192,57460,1,0,0:0:0:0:
397,117,57635,1,0,0:0:0:0:
276,327,57811,5,0,0:0:0:0:
395,344,57986,1,0,0:0:0:0:
491,270,58161,1,0,0:0:0:0:
507,151,58336,1,0,0:0:0:0:
202,233,58512,5,0,0:0:0:0:
218,112,58687,1,0,0:0:0:0:
315,38,58863,1,0,0:0:0:0:
433,55,59038,1,0,0:0:0:0:
247,267,59212,5,0,0:0:0:0:
216,192,59387,1,0,0:0:0:0:
247,117,59563,1,0,0:0:0:0:
321,87,59738,1,0,0:0:0:0:
507,151,59913,5,0,0:0:0:0:
491,270,60088,1,0,0:0:0:0:
395,344,60263,1,0,0:0:0:0:
276,327,60438,1,0,0:0:0:0:
397,117,60614,5,0,0:0:0:0:
428,192,60789,1,0,0:0:0:0:
397,267,60964,1,0,0:0:0:0:
322,297,61139,1,0,0:0:0:0:
225,34,61315,5,0,0:0:0:0:
397,89,61490,1,0,0:0:0:0:
397,267,61665,1,0,0:0:0:0:
397,267,61840,2,0,L|221:267,1,170
165,163,62366,2,0,L|253:163,1,85
373,163,62716,1,0,0:0:0:0:
445,43,62891,2,0,L|357:43,1,85
56,44,63242,2,0,L|144:44,1,85
252,165,63592,5,0,0:0:0:0:
456,300,63767,1,0,0:0:0:0:
464,56,63942,1,0,0:0:0:0:
244,260,64117,1,0,0:0:0:0:
244,260,64293,6,0,L|332:260,1,85
376,172,64643,2,0,L|200:172,1,170
160,84,65169,2,0,L|256:84,1,85
408,84,65519,2,0,L|320:84,2,85
208,172,66045,2,0,P|280:252|480:180,1,340
208,172,66920,5,0,0:0:0:0:
412,307,67095,1,0,0:0:0:0:
232,336,67271,1,0,0:0:0:0:
256,192,67446,12,0,70250,0:0:0:0:
