osu file format v14

[General]
AudioFilename: yunluo.mp3
AudioLeadIn: 0
PreviewTime: 73404
Countdown: 0
SampleSet: Soft
StackLeniency: 0.7
Mode: 0
LetterboxInBreaks: 0
WidescreenStoryboard: 1

[Editor]
Bookmarks: 104154,161846
DistanceSpacing: 1.5
BeatDivisor: 4
GridSize: 32
TimelineZoom: 2.699999

[Metadata]
Title:Yun Luo
TitleUnicode:陨落
Artist:Bu Shi Hua Huo Ya
ArtistUnicode:不是花火呀
Creator:Yusomi
Version:moonlightleaf's Hard
Source:
Tags:moonlightleaf vivicat chinese pop fall down
BeatmapID:2918104
BeatmapSetID:1415032

[Difficulty]
HPDrainRate:4
CircleSize:4
OverallDifficulty:6
ApproachRate:7
SliderMultiplier:1.3
SliderTickRate:1

[Events]
//Background and Video events
0,0,"Konachan.com - 318588.jpg",0,0
//Break Periods
2,6558,7304
2,28712,29458
2,163281,169766
//Storyboard Layer 0 (Background)
//Storyboard Layer 1 (Fail)
//Storyboard Layer 2 (Pass)
//Storyboard Layer 3 (Foreground)
//Storyboard Layer 4 (Overlay)
//Storyboard Sound Samples

[TimingPoints]
820,461.538461538462,4,2,1,40,1,0
2666,-100,4,2,1,50,0,0
6358,-100,4,2,1,60,0,0
14666,-100,4,2,1,47,0,0
15127,-100,4,2,1,35,0,0
15589,-100,4,2,1,47,0,0
19627,-100,4,2,1,5,0,0
20204,-100,4,2,1,47,0,0
45127,-100,4,2,1,60,0,0
49166,-100,4,2,1,5,0,0
49396,-100,4,2,1,60,0,0
74666,-100,4,2,1,60,0,1
104204,-100,4,2,1,60,0,0
108243,-100,4,2,1,5,0,0
108473,-100,4,2,1,60,0,0
133743,-100,4,2,1,60,0,1
162358,-100,4,2,1,40,0,0
163281,-100,4,2,1,50,0,0
170666,-100,4,2,1,60,0,0
177127,-100,4,2,1,60,0,1
178079,-100,4,2,0,60,0,1
178166,-100,4,2,1,60,0,1
180012,-100,4,2,1,5,0,1
180243,-100,4,2,1,60,0,1
190973,-100,4,2,1,60,0,0
192861,-100,4,2,1,5,0,0

[Colours]
Combo1 : 245,220,229
Combo2 : 189,240,240
Combo3 : 247,223,219
Combo4 : 184,209,219

[HitObjects]
377,137,820,6,0,L|383:72,1,65,2|0,0:2|0:0,0:0:0:0:
302,150,1281,2,0,L|291:85,1,65,0|0,0:0|0:0,0:0:0:0:
235,190,1743,2,0,L|208:130,1,65,0|0,0:0|0:0,0:0:0:0:
186,250,2204,2,0,L|144:199,1,65,0|0,0:0|0:0,0:0:0:0:
144,317,2666,6,0,B|103:311|103:311|67:325|16:325,2,130,2|0|0,0:2|0:0|0:0,0:0:0:0:
224,325,4512,6,0,L|288:318,1,65,2|0,0:2|0:0,0:0:0:0:
263,240,4973,2,0,L|327:246,1,65,0|0,0:0|0:0,0:0:0:0:
323,160,5435,2,0,L|383:183,1,65,0|0,0:0|0:0,0:0:0:0:
459,201,5896,1,0,0:0:0:0:
471,278,6127,1,0,0:0:0:0:
485,354,6358,5,2,0:2:0:0:
359,131,8204,6,0,B|341:175|341:175|352:215|349:256,1,130,4|0,0:2|0:0,0:0:0:0:
307,322,8896,2,0,P|249:332|241:331,1,65,2|0,0:2|0:0,0:0:0:0:
190,273,9358,1,0,0:0:0:0:
150,340,9589,1,2,0:2:0:0:
116,103,10050,6,0,B|134:147|134:147|123:187|126:228,1,130,4|0,0:2|0:0,0:0:0:0:
190,273,10743,2,0,P|221:263|253:263,1,65,2|0,0:2|0:0,0:0:0:0:
317,309,11204,1,0,0:0:0:0:
383,268,11435,1,2,0:2:0:0:
359,131,11896,5,4,0:2:0:0:
129,85,12589,1,0,0:0:0:0:
115,161,12820,1,2,0:2:0:0:
236,259,13281,1,0,0:0:0:0:
225,336,13512,1,2,0:2:0:0:
313,234,13743,6,0,P|276:184|213:175,1,130,2|0,0:2|0:0,0:0:0:0:
306,313,14666,2,0,P|367:295|392:225,1,130,0|0,0:0|0:0,0:0:0:0:
367,84,15589,5,4,0:2:0:0:
152,154,16512,2,0,L|144:218,2,65,0|0|0,0:0|0:0|0:0,0:0:0:0:
34,51,17435,5,0,0:0:0:0:
4,203,17896,1,0,0:0:0:0:
152,154,18358,2,0,L|216:149,1,65,2|0,0:2|0:0,0:0:0:0:
237,224,18820,2,0,L|310:256,1,65,2|0,0:2|0:0,0:0:0:0:
340,151,19281,6,0,B|350:215|350:215|339:297|339:297|348:344,1,195,2|0,0:2|0:0,0:0:0:0:
465,154,21012,6,0,L|464:186,1,32.5,0|2,0:0|0:2,0:0:0:0:
262,318,22050,5,2,0:2:0:0:
232,98,22973,5,2,0:2:0:0:
232,98,23896,2,0,L|167:95,1,65,0|0,0:0|0:0,0:0:0:0:
109,148,24358,2,0,L|113:225,1,65,0|0,0:0|0:0,0:0:0:0:
117,291,24820,5,2,0:2:0:0:
249,192,25281,1,0,0:0:0:0:
264,347,25743,1,2,0:2:0:0:
168,224,26204,1,0,0:0:0:0:
319,262,26666,6,0,L|448:261,2,130,2|0|0,0:2|0:0|0:0,0:0:0:0:
316,93,28512,5,2,0:2:0:0:
316,93,30358,6,0,L|251:90,1,65,2|0,0:2|0:0,0:0:0:0:
204,153,30820,2,0,L|139:152,1,65,0|0,0:0|0:0,0:0:0:0:
60,149,31281,1,2,0:2:0:0:
118,293,31743,1,0,0:0:0:0:
192,314,31973,1,0,0:0:0:0:
250,261,32204,6,0,L|314:254,1,65,2|0,0:2|0:0,0:0:0:0:
391,139,32666,2,0,L|383:221,1,65,0|0,0:0|0:0,0:0:0:0:
392,281,33127,1,2,0:2:0:0:
296,157,33589,1,0,0:0:0:0:
187,209,33935,6,0,L|155:214,1,32.5,0|2,0:0|0:2,0:0:0:0:
57,335,34512,1,0,0:0:0:0:
0,222,34973,2,0,B|40:230|40:230|88:215|88:215|132:217,1,130,2|0,0:2|0:0,0:0:0:0:
160,287,35666,1,2,0:2:0:0:
197,354,35896,5,2,0:2:0:0:
96,137,36820,1,2,0:2:0:0:
235,67,37281,1,0,0:0:0:0:
260,140,37512,1,0,0:0:0:0:
314,85,37743,6,0,L|377:71,1,65,2|0,0:2|0:0,0:0:0:0:
445,109,38204,2,0,L|440:173,1,65,0|0,0:0|0:0,0:0:0:0:
431,251,38666,1,0,0:0:0:0:
276,230,39127,2,0,L|280:294,1,65,0|0,0:0|0:0,0:0:0:0:
334,352,39589,6,0,P|399:354|455:325,1,130,2|0,0:2|0:0,0:0:0:0:
431,251,40281,2,0,P|416:177|434:125,1,130,2|0,0:2|0:2,0:0:0:0:
491,74,40973,1,2,0:2:0:0:
335,63,41435,5,2,0:2:0:0:
355,296,42127,1,0,0:0:0:0:
241,192,42589,5,2,0:2:0:0:
158,213,42820,1,2,0:2:0:0:
137,298,43050,1,0,0:0:0:0:
94,152,43281,1,2,0:2:0:0:
296,350,44204,1,2,0:2:0:0:
367,84,45127,5,4,0:2:0:0:
257,195,45589,1,0,0:0:0:0:
216,44,46050,2,0,L|151:50,1,65,2|0,0:2|0:0,0:0:0:0:
94,104,46512,2,0,L|88:168,1,65,0|0,0:0|0:0,0:0:0:0:
78,246,46973,5,2,0:2:0:0:
185,358,47435,1,0,0:0:0:0:
235,210,47896,2,0,L|299:205,1,65,2|2,0:2|0:2,0:0:0:0:
358,257,48358,2,0,L|417:230,1,65,2|0,0:2|0:0,0:0:0:0:
430,127,48820,6,0,P|307:109|235:210,1,260,2|2,0:2|0:2,0:0:0:0:
122,326,50666,5,2,0:2:0:0:
4,194,51358,1,2,0:2:0:0:
4,194,51589,1,2,0:2:0:0:
68,52,52050,1,0,0:0:0:0:
185,155,52512,5,4,0:2:0:0:
377,120,53435,2,0,L|441:117,1,65,2|0,0:2|0:0,0:0:0:0:
492,177,53896,2,0,L|496:254,1,65,2|0,0:2|0:0,0:0:0:0:
482,319,54358,5,2,0:2:0:0:
333,270,54820,1,0,0:0:0:0:
377,120,55281,1,2,0:2:0:0:
333,270,55743,1,0,0:0:0:0:
231,151,56204,6,0,P|168:135|105:147,2,130,2|0|2,0:2|0:0|0:2,0:0:0:0:
379,199,57589,1,0,0:0:0:0:
268,308,58050,5,2,0:2:0:0:
151,104,58743,1,2,0:2:0:0:
133,179,58973,2,0,L|142:254,1,65,2|0,0:2|0:0,0:0:0:0:
211,277,59435,2,0,L|202:359,1,65,2|0,0:2|0:0,0:0:0:0:
126,335,59896,6,0,L|61:332,1,65,4|0,0:2|0:0,0:0:0:0:
64,253,60358,2,0,L|-5:217,1,65,0|0,0:0|0:0,0:0:0:0:
11,145,60820,1,2,0:2:0:0:
117,31,61281,1,0,0:0:0:0:
147,102,61512,1,0,0:0:0:0:
218,132,61743,6,0,L|282:125,1,65,2|2,0:2|0:2,0:0:0:0:
337,181,62204,2,0,L|343:245,1,65,2|0,0:2|0:0,0:0:0:0:
375,316,62666,1,2,0:2:0:0:
509,237,63127,1,0,0:0:0:0:
450,92,63589,6,0,P|386:96|332:62,1,130,2|0,0:2|0:0,0:0:0:0:
185,113,64512,2,0,B|177:153|177:153|192:201|192:201|190:239,2,130,2|0|2,0:2|0:0|0:2,0:0:0:0:
72,42,66358,1,2,0:2:0:0:
65,197,66820,1,0,0:0:0:0:
56,274,67050,1,0,0:0:0:0:
122,315,67281,6,0,L|215:311,1,65,4|0,0:2|0:0,0:0:0:0:
243,257,67743,1,2,0:2:0:0:
291,317,67973,1,2,0:2:0:0:
447,321,68435,1,2,0:2:0:0:
368,184,68896,1,0,0:2:0:0:
368,184,69127,6,0,P|342:166|310:160,1,65,2|0,0:2|0:0,0:0:0:0:
239,124,69589,2,0,P|232:155|236:187,1,65,2|0,0:2|0:0,0:0:0:0:
291,242,70050,1,2,0:2:0:0:
272,317,70281,2,0,P|207:318|149:290,1,130,2|0,0:2|0:0,0:0:0:0:
111,222,70973,5,4,0:2:0:0:
130,67,71435,1,2,0:2:0:0:
282,132,71896,1,2,0:2:0:0:
419,100,72358,5,2,0:2:0:0:
362,157,72589,1,2,0:2:0:0:
374,233,72820,1,2,0:2:0:0:
374,233,73512,5,0,1:0:0:0:
362,157,73743,1,2,1:2:0:0:
432,124,73973,1,0,0:0:0:0:
451,259,74204,1,0,0:0:0:0:
488,186,74435,1,0,0:0:0:0:
384,315,74666,6,0,P|339:312|310:297,1,65,4|0,1:2|0:0,0:0:0:0:
271,228,75127,2,0,P|242:261|231:290,1,65,0|0,1:0|0:0,0:0:0:0:
321,156,75589,2,0,P|259:145|205:178,1,130,10|0,0:2|1:0,0:0:0:0:
158,256,76281,1,0,1:0:0:0:
117,174,76512,6,0,L|109:101,1,65,0|2,1:0|1:2,0:0:0:0:
53,247,76973,2,0,L|34:166,1,65,2|0,1:2|0:0,0:0:0:0:
97,320,77435,2,0,P|152:351|221:330,1,130,10|2,0:0|0:2,0:0:0:0:
268,263,78127,1,0,0:0:0:0:
326,334,78358,6,0,L|399:345,1,65,4|0,1:2|0:0,0:0:0:0:
371,242,78820,2,0,L|446:274,1,65,0|0,1:0|0:0,0:0:0:0:
418,155,79281,2,0,P|375:141|293:180,1,130,10|0,0:2|1:0,0:0:0:0:
227,227,79973,1,2,1:2:0:0:
223,136,80204,6,0,L|238:69,1,65,0|8,1:0|1:2,0:0:0:0:
151,177,80666,2,0,L|144:104,1,65,0|0,1:0|0:0,0:0:0:0:
81,221,81127,2,0,L|52:155,1,65,10|2,0:2|1:2,0:0:0:0:
153,257,81589,1,2,1:2:0:0:
104,334,81820,1,2,0:2:0:0:
22,281,82050,6,0,P|22:217|55:161,1,130,4|0,1:2|1:0,0:0:0:0:
118,96,82743,1,0,0:0:0:0:
172,168,82973,2,0,B|217:175|217:175|269:160|269:160|315:165,1,130,10|0,0:2|0:0,0:0:0:0:
380,204,83666,1,0,1:0:0:0:
464,169,83896,6,0,L|474:102,1,65,2|0,1:2|0:0,0:0:0:0:
385,53,84358,2,0,L|393:127,1,65,0|0,1:0|0:0,0:0:0:0:
299,163,84820,2,0,L|309:96,1,65,10|0,0:2|0:0,0:0:0:0:
220,47,85281,2,0,L|228:121,1,65,2|0,0:2|0:0,0:0:0:0:
160,173,85743,6,0,L|32:157,2,97.5,2|2|2,1:2|0:2|0:2,0:0:0:0:
191,258,86666,2,0,L|88:269,2,97.5,10|2|2,0:2|0:2|1:2,0:0:0:0:
232,255,87473,1,0,1:0:0:0:
232,255,87589,5,8,1:2:0:0:
289,342,87820,1,4,1:2:0:0:
385,232,88281,1,0,1:0:0:0:
385,232,88396,1,0,1:0:0:0:
385,232,88512,1,8,0:2:0:0:
418,147,88743,1,0,1:0:0:0:
501,182,88973,1,0,1:0:0:0:
469,267,89204,1,0,0:0:0:0:
341,163,89435,6,0,P|312:150|280:148,1,65,4|0,1:2|0:0,0:0:0:0:
225,221,89896,2,0,P|254:234|286:234,1,65,0|0,1:0|0:0,0:0:0:0:
201,142,90358,2,0,P|152:181|145:244,1,130,10|0,0:2|1:0,0:0:0:0:
158,334,91050,1,0,1:0:0:0:
248,347,91281,6,0,L|334:345,1,65,0|2,1:0|1:2,0:0:0:0:
286,257,91743,2,0,L|366:268,1,65,2|0,1:2|0:0,0:0:0:0:
416,339,92204,2,0,L|430:192,1,130,10|2,0:2|0:2,0:0:0:0:
439,119,92896,1,0,0:0:0:0:
354,156,93127,6,0,P|323:151|294:136,1,65,4|0,1:2|0:0,0:0:0:0:
282,44,93589,2,0,P|313:49|342:64,1,65,0|0,1:0|0:0,0:0:0:0:
220,177,94050,2,0,P|157:167|114:120,1,130,10|0,0:2|1:0,0:0:0:0:
81,35,94743,1,0,1:0:0:0:
10,92,94973,6,0,L|0:158,1,65,0|0,1:0|1:0,0:0:0:0:
70,215,95435,2,0,L|67:294,1,65,2|0,1:2|0:0,0:0:0:0:
116,356,95896,1,14,0:2:0:0:
185,297,96127,1,2,1:2:0:0:
258,351,96358,1,2,1:2:0:0:
320,285,96589,1,2,0:2:0:0:
409,268,96820,6,0,L|489:295,1,65,4|0,1:2|0:0,0:0:0:0:
377,180,97281,2,0,L|438:157,1,65,0|0,1:0|0:0,0:0:0:0:
323,108,97743,2,0,L|344:43,1,65,10|0,0:2|0:0,0:0:0:0:
234,116,98204,2,0,L|138:98,1,97.5,0|0,0:0|0:0,0:0:0:0:
99,93,98666,5,2,1:2:0:0:
275,187,99127,2,0,L|279:256,1,65,2|0,1:2|0:0,0:0:0:0:
184,201,99589,2,0,L|168:271,1,65,8|0,0:0|1:0,0:0:0:0:
99,163,100050,2,0,L|61:225,1,65,2|0,0:2|0:0,0:0:0:0:
6,305,100512,6,0,P|68:292|124:321,1,130,4|0,1:2|0:0,0:0:0:0:
204,360,101204,1,0,1:0:0:0:
204,360,101320,1,0,1:0:0:0:
204,360,101435,1,8,1:2:0:0:
265,245,101666,1,0,3:0:0:0:
302,327,101896,1,0,3:0:0:0:
225,161,102358,5,4,1:2:0:0:
446,130,103050,1,0,1:0:0:0:
429,219,103281,1,0,1:0:0:0:
429,219,104204,5,4,1:2:0:0:
354,172,105127,2,0,P|342:202|341:234,1,65,2|0,0:2|0:0,0:0:0:0:
376,304,105589,2,0,P|344:311|313:306,1,65,0|0,1:0|0:0,0:0:0:0:
261,247,106050,5,2,1:2:0:0:
135,339,106512,1,2,0:2:0:0:
121,183,106973,2,0,L|156:237,1,65,10|0,0:2|0:0,0:0:0:0:
213,184,107435,2,0,L|217:107,1,65,0|0,0:0|0:0,0:0:0:0:
123,72,107896,6,0,B|162:115|215:133|278:114|309:77|309:77|355:97,1,260,2|2,1:2|0:2,0:0:0:0:
456,216,109281,1,0,1:0:0:0:
501,66,109743,5,2,1:2:0:0:
387,172,110204,1,0,0:0:0:0:
380,249,110435,1,0,0:0:0:0:
443,293,110666,1,10,0:2:0:0:
313,284,111127,1,0,0:0:0:0:
456,216,111589,5,4,1:2:0:0:
303,196,112512,2,0,P|272:190|240:193,1,65,2|0,0:2|0:0,0:0:0:0:
180,244,112973,2,0,P|147:247|116:240,1,65,0|0,1:0|0:0,0:0:0:0:
52,194,113435,5,2,1:2:0:0:
104,340,113896,1,0,0:0:0:0:
28,203,114358,1,10,0:2:0:0:
129,321,114820,1,0,0:0:0:0:
171,170,115281,6,0,P|151:110|93:83,2,130,2|0|2,1:2|0:0|0:2,0:0:0:0:
55,276,116666,1,0,1:0:0:0:
185,359,117127,6,0,P|234:321|293:342,1,130,12|0,1:2|0:0,0:0:0:0:
369,361,117820,1,2,0:2:0:0:
430,313,118050,2,0,L|428:232,1,65,2|2,0:2|0:2,0:0:0:0:
504,228,118512,2,0,L|518:156,1,65,2|2,1:2|0:2,0:0:0:0:
428,101,118973,6,0,L|436:165,1,65,4|0,1:2|0:0,0:0:0:0:
361,188,119435,2,0,L|352:252,1,65,2|0,0:2|0:0,0:0:0:0:
337,329,119896,1,8,0:0:0:0:
213,234,120358,1,0,1:0:0:0:
240,161,120589,1,0,0:0:0:0:
175,117,120820,6,0,L|111:124,1,65,2|0,1:2|0:0,0:0:0:0:
53,178,121281,2,0,L|59:242,1,65,2|0,0:2|0:0,0:0:0:0:
72,319,121743,1,10,0:2:0:0:
220,269,122204,1,0,0:0:0:0:
175,117,122666,5,2,1:2:0:0:
220,269,123127,1,0,0:0:0:0:
325,154,123589,2,0,B|366:148|366:148|405:162|453:161,2,130,8|0|2,0:0|1:0|1:2,0:0:0:0:
261,199,124743,5,2,0:2:0:0:
261,199,124973,1,0,0:0:0:0:
375,304,125435,1,10,0:2:0:0:
375,304,125666,1,0,1:0:0:0:
447,275,125896,1,0,1:0:0:0:
439,352,126127,1,0,0:0:0:0:
381,221,126358,6,0,P|319:236|289:291,1,130,4|0,1:2|0:0,0:0:0:0:
284,369,127050,1,0,0:0:0:0:
210,342,127281,2,0,L|115:332,1,65,10|0,0:2|0:0,0:0:0:0:
86,283,127743,2,0,L|83:218,1,65,0|0,1:0|0:0,0:0:0:0:
105,143,128204,6,0,P|166:161|227:141,1,130,2|2,1:2|0:2,0:0:0:0:
89,65,129127,2,0,P|36:99|25:162,1,130,10|0,0:2|0:0,0:0:0:0:
162,237,130050,5,4,1:2:0:0:
162,237,130281,1,2,0:2:0:0:
205,301,130512,1,2,1:2:0:0:
205,301,130743,1,2,0:2:0:0:
321,277,130973,1,2,1:2:0:0:
370,133,131435,5,0,1:0:0:0:
391,219,131666,1,2,0:2:0:0:
475,243,131896,1,6,1:2:0:0:
293,156,132589,5,0,1:0:0:0:
233,204,132820,1,0,1:0:0:0:
169,160,133050,1,0,0:0:0:0:
277,76,133281,1,0,0:0:0:0:
195,80,133512,1,0,0:0:0:0:
233,204,133743,6,0,P|260:220|292:226,1,65,4|0,1:2|0:0,0:0:0:0:
384,232,134204,2,0,P|375:263|357:290,1,65,0|0,1:0|0:0,0:0:0:0:
344,154,134666,2,0,P|407:148|457:186,1,130,10|0,0:2|1:0,0:0:0:0:
500,267,135358,1,0,1:0:0:0:
478,355,135589,6,0,L|413:348,1,65,0|2,1:0|1:2,0:0:0:0:
292,296,136050,2,0,L|357:290,1,65,2|0,1:2|0:0,0:0:0:0:
255,367,136512,2,0,P|215:318|223:256,1,130,10|0,0:2|0:0,0:0:0:0:
271,179,137204,1,0,0:0:0:0:
180,174,137435,6,0,L|115:164,1,65,6|0,1:2|0:0,0:0:0:0:
72,83,137896,2,0,L|136:77,1,65,0|0,1:0|0:0,0:0:0:0:
40,8,138358,2,0,P|-3:54|0:117,1,130,10|0,0:0|1:0,0:0:0:0:
42,197,139050,1,0,1:0:0:0:
101,266,139281,6,0,L|86:329,1,65,0|8,1:0|1:2,0:0:0:0:
190,239,139743,2,0,L|196:303,1,65,2|0,1:2|0:0,0:0:0:0:
280,232,140204,2,0,L|312:289,1,65,0|2,1:0|1:2,0:0:0:0:
459,285,140666,1,2,1:2:0:0:
387,340,140896,1,2,0:2:0:0:
384,232,141127,6,0,P|435:194|498:202,1,130,6|0,1:2|1:0,0:0:0:0:
459,285,141820,1,0,0:0:0:0:
384,232,142050,2,0,L|254:217,1,130,10|0,0:2|0:0,0:0:0:0:
189,173,142743,1,0,1:0:0:0:
90,210,142973,6,0,L|96:274,1,65,2|0,1:2|0:0,0:0:0:0:
169,326,143435,2,0,L|178:261,1,65,2|0,1:2|0:0,0:0:0:0:
255,216,143896,2,0,L|261:280,1,65,10|2,0:2|1:2,0:0:0:0:
334,332,144358,2,0,L|343:267,1,65,2|2,1:2|0:2,0:0:0:0:
409,204,144820,6,0,L|505:191,2,97.5,6|2|2,1:2|0:0|0:0,0:0:0:0:
361,126,145743,2,0,L|264:112,2,97.5,10|2|2,0:0|0:0|1:2,0:0:0:0:
393,130,146550,1,0,1:0:0:0:
393,130,146666,5,8,1:2:0:0:
420,238,146896,1,4,1:2:0:0:
277,202,147358,1,0,1:0:0:0:
277,202,147473,1,0,1:0:0:0:
277,202,147589,1,8,1:2:0:0:
161,252,147820,1,0,1:0:0:0:
193,167,148050,1,0,1:0:0:0:
244,287,148281,1,0,0:0:0:0:
337,183,148512,6,0,P|305:187|277:202,1,65,4|0,1:2|0:0,0:0:0:0:
328,277,148973,2,0,P|360:273|387:257,1,65,0|0,1:0|0:0,0:0:0:0:
408,138,149435,2,0,P|352:105|288:109,1,130,10|0,0:2|1:0,0:0:0:0:
212,158,150127,1,0,1:0:0:0:
144,96,150358,6,0,L|140:12,1,65,0|2,1:0|1:2,0:0:0:0:
68,146,150820,2,0,L|50:83,1,65,2|0,1:2|0:0,0:0:0:0:
135,186,151281,2,0,B|124:224|124:224|137:288|137:318,1,130,10|2,0:2|0:2,0:0:0:0:
218,354,151973,1,0,0:0:0:0:
292,301,152204,6,0,P|320:285|352:280,1,65,4|0,1:2|0:0,0:0:0:0:
480,350,152666,2,0,P|448:344|419:329,1,65,0|0,1:0|0:0,0:0:0:0:
389,207,153127,2,0,B|393:161|393:161|414:110|421:82,1,130,10|0,0:2|1:0,0:0:0:0:
504,43,153820,1,0,1:0:0:0:
493,133,154050,6,0,L|505:219,1,65,0|2,1:0|1:2,0:0:0:0:
455,275,154512,2,0,L|457:339,1,65,2|0,1:2|0:0,0:0:0:0:
367,356,154973,1,14,0:2:0:0:
304,289,155204,1,2,1:2:0:0:
367,223,155435,1,2,1:2:0:0:
304,289,155666,1,0,0:0:0:0:
212,291,155896,6,0,L|133:284,1,65,4|0,1:2|0:0,0:0:0:0:
58,209,156358,2,0,L|122:203,1,65,0|0,1:0|0:0,0:0:0:0:
214,129,156820,2,0,L|149:123,1,65,10|0,0:2|0:0,0:0:0:0:
234,220,157281,2,0,L|346:212,1,97.5,0|0,1:0|0:0,0:0:0:0:
376,208,157743,5,2,1:2:0:0:
436,87,158204,2,0,P|410:68|379:58,1,65,2|0,1:2|0:0,0:0:0:0:
457,173,158666,2,0,P|486:160|510:138,1,65,10|0,0:2|1:0,0:0:0:0:
372,144,159127,2,0,P|368:176|375:207,1,65,2|0,0:2|0:0,0:0:0:0:
483,289,159589,6,0,P|420:275|361:298,1,130,4|0,1:2|0:0,0:0:0:0:
293,359,160281,1,0,1:0:0:0:
293,359,160396,1,0,1:0:0:0:
293,359,160512,1,10,1:2:0:0:
204,258,160743,1,0,3:0:0:0:
208,348,160973,1,0,3:0:0:0:
200,165,161435,5,4,1:2:0:0:
185,127,170666,5,2,0:2:0:0:
265,220,172512,5,2,0:2:0:0:
393,247,174358,6,0,L|452:169,2,97.5,6|2|2,1:2|0:2|0:2,0:0:0:0:
335,317,175281,1,10,0:2:0:0:
172,273,175627,1,2,0:2:0:0:
291,154,175973,1,2,1:2:0:0:
291,154,176089,1,0,1:0:0:0:
291,154,176204,5,8,1:2:0:0:
269,248,176435,1,4,1:2:0:0:
103,198,176896,1,0,1:0:0:0:
103,198,177012,1,0,1:0:0:0:
103,198,177127,6,0,L|59:199,2,43.3333333333333,8|0|0,3:2|3:0|3:0,0:0:0:0:
164,194,177589,1,0,3:0:0:0:
182,251,177743,2,0,L|196:309,1,43.3333333333333,0|0,3:0|3:0,0:0:0:0:
211,350,178050,5,6,1:2:0:0:
408,97,179435,1,0,1:0:0:0:
408,97,179666,6,0,B|396:153|396:153|417:222|417:222|419:299,1,195,6|0,1:2|0:0,0:0:0:0:
353,351,180589,1,0,1:0:0:0:
267,320,180820,2,0,L|202:322,1,65,10|0,0:2|1:0,0:0:0:0:
117,288,181281,1,2,1:2:0:0:
47,345,181512,1,0,0:0:0:0:
17,240,181743,6,0,P|13:208|20:176,1,65,4|0,1:2|0:0,0:0:0:0:
106,141,182204,2,0,P|109:172|102:204,1,65,0|0,1:0|0:0,0:0:0:0:
41,90,182666,2,0,P|95:59|157:75,1,130,10|0,0:2|1:0,0:0:0:0:
207,151,183358,1,2,1:2:0:0:
282,100,183589,6,0,L|372:119,1,65,0|0,1:0|1:0,0:0:0:0:
412,175,184050,2,0,L|409:254,1,65,2|0,1:2|0:0,0:0:0:0:
395,329,184512,1,14,0:2:0:0:
320,285,184743,1,2,1:2:0:0:
259,352,184973,1,2,1:2:0:0:
320,285,185204,1,2,0:2:0:0:
240,240,185435,6,0,L|182:206,1,65,4|0,1:2|0:0,0:0:0:0:
106,317,185896,2,0,L|167:294,1,65,0|0,1:0|0:0,0:0:0:0:
104,167,186358,2,0,L|96:231,1,65,10|0,0:2|0:0,0:0:0:0:
178,125,186820,2,0,L|274:107,1,97.5,0|0,1:0|0:0,0:0:0:0:
312,99,187281,5,2,1:2:0:0:
458,207,187743,1,2,1:2:0:0:
458,207,188204,2,0,L|443:270,1,65,10|0,1:2|1:0,0:0:0:0:
353,188,188666,2,0,L|358:252,1,65,2|0,0:2|0:0,0:0:0:0:
414,133,189127,6,0,P|359:104|300:125,1,130,6|0,0:2|1:0,0:0:0:0:
255,205,189820,1,0,1:0:0:0:
255,205,189935,1,0,1:0:0:0:
255,205,190050,1,8,1:2:0:0:
170,170,190281,1,0,3:0:0:0:
181,259,190512,1,0,3:0:0:0:
157,78,190973,5,4,1:2:0:0:
256,192,191089,12,2,192820,0:2:0:0:
