osu file format v14

[General]
AudioFilename: yunluo.mp3
AudioLeadIn: 0
PreviewTime: 73404
Countdown: 0
SampleSet: Soft
StackLeniency: 0
Mode: 0
LetterboxInBreaks: 0
WidescreenStoryboard: 1

[Editor]
Bookmarks: 8125,15510,45048,74587,104125,133664,163202,177971,181664,192741,200125,209356
DistanceSpacing: 1.5
BeatDivisor: 4
GridSize: 32
TimelineZoom: 1.4

[Metadata]
Title:Yun Luo
TitleUnicode:陨落
Artist:Bu Shi Hua Huo Ya
ArtistUnicode:不是花火呀
Creator:Yusomi
Version:Normal
Source:
Tags:moonlightleaf vivicat chinese pop fall down
BeatmapID:2924209
BeatmapSetID:1415032

[Difficulty]
HPDrainRate:3
CircleSize:3
OverallDifficulty:4
ApproachRate:5
SliderMultiplier:1
SliderTickRate:1

[Events]
//Background and Video events
0,0,"Konachan.com - 318588.jpg",0,0
//Break Periods
//Storyboard Layer 0 (Background)
//Storyboard Layer 1 (Fail)
//Storyboard Layer 2 (Pass)
//Storyboard Layer 3 (Foreground)
//Storyboard Layer 4 (Overlay)
//Storyboard Sound Samples

[TimingPoints]
820,461.538461538462,4,2,1,40,1,0
820,-100,4,2,1,40,0,0
2666,-100,4,2,1,50,0,0
6358,-100,4,2,1,60,0,0
14666,-100,4,2,1,47,0,0
15127,-100,4,2,1,35,0,0
15589,-100,4,2,1,47,0,0
45127,-100,4,2,1,60,0,0
74666,-100,4,2,1,60,0,1
87820,-100,4,2,1,60,0,0
88512,-100,4,2,1,60,0,0
89435,-100,4,2,1,60,0,1
102358,-100,4,2,1,60,0,0
104204,-100,4,2,1,60,0,0
123589,-100,4,2,1,60,0,0
125896,-100,4,2,1,60,0,0
130050,-100,4,2,1,60,0,0
131896,-100,4,2,1,60,0,0
132820,-100,4,2,1,60,0,0
133743,-100,4,2,1,60,0,1
146896,-100,4,2,1,60,0,0
147589,-100,4,2,1,60,0,0
148512,-100,4,2,1,60,0,1
161435,-100,4,2,1,60,0,0
162358,-100,4,2,1,40,0,0
163281,-100,4,2,1,50,0,0
170666,-100,4,2,1,60,0,0
174358,-100,4,2,1,60,0,1
176435,-100,4,2,1,60,0,0
177127,-100,4,2,1,60,0,0
178050,-100,4,2,1,60,0,1
178079,-100,4,2,0,15,0,0
178166,-100,4,2,1,5,0,0
179435,-100,4,2,1,60,0,0
179666,-100,4,2,1,60,0,1
180358,-100,4,2,1,60,0,0
180820,-100,4,2,1,60,0,0
181743,-100,4,2,1,60,0,1
190973,-100,4,2,1,60,0,0
192820,-100,4,2,1,40,0,0
200204,-100,4,2,1,50,0,0
206146,-100,4,2,1,43,0,0
206608,-100,4,2,1,36,0,0
207070,-100,4,2,1,29,0,0
207589,-100,4,2,1,22,0,0

[Colours]
Combo1 : 245,220,229
Combo2 : 189,240,240
Combo3 : 247,223,219
Combo4 : 184,209,219

[HitObjects]
256,192,820,12,2,2666,0:2:0:0:
256,192,4512,12,2,6358,0:2:0:0:
123,228,8204,6,0,B|211:250|286:214|238:182|314:145|402:168,1,300,4|2,0:2|0:2,0:0:0:0:
484,226,10050,2,0,P|514:283|380:262,1,300,4|2,0:2|0:2,0:0:0:0:
402,168,11896,1,4,0:2:0:0:
256,30,12820,1,2,0:2:0:0:
110,168,13743,1,2,0:2:0:0:
256,192,15589,5,4,0:2:0:0:
81,288,16512,2,0,P|130:283|180:287,2,100
11,216,17896,1,0,0:0:0:0:
106,185,18358,2,0,P|155:179|205:183,1,100,2|2,0:2|0:2,0:0:0:0:
254,95,19281,2,0,P|156:82|58:98,1,200,2|0,0:2|0:0,0:0:0:0:
58,98,21127,1,2,0:2:0:0:
82,296,22050,1,2,0:2:0:0:
256,192,22973,5,2,0:2:0:0:
430,95,23896,2,0,P|381:100|331:96,2,100,0|0|2,0:0|0:0|0:2,0:0:0:0:
501,168,25280,1,0,0:0:0:0:
406,199,25742,2,0,P|356:204|306:200,1,100,2|0,0:2|0:0,0:0:0:0:
257,288,26666,2,0,P|355:301|453:285,1,200,2|0,0:2|0:0,0:0:0:0:
454,286,28512,1,2,0:2:0:0:
277,55,30358,6,0,P|281:104|278:154,1,100,2|0,0:2|0:0,0:0:0:0:
272,254,31281,2,0,P|321:249|371:252,1,100,2|0,0:2|0:0,0:0:0:0:
374,352,32204,2,0,P|324:356|274:353,1,100,2|0,0:2|0:0,0:0:0:0:
175,361,33127,2,0,P|179:311|176:261,1,100,2|0,0:2|0:0,0:0:0:0:
175,161,34050,1,2,0:2:0:0:
74,161,34512,1,0,0:0:0:0:
70,260,34973,2,0,P|67:310|72:360,2,100,2|0|2,0:2|0:0|0:2,0:0:0:0:
84,60,36820,1,2,0:2:0:0:
283,53,37743,6,0,B|368:68|327:104|411:123,1,150,2|0,0:2|0:0,0:0:0:0:
492,180,38896,1,0,0:0:0:0:
402,299,39589,2,0,P|363:211|270:186,1,200,2|0,0:2|0:0,0:0:0:0:
191,248,40973,1,2,0:2:0:0:
100,291,41435,2,0,B|52:278|36:234|36:234|62:127,1,200,2|0,0:2|0:0,0:0:0:0:
94,31,42820,1,2,0:2:0:0:
156,108,43281,1,2,0:2:0:0:
356,108,44204,1,2,0:2:0:0:
256,281,45127,6,0,P|301:300|351:299,1,100,4|0,0:2|0:0,0:0:0:0:
433,243,46050,2,0,P|452:197|451:147,1,100,2|0,0:2|0:0,0:0:0:0:
385,72,46973,2,0,P|339:52|289:53,1,100,2|0,0:2|0:0,0:0:0:0:
197,91,47896,1,2,0:2:0:0:
97,97,48358,1,2,0:2:0:0:
18,160,48820,6,0,P|0:257|32:350,1,200,2|2,0:2|0:2,0:0:0:0:
129,376,50204,1,0,0:0:0:0:
222,341,50666,2,0,P|234:292|234:242,1,100,2|0,0:2|0:0,0:0:0:0:
319,189,51589,2,0,P|368:201|418:201,1,100,2|0,0:2|0:0,0:0:0:0:
483,125,52512,5,4,0:2:0:0:
486,129,53435,2,0,P|485:77|472:29,1,100,2|2,0:2|0:2,0:0:0:0:
373,17,54358,2,0,P|321:18|273:30,1,100,2|0,0:2|0:0,0:0:0:0:
261,130,55281,2,0,P|262:182|274:229,1,100,2|0,0:2|0:0,0:0:0:0:
232,319,56204,2,0,B|141:324|145:270|39:275,1,200,2|2,0:2|0:2,0:0:0:0:
3,182,57589,1,0,0:0:0:0:
41,89,58050,2,0,P|136:65|210:93,1,150,2|2,0:2|0:2,0:0:0:0:
234,78,58973,2,0,L|215:176,1,100,2|2,0:2|0:2,0:0:0:0:
193,274,59896,5,4,0:2:0:0:
265,343,60358,1,0,0:0:0:0:
363,354,60820,2,0,P|413:357|463:354,1,100,2|0,0:2|0:0,0:2:0:0:
491,258,61743,1,2,0:2:0:0:
391,258,62204,1,0,0:0:0:0:
290,254,62666,2,0,P|286:204|289:154,1,100,2|0,0:2|0:0,0:0:0:0:
302,55,63589,5,2,0:2:0:0:
102,47,64512,2,0,B|127:96|184:90|184:90|228:113|222:177,1,200,2|2,0:2|0:2,0:0:0:0:
199,273,65896,1,0,0:0:0:0:
126,340,66358,2,0,P|76:345|27:337,1,100,2|0,0:2|0:0,0:0:0:0:
8,234,67281,6,0,P|59:182|136:175,1,150,4|0,0:2|0:2,0:0:0:0:
235,193,68435,1,2,0:2:0:0:
320,326,69127,2,0,P|365:343|421:342,1,100,2|2,0:2|0:2,0:0:0:0:
487,272,70050,2,0,P|504:227|503:171,1,100,2|0,0:2|0:0,0:0:0:0:
462,84,70973,2,0,B|347:70|382:133|269:119,1,200,4|2,0:2|0:2,0:0:0:0:
175,88,72358,1,2,0:2:0:0:
96,25,72820,1,2,0:2:0:0:
32,161,73512,1,0,1:0:0:0:
36,164,73743,2,0,P|31:239|36:314,1,150,2|0,1:2|0:0,0:0:0:0:
74,346,74666,5,4,1:2:0:0:
168,312,75127,1,0,1:0:0:0:
258,354,75589,2,0,P|307:359|356:353,1,100,10|0,0:2|1:0,0:0:0:0:
405,340,76281,1,0,1:0:0:0:
409,344,76512,2,0,L|401:244,1,100,0|2,1:0|1:2,0:0:0:0:
392,144,77435,2,0,P|342:138|293:144,1,100,10|2,0:0|0:2,0:0:0:0:
204,191,78358,5,4,1:2:0:0:
107,217,78820,1,0,1:0:0:0:
7,208,79281,2,0,P|1:158|7:109,1,100,10|0,0:2|1:0,0:0:0:0:
21,61,79973,1,2,1:2:0:0:
25,65,80204,2,0,L|18:15,2,50,0|8|0,1:0|1:2|1:0,0:0:0:0:
116,105,81127,2,0,B|165:116|165:116|220:94,1,100,14|2,0:2|1:2,0:0:0:0:
300,52,82050,5,4,1:2:0:0:
398,32,82512,1,0,1:0:0:0:
480,88,82973,2,0,L|468:187,1,100,10|0,0:2|0:0,0:0:0:0:
459,236,83666,1,0,1:0:0:0:
462,240,83896,2,0,P|413:241|366:224,1,100,2|0,1:2|1:0,0:0:0:0:
271,191,84820,1,10,0:2:0:0:
172,206,85281,1,2,0:2:0:0:
92,266,85743,6,0,P|89:303|79:339,2,75,2|2|2,1:2|0:2|0:2,0:0:0:0:
68,221,86666,6,0,P|37:199|10:173,2,75,10|2|2,0:2|0:2|1:2,0:0:0:0:
119,222,87589,6,0,P|141:211|164:203,1,50,8|4,1:2|1:2,0:0:0:0:
311,171,88512,2,0,P|334:162|356:151,2,50,8|0|0,0:2|1:0|1:0,0:0:0:0:
224,121,89435,5,4,1:2:0:0:
141,64,89896,1,0,1:0:0:0:
40,72,90358,2,0,P|27:120|31:169,1,100,10|0,0:2|1:0,0:0:0:0:
40,218,91050,1,0,1:0:0:0:
44,222,91281,2,0,L|155:230,1,100,0|2,1:0|1:2,0:0:0:0:
243,221,92204,2,0,P|229:269|233:318,1,100,10|2,0:2|0:2,0:0:0:0:
313,378,93127,5,4,1:2:0:0:
412,372,93589,1,0,1:0:0:0:
490,310,94050,2,0,L|493:210,1,100,10|0,0:2|1:0,0:0:0:0:
493,159,94743,1,0,1:0:0:0:
497,163,94973,2,0,P|449:152|399:153,1,100,0|2,1:0|1:2,0:0:0:0:
309,200,95896,2,0,L|301:263,2,50,14|2|2,0:2|1:2|1:2,0:0:0:0:
312,99,96820,5,4,1:2:0:0:
234,35,97281,1,0,1:0:0:0:
139,67,97743,2,0,P|89:72|39:74,1,100,10|0,0:2|0:0,0:0:0:0:
6,111,98435,1,0,1:0:0:0:
10,115,98666,2,0,P|15:164|17:214,1,100,2|2,1:2|1:2,0:0:0:0:
26,314,99589,2,0,P|74:315|113:285,1,100,8|2,0:0|0:2,0:0:0:0:
163,198,100512,2,0,P|233:169|288:224,1,150,4|0,1:2|1:0,0:0:0:0:
293,261,101435,2,0,P|279:281|271:305,2,50,8|0|0,1:2|3:0|3:0,0:0:0:0:
383,217,102358,5,4,1:2:0:0:
255,46,104204,6,0,P|257:95|256:145,1,100,4|0,1:2|0:0,0:0:0:0:
254,245,105127,1,2,0:2:0:0:
153,245,105589,1,0,1:0:0:0:
151,145,106050,2,0,P|149:95|151:45,2,100,2|2|10,1:2|0:2|0:2,0:0:0:0:
153,245,107435,1,0,0:0:0:0:
199,333,107896,2,0,P|296:350|392:324,1,200,2|2,1:2|0:2,0:0:0:0:
448,242,109281,1,0,1:0:0:0:
445,141,109743,1,2,1:2:0:0:
256,73,110666,1,10,0:2:0:0:
67,141,111589,5,4,1:2:0:0:
70,145,112512,2,0,P|60:195|60:250,1,100,2|0,0:2|1:0,0:0:0:0:
80,341,113435,2,0,P|130:350|185:351,1,100,2|0,1:2|0:0,0:0:0:0:
276,331,114358,2,0,P|285:280|286:226,1,100,10|0,0:2|0:0,0:0:0:0:
274,132,115281,2,0,B|387:147|341:200|450:216,1,200,2|2,1:2|0:2,0:0:0:0:
511,136,116666,1,0,1:0:0:0:
459,50,117127,6,0,B|411:28|411:28|365:39,1,100,12|0,1:2|0:0,0:0:0:0:
316,49,117820,1,2,0:2:0:0:
320,53,118050,2,0,L|309:106,2,50,2|2|2,0:2|0:2|1:2,0:0:0:0:
221,68,118973,6,0,B|117:52|134:126|31:112,1,200,4|8,1:2|0:0,0:0:0:0:
0,207,120358,1,0,1:0:0:0:
12,305,120820,2,0,P|60:314|110:305,1,100,2|2,1:2|0:2,0:0:0:0:
200,263,121743,2,0,P|248:253|298:262,1,100,10|0,0:2|0:0,0:0:0:0:
387,306,122666,5,2,1:2:0:0:
496,138,123589,2,0,L|507:38,1,100,8|0,0:0|1:0,0:0:0:0:
466,9,124281,1,0,0:0:0:0:
470,13,124512,2,0,B|399:-14|356:42|356:42|366:84|347:112,1,200,2|10,1:2|0:2,0:0:0:0:
305,139,125666,1,0,1:0:0:0:
256,127,125896,1,0,1:0:0:0:
160,92,126358,6,0,P|112:80|63:85,2,100,4|0|10,1:2|0:0|0:2,0:0:0:0:
256,127,127743,1,0,1:0:0:0:
235,224,128204,2,0,B|212:340|212:340|181:374|137:360,1,200,2|10,1:2|0:2,0:0:0:0:
52,307,129589,1,0,0:0:0:0:
130,244,130050,5,4,1:2:0:0:
67,165,130512,1,2,1:2:0:0:
122,80,130973,1,2,1:2:0:0:
219,106,131435,1,0,1:0:0:0:
224,207,131896,6,0,P|285:237|370:204,1,150,6|0,1:2|1:0,0:0:0:0:
397,180,132820,1,0,1:0:0:0:
256,37,133743,5,4,1:2:0:0:
157,22,134204,1,0,1:0:0:0:
68,68,134666,2,0,P|63:122|66:182,1,100,10|0,0:2|1:0,0:0:0:0:
56,217,135358,1,0,1:0:0:0:
60,221,135589,2,0,P|140:229|160:212,1,100,0|2,1:0|1:2,0:0:0:0:
249,198,136512,2,0,P|241:278|258:298,1,100,10|0,0:2|0:0,0:0:0:0:
324,356,137435,5,6,1:2:0:0:
422,370,137896,1,0,1:0:0:0:
486,293,138358,2,0,P|491:239|488:179,1,100,10|0,0:0|1:0,0:0:0:0:
495,143,139050,1,0,1:0:0:0:
499,147,139281,2,0,L|504:80,2,50,0|8|2,1:0|1:2|1:2,0:0:0:0:
404,181,140204,2,0,B|354:194|354:194|311:171,1,100,4|2,1:2|1:2,0:0:0:0:
236,104,141127,5,6,1:2:0:0:
211,201,141589,1,0,1:0:0:0:
181,296,142050,2,0,P|131:299|81:293,1,100,10|0,0:2|0:0,0:0:0:0:
32,281,142743,1,0,1:0:0:0:
36,285,142973,2,0,L|31:166,1,100,2|2,1:2|1:2,0:0:0:0:
28,85,143896,1,10,0:2:0:0:
116,39,144358,1,2,1:2:0:0:
207,80,144820,6,0,P|244:83|280:93,2,75,6|2|2,1:2|0:0|0:0,0:0:0:0:
162,104,145743,6,0,P|140:135|114:162,2,75,10|2|2,0:0|0:0|1:2,0:0:0:0:
163,53,146666,6,0,P|152:31|144:8,1,50,8|4,1:2|1:2,0:0:0:0:
264,95,147589,2,0,P|275:117|283:140,2,50,8|0|0,1:2|1:0|1:0,0:0:0:0:
336,25,148512,5,4,1:2:0:0:
435,28,148973,1,0,1:0:0:0:
486,112,149435,2,0,P|488:162|486:212,1,100,10|0,0:2|1:0,0:0:0:0:
441,234,150127,1,0,1:0:0:0:
444,238,150358,2,0,P|407:270|395:317,1,100,0|2,1:0|1:2,0:0:0:0:
310,370,151281,2,0,P|300:321|265:287,1,100,10|2,0:2|0:2,0:0:0:0:
166,302,152204,5,4,1:2:0:0:
71,335,152666,1,0,1:0:0:0:
14,252,153127,2,0,P|10:202|15:152,1,100,10|0,0:2|1:0,0:0:0:0:
25,103,153820,1,0,1:0:0:0:
29,107,154050,2,0,L|132:119,1,100,0|2,1:0|1:2,0:0:0:0:
228,125,154973,2,0,P|238:103|242:78,2,50,14|2|2,0:2|1:2|1:2,0:0:0:0:
177,212,155896,5,4,1:2:0:0:
146,307,156358,1,0,1:0:0:0:
219,374,156820,2,0,L|320:365,1,100,10|0,0:2|1:0,0:0:0:0:
368,366,157512,1,0,1:0:0:0:
371,370,157743,2,0,P|389:324|377:276,1,100,2|2,1:2|1:2,0:0:0:0:
311,200,158666,2,0,P|293:154|305:106,1,100,10|2,0:2|0:2,0:0:0:0:
396,63,159589,2,0,P|464:113|436:182,1,150,4|0,1:2|1:0,0:0:0:0:
417,203,160512,2,0,P|392:209|370:220,2,50,10|0|0,1:2|3:0|3:0,0:0:0:0:
500,259,161435,5,4,1:2:0:0:
310,76,163281,6,0,B|278:106|235:96|242:88|212:63|187:93|194:99|154:117|118:92,1,200,2|2,0:2|0:2,0:0:0:0:
30,273,165127,2,0,B|61:303|104:293|97:285|127:260|152:290|145:296|185:314|221:289,1,200,2|2,0:2|0:2,0:0:0:0:
311,250,166512,1,0,0:0:0:0:
400,294,166973,6,0,B|455:299|494:340|494:340|521:298|504:250,1,200,2|2,0:2|0:2,0:0:0:0:
412,73,168820,2,0,B|357:68|318:27|318:27|291:69|307:116,1,200,2|2,0:2|0:2,0:0:0:0:
341,210,170204,2,0,P|327:231|307:245,1,50,2|2,0:2|0:2,0:0:0:0:
258,257,170666,5,2,0:2:0:0:
51,37,172050,1,2,0:2:0:0:
133,94,172512,2,0,P|134:192|132:298,1,200,2|2,0:2|0:2,0:0:0:0:
209,357,173896,1,2,0:2:0:0:
271,278,174358,6,0,P|266:241|268:203,2,75,6|2|2,1:2|0:2|0:2,0:0:0:0:
304,317,175281,6,0,P|338:332|370:351,2,75,10|2|2,0:2|0:2|1:2,0:0:0:0:
254,327,176204,6,0,P|234:342|213:354,1,50,8|4,1:2|1:2,0:0:0:0:
63,343,177127,6,0,B|43:315|43:315|60:288|60:288|41:260|41:260|57:230|57:230|41:200|41:200|62:177,1,200,8|6,3:2|1:2,0:0:0:0:
62,176,179435,5,0,1:0:0:0:
66,180,179666,2,0,B|103:157|143:188|129:192|172:227|231:211|231:154,1,200,6|0,1:2|1:0,0:0:0:0:
230,106,180820,2,0,P|216:84|196:70,2,50,10|0|2,0:2|1:0|1:2,0:0:0:0:
324,140,181743,5,4,1:2:0:0:
423,127,182204,1,0,1:0:0:0:
499,190,182666,2,0,P|494:240|486:290,1,100,10|0,0:2|1:0,0:0:0:0:
482,340,183358,1,2,1:2:0:0:
485,344,183589,2,0,P|438:356|390:342,1,100,0|2,1:0|1:2,0:0:0:0:
303,292,184512,2,0,P|278:293|255:303,2,50,14|2|2,0:2|1:2|1:2,0:0:0:0:
391,245,185435,5,4,1:2:0:0:
415,148,185896,1,0,1:0:0:0:
406,48,186358,2,0,P|357:38|307:41,1,100,10|0,0:2|1:0,0:0:0:0:
258,32,187050,1,0,1:0:0:0:
262,36,187281,2,0,L|253:135,1,100,2|2,1:2|1:2,0:0:0:0:
244,235,188204,2,0,P|195:244|145:241,1,100,10|2,1:2|0:2,0:0:0:0:
62,186,189127,2,0,P|88:120|159:117,1,150,6|0,0:2|1:0,0:0:0:0:
209,116,190050,2,0,P|230:129|244:149,2,50,8|0|0,1:2|3:0|3:0,0:0:0:0:
172,22,190973,5,4,1:2:0:0:
256,192,192820,12,2,194666,0:2:0:0:
256,192,196512,12,2,198358,0:2:0:0:
9,59,200204,6,0,B|97:37|172:73|124:105|200:142|288:119,1,300,2|2,0:2|0:2,0:0:0:0:
362,187,202050,2,0,B|312:241|303:322|303:322|262:252|194:222,1,300,4|2,0:2|0:2,0:0:0:0:
110,168,203896,5,4,0:2:0:0:
256,30,204820,1,2,0:2:0:0:
402,168,205743,1,2,0:2:0:0:
256,192,205973,12,0,207589,0:0:0:0:
