osu file format v14

[General]
AudioFilename: audio.mp3
AudioLeadIn: 0
PreviewTime: 77613
Countdown: 0
SampleSet: Soft
StackLeniency: 0.4
Mode: 0
LetterboxInBreaks: 0
WidescreenStoryboard: 0

[Editor]
DistanceSpacing: 1.3
BeatDivisor: 4
GridSize: 4
TimelineZoom: 1

[Metadata]
Title:Zhen Xiang Da Juan
TitleUnicode:真相答卷
Artist:Bu Chan
ArtistUnicode:不馋
Creator:Bellicose
Version:Misure's Hard
Source:三〇一室无一人
Tags:三零一室无一人 banter schooldays san ling yi shi wu yi ren 灵潭社 chinese galgame video game visual novel vn opening misure
BeatmapID:2256814
BeatmapSetID:1069955

[Difficulty]
HPDrainRate:4.2
CircleSize:3.6
OverallDifficulty:5.8
ApproachRate:7.2
SliderMultiplier:1.5
SliderTickRate:1

[Events]
//Background and Video events
0,0,"xiaqianxia2.jpg",0,0
//Break Periods
//Storyboard Layer 0 (Background)
//Storyboard Layer 1 (Fail)
//Storyboard Layer 2 (Pass)
//Storyboard Layer 3 (Foreground)
//Storyboard Layer 4 (Overlay)
//Storyboard Sound Samples

[TimingPoints]
1744,434.782608695652,4,2,1,50,1,0
1744,-125,4,2,1,50,0,0
7178,-125,4,2,1,60,0,0
8700,-100,4,2,1,70,0,0
19135,-90.9090909090909,4,2,1,75,0,0
20874,-111.111111111111,4,2,1,55,0,0
22613,-111.111111111111,4,2,1,65,0,0
46961,-111.111111111111,4,2,1,70,0,0
48265,-111.111111111111,4,2,1,75,0,0
48700,-90.9090909090908,4,2,1,80,0,0
50439,-100,4,2,1,70,0,0
74787,-100,4,2,1,75,0,0
76526,-90.9090909090909,4,2,1,80,0,0
77613,-111.111111111111,4,2,1,65,0,0
77830,-111.111111111111,4,2,1,75,0,0
78265,-100,4,2,1,75,0,1
84352,-90.9090909090909,4,2,1,75,0,1
85222,-100,4,2,1,75,0,1
90657,-90.9090909090908,4,2,1,65,0,1
91091,-100,4,2,1,50,0,0
91526,-100,4,2,1,75,0,1
91961,-100,4,2,1,70,0,0
92178,-100,4,2,1,75,0,1
97613,-90.9090909090909,4,2,1,75,0,1
99135,-100,4,2,1,75,0,1
104570,-90.9090909090909,4,2,1,75,0,1
105004,-100,4,2,1,50,0,0
105439,-100,4,2,1,75,0,1
106091,-100,4,2,1,75,0,0

[Colours]
Combo1 : 239,239,143
Combo2 : 250,136,112
Combo3 : 163,254,194
Combo4 : 252,69,65

[HitObjects]
272,17,1744,6,0,P|282:45|286:74,1,60,2|0,0:0|0:0,0:0:0:0:
212,125,2178,1,0,0:0:0:0:
260,201,2396,2,0,P|314:183|374:165,1,120,2|2,0:0|0:0,0:0:0:0:
374,165,3265,6,0,P|405:214|461:229,2,120,2|2|2,0:0|0:0|0:0,0:0:0:0:
275,343,4570,1,0,0:0:0:0:
275,343,4787,2,0,P|249:327|219:322,1,60,2|0,0:0|0:0,0:0:0:0:
124,300,5222,6,0,L|134:359,1,60,2|0,0:0|0:0,0:0:0:0:
189,238,5657,1,0,0:0:0:0:
189,238,5874,2,0,P|137:208|80:220,1,120,2|2,0:0|0:0,0:0:0:0:
80,220,6743,6,0,L|94:100,1,120,2|2,0:0|0:0,0:0:0:0:
43,25,7396,1,2,0:0:0:0:
337,93,8700,5,8,0:0:0:0:
337,93,8917,2,0,L|351:166,1,75,2|8,3:2|0:0,0:0:0:0:
319,257,9352,2,0,B|370:271|413:237|413:237|437:245|455:263,1,150,2|2,3:2|0:0,0:0:0:0:
420,352,10004,1,8,0:0:0:0:
455,263,10222,6,0,P|474:182|493:118,1,150,2|0,0:0|3:0,0:0:0:0:
449,32,10874,2,0,P|418:54|383:64,1,75,10|0,0:0|0:0,0:0:0:0:
306,12,11309,1,0,3:0:0:0:
241,82,11526,1,0,0:0:0:0:
145,77,11743,2,0,P|130:43|122:7,1,75,8|2,0:0|0:0,0:0:0:0:
26,129,12178,6,0,P|54:152|91:156,1,75,2|2,3:2|0:0,0:0:0:0:
145,77,12613,1,10,0:0:0:0:
197,161,12830,1,2,3:2:0:0:
197,161,12939,2,0,L|175:271,1,112.5,8|2,0:0|0:0,0:0:0:0:
256,322,13483,1,8,0:0:0:0:
175,374,13700,6,0,B|138:375|115:355|115:355|74:372|30:362,1,150,2|0,0:0|3:0,0:0:0:0:
62,270,14352,2,0,P|50:235|44:198,1,75,8|2,0:0|0:0,0:0:0:0:
111,129,14787,1,2,3:2:0:0:
111,129,15004,1,0,0:0:0:0:
171,204,15222,2,0,P|205:189|242:184,1,75,8|0,0:0|3:0,0:0:0:0:
264,226,15548,1,0,3:0:0:0:
264,226,15657,6,0,P|296:244|333:245,2,75,2|0|8,3:2|3:0|0:0,0:0:0:0:
326,152,16309,2,0,B|339:118|325:76|325:76|334:24|343:6,1,150,2|2,3:2|0:0,0:0:0:0:
430,45,16961,1,8,0:0:0:0:
447,139,17178,6,0,P|390:182|326:152,1,150,2|0,0:0|3:0,0:0:0:0:
252,90,17830,1,8,0:0:0:0:
252,90,18048,1,2,0:0:0:0:
179,151,18265,2,0,P|191:186|200:222,1,75,2|0,3:2|0:0,0:0:0:0:
112,261,18700,1,8,0:0:0:0:
146,353,18917,1,0,3:0:0:0:
146,353,19026,1,0,3:0:0:0:
146,353,19135,6,0,P|197:333|250:318,2,110.000003356934,10|10|10,0:0|3:2|3:2,0:0:0:0:
200,222,20004,2,0,P|157:190|160:137,2,110.000003356934,14|14|2,3:2|3:2|3:2,0:0:0:0:
299,160,20874,1,6,3:2:0:0:
502,359,22613,6,0,P|446:321|380:312,1,134.999995880127,2|10,3:2|0:1,0:0:0:0:
308,384,23265,2,0,P|292:324|273:250,1,134.999995880127,2|2,0:0|3:2,0:0:0:0:
364,227,23917,2,0,P|380:197|382:164,1,67.4999979400635,10|2,0:1|3:2,0:0:0:0:
348,75,24352,6,0,P|314:79|285:96,1,67.4999979400635,2|2,3:2|3:2,0:0:0:0:
229,172,24787,1,10,0:1:0:0:
169,98,25004,2,0,P|123:84|32:59,1,134.999995880127,2|2,0:0|3:2,0:0:0:0:
1,148,25657,1,10,0:1:0:0:
1,148,25874,1,2,3:2:0:0:
25,239,26091,6,0,P|91:239|144:199,1,134.999995880127,2|8,3:2|0:1,0:0:0:0:
114,288,26743,2,0,P|166:327|233:327,1,134.999995880127,2|0,0:0|3:0,0:0:0:0:
321,364,27396,2,0,P|327:331|322:298,1,67.4999979400635,8|0,0:1|3:0,0:0:0:0:
253,234,27830,6,0,L|262:167,1,67.4999979400635,2|0,3:2|3:0,0:0:0:0:
199,95,28265,1,8,0:1:0:0:
252,17,28483,1,2,0:0:0:0:
252,17,28591,2,0,P|292:45|342:46,1,101.249996910095,0|2,3:0|0:0,0:0:0:0:
429,7,29135,1,8,0:1:0:0:
472,90,29352,1,0,3:0:0:0:
472,90,29461,1,0,3:0:0:0:
471,90,29570,6,0,B|452:122|452:122|452:149|462:219,1,134.999995880127,2|10,3:2|0:1,0:0:0:0:
512,301,30222,2,0,P|478:309|383:341,1,134.999995880127,2|2,0:0|3:2,0:0:0:0:
298,384,30874,2,0,P|285:336|280:318,1,67.4999979400635,10|2,0:1|3:2,0:0:0:0:
194,359,31309,6,0,P|163:345|129:346,2,67.4999979400635,2|2|10,3:2|3:2|0:1,0:0:0:0:
280,318,31961,2,0,P|287:265|302:178,1,134.999995880127,2|2,0:0|3:2,0:0:0:0:
352,105,32613,1,10,0:1:0:0:
352,105,32830,1,2,3:2:0:0:
303,24,33048,6,0,P|250:63|185:55,1,134.999995880127,2|8,3:2|0:1,0:0:0:0:
93,25,33700,2,0,P|107:90|118:157,1,134.999995880127,2|0,0:0|3:0,0:0:0:0:
128,252,34352,2,0,P|94:252|64:237,1,67.4999979400635,8|0,0:1|3:0,0:0:0:0:
118,157,34787,5,0,3:0:0:0:
205,194,35004,1,0,3:0:0:0:
290,152,35222,1,10,0:1:0:0:
336,236,35439,1,2,0:0:0:0:
336,236,35548,2,0,L|313:334,1,101.249996910095,0|2,3:0|0:0,0:0:0:0:
337,374,35983,1,8,0:1:0:0:
336,373,36092,2,0,P|368:385|400:377,1,67.4999979400635,2|2,3:2|0:0,0:0:0:0:
488,344,36526,6,0,L|475:277,1,67.4999979400635,2|2,3:2|0:0,0:0:0:0:
417,202,36961,2,0,L|429:135,1,67.4999979400635,10|10,0:1|0:1,0:0:0:0:
392,48,37396,2,0,P|338:85|274:69,1,134.999995880127,2|10,0:0|0:1,0:0:0:0:
208,1,38048,1,0,3:0:0:0:
134,59,38265,6,0,P|100:62|69:50,2,67.4999979400635,2|0|10,3:2|3:0|0:1,0:0:0:0:
186,138,38917,2,0,L|161:275,1,134.999995880127,2|0,0:0|3:0,0:0:0:0:
204,355,39570,1,8,0:1:0:0:
11,361,40004,6,0,P|36:339|69:330,1,67.4999979400635,2|2,3:2|0:0,0:0:0:0:
102,241,40439,2,0,P|134:249|160:269,1,67.4999979400635,10|2,0:1|0:0,0:0:0:0:
253,244,40874,2,0,P|265:275|264:308,2,67.4999979400635,2|2|10,0:0|3:2|0:1,0:0:0:0:
194,169,41526,1,0,3:0:0:0:
226,80,41743,6,0,P|255:95|289:97,1,67.4999979400635,2|0,3:2|3:0,0:0:0:0:
342,18,42178,1,10,0:1:0:0:
418,73,42396,2,0,L|393:205,1,134.999995880127,2|0,0:0|3:0,0:0:0:0:
324,270,43048,2,0,P|365:298|414:297,1,101.249996910095,2|0,0:0|3:0,0:0:0:0:
428,321,43483,6,0,B|381:328|344:354|344:354|326:348|300:353,1,134.999995880127,2|10,3:2|0:1,0:0:0:0:
212,383,44135,1,2,0:0:0:0:
212,383,44243,2,0,L|187:284,1,101.249996910095,8|0,0:1|3:0,0:0:0:0:
95,270,44787,1,8,0:1:0:0:
95,270,45004,1,0,3:0:0:0:
104,176,45222,6,0,P|89:146|70:119,2,67.4999979400635,0|0|8,3:0|3:0|0:1,0:0:0:0:
197,191,45874,2,0,B|229:158|273:147|273:147|286:169|285:196,1,134.999995880127,2|0,0:0|3:0,0:0:0:0:
321,278,46526,2,0,P|351:264|384:256,1,67.4999979400635,8|2,0:1|3:2,0:0:0:0:
477,250,46961,6,0,P|486:178|497:116,1,134.999995880127,2|8,3:2|0:1,0:0:0:0:
481,12,47613,2,0,P|432:55|368:45,1,134.999995880127,0|0,3:0|3:0,0:0:0:0:
274,26,48265,2,0,P|273:59|286:90,1,67.4999979400635,8|0,0:1|3:0,0:0:0:0:
329,195,48700,6,0,B|300:198|274:179|274:179|252:203|216:207,2,123.75000377655,14|10|10,3:2|3:2|3:2,0:0:0:0:
312,315,49570,2,0,P|272:320|238:298,1,82.5000025177003,10|2,3:2|3:2,0:0:0:0:
147,344,50004,2,0,P|155:362|162:382,2,41.2500012588501,10|10|10,0:0|0:0|0:0,0:0:0:0:
52,331,50439,6,0,P|49:293|63:259,1,75,6|2,3:2|0:0,0:0:0:0:
149,216,50874,2,0,P|144:179|124:147,1,75,10|2,0:0|3:2,0:0:0:0:
42,99,51308,1,2,0:0:0:0:
42,99,51526,1,2,3:2:0:0:
71,8,51743,1,10,0:0:0:0:
71,8,51961,1,2,3:2:0:0:
153,57,52178,6,0,P|187:42|224:33,1,75,2|2,0:0|3:2,0:0:0:0:
255,175,52613,1,10,0:0:0:0:
255,175,52830,2,0,P|184:191|125:148,1,150,2|2,0:0|3:2,0:0:0:0:
153,57,53482,1,10,0:0:0:0:
153,57,53700,1,2,3:2:0:0:
246,78,53917,6,0,B|305:73|344:40|344:40|380:64,1,150,2|8,3:2|0:0,0:0:0:0:
455,3,54570,2,0,P|475:73|442:138,1,150,0|0,3:0|3:0,0:0:0:0:
348,158,55222,1,8,0:0:0:0:
348,158,55439,1,0,3:0:0:0:
377,250,55657,6,0,P|409:231|446:224,1,75,0|2,3:0|3:2,0:0:0:0:
504,300,56091,1,8,0:0:0:0:
457,384,56309,2,0,P|386:358|315:335,1,150,2|2,0:0|3:2,0:0:0:0:
232,384,56961,1,2,0:0:0:0:
146,341,57178,1,0,3:0:0:0:
146,341,57287,1,0,3:0:0:0:
146,341,57396,6,0,P|128:309|125:272,2,75,2|2|10,3:2|0:0|0:0,0:0:0:0:
221,282,58048,1,2,3:2:0:0:
177,193,58265,2,0,P|142:178|105:178,1,75,2|2,0:0|3:2,0:0:0:0:
125,272,58700,2,0,P|87:276|55:295,1,75,10|2,0:0|3:2,0:0:0:0:
106,178,59135,6,0,P|93:142|79:108,1,75,2|2,3:2|3:2,0:0:0:0:
129,26,59570,1,10,0:0:0:0:
129,26,59787,2,0,P|171:84|244:88,1,150,2|2,0:0|3:2,0:0:0:0:
329,133,60439,2,0,P|363:117|399:107,1,75,10|2,0:0|3:2,0:0:0:0:
468,173,60874,6,0,P|493:104|463:33,1,150,2|8,3:2|0:0,0:0:0:0:
399,107,61526,2,0,B|391:146|411:193|411:193|399:212|403:253,1,150,0|0,3:0|3:0,0:0:0:0:
491,293,62178,1,10,0:0:0:0:
491,293,62396,1,2,3:2:0:0:
433,368,62613,6,0,P|397:354|361:344,1,75,2|0,3:2|3:0,0:0:0:0:
304,267,63048,1,8,0:0:0:0:
243,341,63265,1,2,3:2:0:0:
243,341,63374,2,0,P|188:345|150:307,1,112.5,0|2,3:0|3:2,0:0:0:0:
54,316,63917,1,10,0:0:0:0:
94,229,64135,1,0,3:0:0:0:
94,229,64243,1,0,3:0:0:0:
94,228,64352,6,0,P|99:191|112:155,1,75,2|2,3:2|0:0,0:0:0:0:
27,108,64787,2,0,P|21:71|8:35,1,75,10|2,0:0|3:2,0:0:0:0:
112,60,65222,2,0,P|164:9|236:15,1,150,2|10,0:0|0:0,0:0:0:0:
275,103,65874,1,0,3:0:0:0:
220,182,66091,6,0,L|148:160,2,75,2|0|10,3:2|3:0|0:0,0:0:0:0:
275,103,66743,2,0,P|323:156|394:145,1,150,2|0,0:0|3:0,0:0:0:0:
447,63,67396,1,8,0:0:0:0:
447,63,67613,1,2,3:2:0:0:
512,133,67830,6,0,P|503:166|496:205,1,75,2|2,3:2|0:0,0:0:0:0:
491,304,68265,1,10,0:0:0:0:
491,304,68483,2,0,B|461:302|440:286|440:286|389:316|348:311,1,150,2|2,0:0|3:2,0:0:0:0:
254,306,69135,2,0,P|258:320|271:379,1,75,10|0,0:0|3:0,0:0:0:0:
305,224,69570,6,0,P|248:268|178:250,1,150,2|10,3:2|0:0,0:0:0:0:
137,338,70222,1,2,3:2:0:0:
137,338,70330,1,8,0:0:0:0:
137,338,70439,2,0,P|99:338|67:356,1,75,2|0,3:2|0:0,0:0:0:0:
63,254,70874,2,0,L|39:143,1,112.5,10|0,0:0|3:0,0:0:0:0:
7,109,71309,6,0,P|77:124|127:72,1,150,2|8,3:2|0:0,0:0:0:0:
210,122,71961,2,0,P|260:173|330:158,1,150,2|0,0:0|3:0,0:0:0:0:
389,81,72613,1,8,0:0:0:0:
389,81,72830,1,2,3:2:0:0:
330,158,73048,6,0,P|337:182|349:230,1,75,2|0,3:2|3:0,0:0:0:0:
313,320,73483,1,8,0:0:0:0:
313,320,73700,2,0,B|343:316|374:332|374:332|423:325|457:307,1,150,2|0,0:0|3:0,0:0:0:0:
503,223,74352,1,8,0:0:0:0:
432,158,74570,1,2,3:2:0:0:
432,158,74678,1,0,3:0:0:0:
432,158,74787,6,0,P|440:83|453:9,1,150,2|8,3:2|0:0,0:0:0:0:
355,64,75439,1,0,3:0:0:0:
355,64,75657,2,0,P|282:61|236:5,1,150,2|8,3:2|0:0,0:0:0:0:
143,30,76309,1,0,3:0:0:0:
153,134,76526,6,0,B|171:125|185:114|185:114|228:130|269:112,2,123.75000377655,14|10|10,3:2|3:2|3:2,0:0:0:0:
50,93,77396,2,0,B|47:111|59:131|59:131|54:144|58:154|61:173,1,82.5000025177003,10|2,3:2|0:0,0:0:0:0:
124,245,77830,1,2,3:2:0:0:
124,245,78048,1,0,3:0:0:0:
72,324,78265,6,0,P|37:310|0:305,1,75,6|0,3:2|0:0,0:0:0:0:
124,245,78700,1,10,0:0:0:0:
190,316,78917,2,0,P|244:363|314:347,1,150,2|2,3:2|3:2,0:0:0:0:
314,347,79461,1,0,3:0:0:0:
314,347,79570,1,8,0:0:0:0:
400,296,79787,6,0,P|408:332|414:369,1,75,2|0,3:2|3:0,0:0:0:0:
320,239,80222,2,0,P|326:199|334:165,1,75,2|10,3:2|0:0,0:0:0:0:
401,76,80657,2,0,P|341:117|272:95,1,150,2|0,3:2|3:0,0:0:0:0:
246,0,81309,1,8,0:0:0:0:
157,40,81526,1,0,3:0:0:0:
157,40,81635,1,0,3:0:0:0:
157,40,81743,6,0,P|163:70|171:113,1,75,2|2,3:2|3:2,0:0:0:0:
97,177,82178,1,10,0:0:0:0:
136,266,82396,2,0,B|184:244|227:233|227:233|244:249|273:258,1,150,2|2,3:2|3:2,0:0:0:0:
364,223,83048,1,8,0:0:0:0:
435,288,83265,1,2,3:2:0:0:
435,288,83700,5,10,3:2:0:0:
354,232,83917,1,10,3:2:0:0:
379,137,84135,1,10,3:2:0:0:
477,131,84352,2,0,P|490:170|499:210,1,82.5000025177003,10|10,3:2|3:2,0:0:0:0:
435,288,84787,2,0,P|421:327|412:367,1,82.5000025177003,10|10,3:2|3:2,0:0:0:0:
317,341,85222,6,0,P|285:320|250:306,2,75,14|2|10,3:2|3:2|0:0,0:0:0:0:
278,212,85874,2,0,P|230:267|157:272,1,150,2|2,3:2|3:2,0:0:0:0:
157,272,86417,1,0,3:0:0:0:
157,272,86526,1,8,0:0:0:0:
105,354,86743,6,0,P|71:337|35:325,1,75,2|0,3:2|3:0,0:0:0:0:
22,228,87178,2,0,P|55:211|91:199,1,75,2|8,3:2|0:0,0:0:0:0:
157,272,87613,2,0,B|149:203|145:192|145:192|148:183|138:122,1,150,2|0,3:2|3:0,0:0:0:0:
200,48,88265,1,8,0:0:0:0:
259,125,88483,1,2,3:2:0:0:
259,125,88591,1,0,3:0:0:0:
259,125,88700,6,0,P|299:108|329:99,2,75,2|2|10,3:2|0:0|0:0,0:0:0:0:
205,208,89352,2,0,B|217:224|238:241|238:241|291:216|338:226,1,150,2|2,3:2|3:2,0:0:0:0:
373,317,90004,1,8,0:0:0:0:
448,250,90222,6,0,B|461:216|468:181|468:181|454:198|447:219,1,112.5,2|0,3:2|3:0,0:0:0:0:
427,259,90657,2,0,B|421:248|422:235|422:235|398:97,1,165.000005035401,2|0,3:2|0:0,0:0:0:0:
398,97,91526,5,10,3:2:0:0:
494,107,91743,1,10,3:2:0:0:
510,10,91961,1,10,3:2:0:0:
398,97,92178,6,0,P|362:87|336:60,2,75,6|2|8,3:2|0:0|0:0,0:0:0:0:
421,193,92830,2,0,P|349:211|276:234,1,150,2|2,3:2|3:2,0:0:0:0:
276,234,93374,1,0,3:0:0:0:
276,234,93483,1,8,0:0:0:0:
194,288,93700,6,0,P|180:253|180:215,1,75,2|0,3:2|3:0,0:0:0:0:
245,143,94135,2,0,P|259:108|259:70,1,75,2|10,3:2|0:0,0:0:0:0:
191,1,94570,2,0,P|131:41|64:15,1,150,2|0,3:2|3:0,0:0:0:0:
1,90,95222,1,8,0:0:0:0:
60,166,95439,1,0,3:0:0:0:
60,166,95548,1,0,3:0:0:0:
60,166,95657,6,0,P|75:200|82:236,1,75,2|2,3:2|3:2,0:0:0:0:
0,288,96091,1,10,0:0:0:0:
37,378,96309,2,0,B|60:359|90:354|90:354|128:376|176:380,1,150,2|2,3:2|3:2,0:0:0:0:
219,292,96961,1,8,0:0:0:0:
296,350,97178,5,2,3:2:0:0:
300,354,97613,1,10,3:2:0:0:
300,354,97830,2,0,P|337:336|377:327,1,82.5000025177003,10|10,3:2|3:2,0:0:0:0:
459,380,98265,1,10,3:2:0:0:
502,292,98483,1,10,3:2:0:0:
437,220,98700,1,10,3:2:0:0:
489,138,98917,1,10,3:2:0:0:
489,138,99026,1,0,3:0:0:0:
489,138,99135,6,0,P|497:94|507:63,1,75,14|0,3:2|3:0,0:0:0:0:
431,2,99570,1,10,0:0:0:0:
384,87,99787,2,0,P|313:99|270:42,1,150,2|2,3:2|3:2,0:0:0:0:
270,42,100330,1,0,3:0:0:0:
270,42,100439,1,8,0:0:0:0:
180,82,100657,6,0,B|132:34|90:26|90:26|93:50|115:68,1,150,2|2,3:2|0:0,0:0:0:0:
41,133,101309,1,8,0:0:0:0:
80,221,101526,2,0,P|120:205|150:195,1,75,2|0,3:2|0:0,0:0:0:0:
238,152,101961,1,0,3:0:0:0:
238,152,102070,1,0,3:0:0:0:
238,152,102178,2,0,P|247:206|225:257,1,112.5,10|0,0:0|3:0,0:0:0:0:
184,285,102613,6,0,L|201:359,2,75,2|2|10,3:2|3:2|0:0,0:0:0:0:
150,194,103265,2,0,P|78:211|18:171,1,150,2|2,3:2|3:2,0:0:0:0:
24,73,103917,1,8,0:0:0:0:
129,98,104135,6,0,B|134:60|120:30|120:30|105:47|104:69,1,112.5,2|0,3:2|3:0,0:0:0:0:
97,125,104570,2,0,B|162:117|200:87|200:87|211:106|240:121,1,165.000005035401,6|0,3:2|0:0,0:0:0:0:
240,121,105439,6,0,L|230:196,1,75,10|10,3:2|3:2,0:0:0:0:
338,121,105874,2,0,L|348:195,1,75,10|10,3:2|3:2,0:0:0:0:
