osu file format v14

[General]
AudioFilename: audio.mp3
AudioLeadIn: 0
PreviewTime: 141613
Countdown: 1
SampleSet: None
StackLeniency: 0.7
Mode: 1
LetterboxInBreaks: 0
WidescreenStoryboard: 1

[Editor]
Bookmarks: 32832
DistanceSpacing: 0.8
BeatDivisor: 6
GridSize: 32
TimelineZoom: 3.499999

[Metadata]
Title:The Black Hammer
TitleUnicode:The Black Hammer
Artist:Brymir
ArtistUnicode:Brymir
Creator:DarkVortex
Version:Inner Oni
Source:
Tags:slayer of gods symphonic death metal ranka kustannus
BeatmapID:1888371
BeatmapSetID:904696

[Difficulty]
HPDrainRate:5
CircleSize:3.6
OverallDifficulty:6
ApproachRate:5
SliderMultiplier:2.1
SliderTickRate:1

[Events]
//Background and Video events
0,0,"681457.jpg",0,0
//Break Periods
//Storyboard Layer 0 (Background)
//Storyboard Layer 1 (Fail)
//Storyboard Layer 2 (Pass)
//Storyboard Layer 3 (Foreground)
//Storyboard Sound Samples

[TimingPoints]
326,387.096774193548,7,1,0,25,1,0
326,-333.333333333333,7,1,0,25,0,0
1100,-333.333333333333,7,1,0,10,0,0
1487,-333.333333333333,7,1,0,25,0,0
3035,-333.333333333333,7,1,0,30,0,0
5745,-333.333333333333,7,1,0,10,0,0
6132,-333.333333333333,7,1,0,25,0,0
6906,-333.333333333333,7,1,0,10,0,0
7293,-333.333333333333,7,1,0,25,0,0
8842,-333.333333333333,7,1,0,15,0,0
11164,-250,7,1,0,25,0,0
11938,-250,7,1,0,10,0,0
12325,-250,7,1,0,25,0,0
13487,-250,7,1,0,10,0,0
14261,-250,7,1,0,25,0,0
15035,-250,7,1,0,10,0,0
16971,-250,7,1,0,25,0,0
17745,-250,7,1,0,10,0,0
18132,-250,7,1,0,25,0,0
19293,-200,7,1,0,40,0,0
20067,-181.818181818182,7,1,0,15,0,0
20455,-166.666666666667,7,1,0,20,0,0
20842,-142.857142857143,7,1,0,25,0,0
21229,-133.333333333333,7,1,0,30,0,0
22003,-125,7,1,0,60,0,0
23164,-200,7,1,0,60,0,0
24713,-200,7,1,0,60,0,0
25487,-125,7,1,0,60,0,0
27422,-83.3333333333333,7,1,0,60,0,0
28196,-125,7,1,0,60,0,0
28971,-200,7,1,0,60,0,0
30132,-125,7,1,0,60,0,0
32842,-100,7,1,0,70,0,0
55551,-100,7,1,0,30,0,0
56067,387.096774193548,7,1,0,60,1,1
56067,-100,7,1,0,60,0,1
66518,-263.157894736842,7,1,0,30,0,1
66905,-100,7,1,0,60,0,1
77357,387.096774193548,7,1,0,100,1,0
99808,387.096774193548,15,1,0,100,1,0
105614,387.096774193548,13,1,0,100,1,0
110646,387.096774193548,15,1,0,100,1,0
116452,387.096774193548,13,1,0,100,1,0
121484,387.096774193548,8,1,0,100,1,0
124580,387.096774193548,6,1,0,100,1,0
131549,387.096774193548,8,1,0,100,1,0
134645,387.096774193548,6,1,0,100,1,0
141613,387.096774193548,8,1,0,100,1,0
144709,387.096774193548,6,1,0,100,1,0
151677,387.096774193548,8,1,0,100,1,0
154773,387.096774193548,6,1,0,100,1,0
161740,387.096774193548,8,1,0,100,1,1
164836,387.096774193548,6,1,0,100,1,1
171803,387.096774193548,8,1,0,100,1,1
174899,387.096774193548,6,1,0,100,1,1
181866,387.096774193548,7,1,0,100,1,0

[Colours]
Combo1 : 255,96,96
Combo2 : 255,80,0
Combo3 : 250,225,5
Combo4 : 240,0,0

[HitObjects]
256,192,326,5,8,0:0:0:0:
256,192,1100,1,0,0:0:0:0:
256,192,1229,1,0,0:0:0:0:
256,192,1358,1,0,0:0:0:0:
256,192,1487,1,8,0:0:0:0:
256,192,2906,1,0,0:0:0:0:
256,192,3035,1,0,0:0:0:0:
256,192,5745,1,0,0:0:0:0:
256,192,6132,1,8,0:0:0:0:
256,192,6906,1,0,0:0:0:0:
256,192,7035,1,0,0:0:0:0:
256,192,7164,1,0,0:0:0:0:
256,192,7293,1,8,0:0:0:0:
256,192,8842,1,0,0:0:0:0:
256,192,11164,1,12,0:0:0:0:
256,192,11938,1,0,0:0:0:0:
256,192,12067,1,0,0:0:0:0:
256,192,12196,1,0,0:0:0:0:
256,192,12325,1,8,0:0:0:0:
256,192,13487,1,8,0:0:0:0:
256,192,13616,1,8,0:0:0:0:
256,192,13745,1,0,0:0:0:0:
256,192,13874,1,8,0:0:0:0:
256,192,14261,1,8,0:0:0:0:
256,192,15035,1,0,0:0:0:0:
256,192,15809,1,0,0:0:0:0:
256,192,16455,1,0,0:0:0:0:
256,192,16584,1,0,0:0:0:0:
256,192,16971,1,8,0:0:0:0:
256,192,17745,1,0,0:0:0:0:
256,192,17874,1,0,0:0:0:0:
256,192,18003,1,0,0:0:0:0:
256,192,18132,1,8,0:0:0:0:
256,192,19293,1,8,0:0:0:0:
256,192,19422,1,8,0:0:0:0:
256,192,19551,1,0,0:0:0:0:
256,192,19680,1,8,0:0:0:0:
256,192,20067,1,8,0:0:0:0:
256,192,20196,1,0,0:0:0:0:
256,192,20325,1,0,0:0:0:0:
256,192,20455,1,8,0:0:0:0:
256,192,20842,1,8,0:0:0:0:
256,192,20971,1,0,0:0:0:0:
256,192,21100,1,0,0:0:0:0:
256,192,21229,1,8,0:0:0:0:
256,192,21358,1,0,0:0:0:0:
256,192,21487,1,8,0:0:0:0:
256,192,21616,1,8,0:0:0:0:
256,192,22003,1,4,0:0:0:0:
256,192,22390,1,8,0:0:0:0:
256,192,22519,1,8,0:0:0:0:
256,192,22648,1,8,0:0:0:0:
256,192,22777,1,8,0:0:0:0:
256,192,23164,1,0,0:0:0:0:
256,192,23551,1,8,0:0:0:0:
256,192,23680,1,8,0:0:0:0:
256,192,23809,1,8,0:0:0:0:
256,192,23938,1,0,0:0:0:0:
256,192,24325,1,0,0:0:0:0:
256,192,24455,1,0,0:0:0:0:
256,192,24584,1,0,0:0:0:0:
256,192,24713,1,8,0:0:0:0:
256,192,25100,1,0,0:0:0:0:
256,192,25487,1,0,0:0:0:0:
256,192,25616,1,0,0:0:0:0:
256,192,25745,1,0,0:0:0:0:
256,192,25874,1,8,0:0:0:0:
256,192,26261,1,0,0:0:0:0:
256,192,26390,1,0,0:0:0:0:
256,192,26519,1,0,0:0:0:0:
256,192,26648,1,8,0:0:0:0:
256,192,26777,1,8,0:0:0:0:
256,192,26906,1,0,0:0:0:0:
256,192,27035,1,8,0:0:0:0:
256,192,27164,1,8,0:0:0:0:
256,192,27293,1,0,0:0:0:0:
256,192,27422,1,8,0:0:0:0:
256,192,27487,1,8,0:0:0:0:
256,192,27551,1,8,0:0:0:0:
256,192,27616,1,8,0:0:0:0:
256,192,27680,1,8,0:0:0:0:
256,192,27745,1,8,0:0:0:0:
256,192,27809,1,0,0:0:0:0:
256,192,28196,1,8,0:0:0:0:
256,192,28325,1,8,0:0:0:0:
256,192,28455,1,0,0:0:0:0:
256,192,28584,1,8,0:0:0:0:
256,192,28971,1,0,0:0:0:0:
256,192,29358,1,8,0:0:0:0:
256,192,29487,1,8,0:0:0:0:
256,192,29616,1,8,0:0:0:0:
256,192,29745,1,0,0:0:0:0:
256,192,30132,1,0,0:0:0:0:
256,192,30261,1,0,0:0:0:0:
256,192,30390,1,0,0:0:0:0:
256,192,30519,1,8,0:0:0:0:
256,192,30906,1,8,0:0:0:0:
256,192,31035,1,8,0:0:0:0:
256,192,31164,1,8,0:0:0:0:
256,192,31293,1,8,0:0:0:0:
256,192,31680,1,8,0:0:0:0:
256,192,31809,1,8,0:0:0:0:
256,192,31938,1,8,0:0:0:0:
256,192,32067,1,8,0:0:0:0:
256,192,32196,1,8,0:0:0:0:
256,192,32325,1,8,0:0:0:0:
256,192,32455,1,8,0:0:0:0:
256,192,32842,1,12,0:0:0:0:
256,192,32971,1,0,0:0:0:0:
256,192,33100,1,0,0:0:0:0:
256,192,33229,1,8,0:0:0:0:
256,192,33293,1,0,0:0:0:0:
256,192,33358,1,8,0:0:0:0:
256,192,33422,1,0,0:0:0:0:
256,192,33487,1,8,0:0:0:0:
256,192,33551,1,0,0:0:0:0:
256,192,33616,1,8,0:0:0:0:
256,192,33745,1,0,0:0:0:0:
256,192,33874,1,0,0:0:0:0:
256,192,34003,1,0,0:0:0:0:
256,192,34132,1,0,0:0:0:0:
256,192,34261,1,0,0:0:0:0:
256,192,34390,1,8,0:0:0:0:
256,192,34455,1,0,0:0:0:0:
256,192,34519,1,8,0:0:0:0:
256,192,34584,1,8,0:0:0:0:
256,192,34648,1,0,0:0:0:0:
256,192,34777,1,8,0:0:0:0:
256,192,34906,1,0,0:0:0:0:
256,192,34971,1,0,0:0:0:0:
256,192,35035,1,0,0:0:0:0:
256,192,35164,1,8,0:0:0:0:
256,192,35229,1,8,0:0:0:0:
256,192,35293,1,0,0:0:0:0:
256,192,35358,1,0,0:0:0:0:
256,192,35422,1,8,0:0:0:0:
256,192,35551,1,8,0:0:0:0:
256,192,35680,1,0,0:0:0:0:
256,192,35809,1,0,0:0:0:0:
256,192,35938,1,8,0:0:0:0:
256,192,36067,1,0,0:0:0:0:
256,192,36196,1,0,0:0:0:0:
256,192,36261,1,0,0:0:0:0:
256,192,36325,1,0,0:0:0:0:
256,192,36455,1,0,0:0:0:0:
256,192,36584,1,8,0:0:0:0:
256,192,36713,1,0,0:0:0:0:
256,192,36842,1,0,0:0:0:0:
256,192,36971,1,0,0:0:0:0:
256,192,37035,1,0,0:0:0:0:
256,192,37100,1,0,0:0:0:0:
256,192,37229,1,0,0:0:0:0:
256,192,37358,1,8,0:0:0:0:
256,192,37487,1,8,0:0:0:0:
256,192,37551,1,8,0:0:0:0:
256,192,37616,1,0,0:0:0:0:
256,192,37745,1,0,0:0:0:0:
256,192,37874,1,8,0:0:0:0:
256,192,37938,1,0,0:0:0:0:
256,192,38003,1,0,0:0:0:0:
256,192,38132,1,8,0:0:0:0:
256,192,38261,1,4,0:0:0:0:
256,192,38519,1,0,0:0:0:0:
256,192,38648,1,8,0:0:0:0:
256,192,38713,1,0,0:0:0:0:
256,192,38777,1,8,0:0:0:0:
256,192,38842,1,0,0:0:0:0:
256,192,38906,1,8,0:0:0:0:
256,192,38971,1,0,0:0:0:0:
256,192,39035,1,8,0:0:0:0:
256,192,39164,1,0,0:0:0:0:
256,192,39293,1,0,0:0:0:0:
256,192,39422,1,8,0:0:0:0:
256,192,39551,1,0,0:0:0:0:
256,192,39680,1,0,0:0:0:0:
256,192,39809,1,8,0:0:0:0:
256,192,39874,1,0,0:0:0:0:
256,192,39938,1,8,0:0:0:0:
256,192,40003,1,8,0:0:0:0:
256,192,40067,1,0,0:0:0:0:
256,192,40132,1,0,0:0:0:0:
256,192,40196,1,8,0:0:0:0:
256,192,40261,1,8,0:0:0:0:
256,192,40325,1,0,0:0:0:0:
256,192,40390,1,8,0:0:0:0:
256,192,40455,1,0,0:0:0:0:
256,192,40519,1,0,0:0:0:0:
256,192,40584,1,8,0:0:0:0:
256,192,40648,1,0,0:0:0:0:
256,192,40713,1,8,0:0:0:0:
256,192,40777,1,8,0:0:0:0:
256,192,40842,1,0,0:0:0:0:
256,192,40906,1,0,0:0:0:0:
256,192,40971,1,8,0:0:0:0:
256,192,41100,1,0,0:0:0:0:
256,192,41164,1,0,0:0:0:0:
256,192,41229,1,0,0:0:0:0:
256,192,41358,1,8,0:0:0:0:
256,192,41487,1,0,0:0:0:0:
256,192,41616,1,0,0:0:0:0:
256,192,41745,1,0,0:0:0:0:
256,192,41809,1,0,0:0:0:0:
256,192,41874,1,0,0:0:0:0:
256,192,42003,1,8,0:0:0:0:
256,192,42132,1,0,0:0:0:0:
256,192,42261,1,0,0:0:0:0:
256,192,42390,1,0,0:0:0:0:
256,192,42519,1,0,0:0:0:0:
256,192,42584,1,0,0:0:0:0:
256,192,42648,1,0,0:0:0:0:
256,192,42777,1,8,0:0:0:0:
256,192,42906,1,0,0:0:0:0:
256,192,43035,1,8,0:0:0:0:
256,192,43100,1,0,0:0:0:0:
256,192,43164,1,8,0:0:0:0:
256,192,43293,1,8,0:0:0:0:
256,192,43358,1,8,0:0:0:0:
256,192,43422,1,0,0:0:0:0:
256,192,43487,1,0,0:0:0:0:
256,192,43551,1,8,0:0:0:0:
256,192,43680,1,4,0:0:0:0:
256,192,43938,1,0,0:0:0:0:
256,192,44067,1,8,0:0:0:0:
256,192,44132,1,0,0:0:0:0:
256,192,44196,1,8,0:0:0:0:
256,192,44261,1,0,0:0:0:0:
256,192,44325,1,8,0:0:0:0:
256,192,44390,1,0,0:0:0:0:
256,192,44455,1,8,0:0:0:0:
256,192,44584,1,0,0:0:0:0:
256,192,44713,1,0,0:0:0:0:
256,192,44777,1,0,0:0:0:0:
256,192,44842,1,8,0:0:0:0:
256,192,44971,1,0,0:0:0:0:
256,192,45100,1,0,0:0:0:0:
256,192,45229,1,8,0:0:0:0:
256,192,45293,1,0,0:0:0:0:
256,192,45358,1,8,0:0:0:0:
256,192,45422,1,8,0:0:0:0:
256,192,45487,1,0,0:0:0:0:
256,192,45616,1,8,0:0:0:0:
256,192,45745,1,0,0:0:0:0:
256,192,45874,1,0,0:0:0:0:
256,192,46003,1,8,0:0:0:0:
256,192,46067,1,0,0:0:0:0:
256,192,46132,1,8,0:0:0:0:
256,192,46261,1,0,0:0:0:0:
256,192,46325,1,0,0:0:0:0:
256,192,46390,1,8,0:0:0:0:
256,192,46519,1,0,0:0:0:0:
256,192,46648,1,0,0:0:0:0:
256,192,46777,1,0,0:0:0:0:
256,192,46842,1,0,0:0:0:0:
256,192,46906,1,0,0:0:0:0:
256,192,47035,1,0,0:0:0:0:
256,192,47164,1,8,0:0:0:0:
256,192,47293,1,0,0:0:0:0:
256,192,47358,1,0,0:0:0:0:
256,192,47422,1,0,0:0:0:0:
256,192,47551,1,8,0:0:0:0:
256,192,47680,1,0,0:0:0:0:
256,192,47809,1,0,0:0:0:0:
256,192,47938,1,8,0:0:0:0:
256,192,48067,1,0,0:0:0:0:
256,192,48132,1,8,0:0:0:0:
256,192,48196,1,0,0:0:0:0:
256,192,48325,1,8,0:0:0:0:
256,192,48455,1,0,0:0:0:0:
256,192,48584,1,0,0:0:0:0:
256,192,48713,1,8,0:0:0:0:
256,192,48842,1,8,0:0:0:0:
256,192,48906,1,8,0:0:0:0:
256,192,48971,1,0,0:0:0:0:
256,192,49100,1,12,0:0:0:0:
256,192,49358,1,0,0:0:0:0:
256,192,49487,1,8,0:0:0:0:
256,192,49551,1,0,0:0:0:0:
256,192,49616,1,8,0:0:0:0:
256,192,49680,1,0,0:0:0:0:
256,192,49745,1,8,0:0:0:0:
256,192,49809,1,0,0:0:0:0:
256,192,49874,1,8,0:0:0:0:
256,192,52584,1,8,0:0:0:0:
256,192,52713,1,8,0:0:0:0:
256,192,52842,1,8,0:0:0:0:
256,192,52971,1,8,0:0:0:0:
256,192,53100,1,0,0:0:0:0:
256,192,53229,1,0,0:0:0:0:
256,192,53358,1,8,0:0:0:0:
256,192,53487,1,8,0:0:0:0:
256,192,53616,1,8,0:0:0:0:
256,192,53745,1,8,0:0:0:0:
256,192,53874,1,0,0:0:0:0:
256,192,54003,1,0,0:0:0:0:
256,192,54132,1,8,0:0:0:0:
256,192,54261,1,8,0:0:0:0:
256,192,54390,1,8,0:0:0:0:
256,192,54519,1,8,0:0:0:0:
256,192,54584,12,0,55487,0:0:0:0:
256,192,55551,5,0,0:0:0:0:
256,192,55616,1,0,0:0:0:0:
256,192,55680,1,0,0:0:0:0:
256,192,56067,1,12,0:0:0:0:
256,192,56196,1,12,0:0:0:0:
256,192,56325,1,12,0:0:0:0:
256,192,56454,1,12,0:0:0:0:
256,192,56583,1,0,0:0:0:0:
256,192,56712,1,0,0:0:0:0:
256,192,56841,1,0,0:0:0:0:
256,192,56970,1,0,0:0:0:0:
256,192,57099,1,0,0:0:0:0:
256,192,57228,1,8,0:0:0:0:
256,192,57292,1,8,0:0:0:0:
256,192,57357,1,0,0:0:0:0:
256,192,57421,1,8,0:0:0:0:
256,192,57486,1,0,0:0:0:0:
256,192,57550,1,0,0:0:0:0:
256,192,57615,1,0,0:0:0:0:
256,192,57744,1,0,0:0:0:0:
256,192,57873,1,0,0:0:0:0:
256,192,57937,1,0,0:0:0:0:
256,192,58002,1,8,0:0:0:0:
256,192,58067,1,0,0:0:0:0:
256,192,58131,1,8,0:0:0:0:
256,192,58196,1,8,0:0:0:0:
256,192,58260,1,0,0:0:0:0:
256,192,58325,1,0,0:0:0:0:
256,192,58389,1,8,0:0:0:0:
256,192,58454,1,8,0:0:0:0:
256,192,58518,1,8,0:0:0:0:
256,192,58583,1,8,0:0:0:0:
256,192,58647,1,8,0:0:0:0:
256,192,58712,1,8,0:0:0:0:
256,192,58776,1,0,0:0:0:0:
256,192,58905,1,0,0:0:0:0:
256,192,59034,1,0,0:0:0:0:
256,192,59163,1,8,0:0:0:0:
256,192,59292,1,0,0:0:0:0:
256,192,59357,1,0,0:0:0:0:
256,192,59421,1,0,0:0:0:0:
256,192,59550,1,8,0:0:0:0:
256,192,59679,1,0,0:0:0:0:
256,192,59744,1,0,0:0:0:0:
256,192,59808,1,0,0:0:0:0:
256,192,59937,1,8,0:0:0:0:
256,192,60067,1,8,0:0:0:0:
256,192,60131,1,0,0:0:0:0:
256,192,60196,1,0,0:0:0:0:
256,192,60325,1,8,0:0:0:0:
256,192,60454,1,8,0:0:0:0:
256,192,60518,1,0,0:0:0:0:
256,192,60583,1,0,0:0:0:0:
256,192,60712,1,8,0:0:0:0:
256,192,60776,1,0,0:0:0:0:
256,192,60841,1,8,0:0:0:0:
256,192,60905,1,0,0:0:0:0:
256,192,60970,1,8,0:0:0:0:
256,192,61034,1,8,0:0:0:0:
256,192,61099,1,0,0:0:0:0:
