osu file format v14

[General]
AudioFilename: audio.mp3
AudioLeadIn: 0
PreviewTime: -1
Countdown: 0
SampleSet: Soft
StackLeniency: 0.4
Mode: 0
LetterboxInBreaks: 0
WidescreenStoryboard: 1

[Editor]
Bookmarks: 61670
DistanceSpacing: 0.6
BeatDivisor: 4
GridSize: 4
TimelineZoom: 2.5

[Metadata]
Title:24K Magic
TitleUnicode:24K Magic
Artist:Bruno Mars
ArtistUnicode:Bruno Mars
Creator:Mayflower
Version:24-KAROT MAYSOUNDS
Source:
Tags:
BeatmapID:2122486
BeatmapSetID:1013628

[Difficulty]
HPDrainRate:5
CircleSize:3.7
OverallDifficulty:8.5
ApproachRate:9.1
SliderMultiplier:2.2
SliderTickRate:1

[Events]
//Background and Video events
0,0,"309969.jpg",0,0
//Break Periods
//Storyboard Layer 0 (Background)
//Storyboard Layer 1 (Fail)
//Storyboard Layer 2 (Pass)
//Storyboard Layer 3 (Foreground)
//Storyboard Sound Samples

[TimingPoints]
21857,560.747663551402,4,2,1,40,1,0
25221,-250,4,2,1,40,0,0
25782,-62.5,4,2,1,40,0,0
34193,-100,4,2,1,40,0,0
34473,-83.3333333333333,4,2,1,40,0,0
34754,-62.5,4,2,1,40,0,0
38118,-50,4,2,1,40,0,0
38679,-55.5555555555556,4,2,1,40,0,0
39240,-62.5,4,2,1,40,0,0
41483,-50,4,2,1,40,0,0
42043,-250,4,2,2,40,0,0
42604,-50,4,2,1,40,0,0
43726,-71.4285714285714,4,2,2,40,0,0
44286,-100,4,2,1,40,0,0
44847,-71.4285714285714,4,2,1,40,0,0
45408,-83.3333333333333,4,2,1,40,0,0
45969,-62.5,4,2,1,40,0,0
46529,-71.4285714285714,4,2,1,40,0,0
48212,-62.5,4,2,1,40,0,0
48492,-83.3333333333333,4,2,1,40,0,0
48913,-71.4285714285714,4,2,1,40,0,0
49614,-83.3333333333333,4,2,1,40,0,0
50034,-71.4285714285714,4,2,1,40,0,0
52698,-62.5,4,2,1,40,0,0
53258,-71.4285714285714,4,2,1,40,0,0
54941,-62.5,4,2,1,40,0,0
55501,-71.4285714285714,4,2,1,40,0,0
56062,-50,4,2,1,40,0,0
56623,-55.5555555555556,4,2,1,40,0,0
57184,-62.5,4,2,1,40,0,0
58025,-71.4285714285714,4,2,1,40,0,0
59427,-50,4,2,1,40,0,0
61670,-62.5,4,2,2,40,0,0
62230,-83.3333333333333,4,2,1,40,0,0
65875,-62.5,4,2,1,40,0,0
66156,-76.9230769230769,4,2,1,40,0,0
70361,-62.5,4,2,1,40,0,0
70642,-71.4285714285714,4,2,1,40,0,0
74847,-62.5,4,2,1,40,0,0
75128,-66.6666666666667,4,2,1,40,0,0
75408,-50,4,2,1,40,0,0
75969,-66.6666666666667,4,2,1,40,0,0
79193,-250,4,2,1,40,0,0
79614,-62.5,4,2,1,40,0,0
97557,-62.5,4,2,2,40,0,0
97698,-62.5,4,2,1,40,0,0

[HitObjects]
188,200,21857,5,2,0:0:0:0:
139,101,22043,1,2,0:0:0:0:
220,172,23539,1,0,3:0:0:0:
273,116,23679,1,0,3:0:0:0:
220,172,24099,1,0,3:0:0:0:
273,116,24239,1,0,3:0:0:0:
220,172,24660,1,0,3:0:0:0:
273,116,24800,1,0,3:0:0:0:
220,172,25221,1,8,3:0:0:0:
273,116,25361,1,0,3:0:0:0:
148,151,25782,1,4,3:0:0:0:
209,125,26342,1,10,0:1:0:0:
86,160,26483,1,2,1:0:0:0:
89,167,26623,1,2,3:1:0:0:
89,167,26763,1,2,1:0:0:0:
209,137,26903,1,2,3:1:0:0:
86,160,27043,1,2,3:1:0:0:
89,167,27183,1,0,1:0:0:0:
89,167,27323,1,0,1:0:0:0:
168,109,27464,1,10,0:1:0:0:
86,160,27604,1,0,1:3:0:0:
89,167,27744,1,0,1:0:0:0:
89,167,27884,1,0,1:0:0:0:
327,235,28025,1,6,0:0:0:0:
164,157,28585,1,8,2:1:0:0:
305,116,28866,1,2,1:0:0:0:
199,113,29006,1,0,3:0:0:0:
189,121,29146,1,0,3:0:0:0:
259,216,29707,1,8,0:0:0:0:
71,181,29987,1,2,1:0:0:0:
148,151,30268,1,6,3:0:0:0:
209,125,30828,1,10,0:1:0:0:
86,160,30969,1,2,1:0:0:0:
89,167,31109,1,2,3:1:0:0:
89,167,31249,1,2,1:0:0:0:
209,137,31389,1,2,3:1:0:0:
86,160,31529,1,2,3:1:0:0:
89,167,31669,1,0,1:0:0:0:
89,167,31809,1,0,1:0:0:0:
168,109,31950,1,10,0:1:0:0:
86,160,32090,1,0,1:3:0:0:
89,167,32230,1,0,1:0:0:0:
89,167,32370,1,0,1:0:0:0:
327,235,32511,1,2,3:0:0:0:
112,112,32791,1,2,1:0:0:0:
331,108,33071,1,8,2:1:0:0:
201,122,33352,1,2,1:0:0:0:
289,167,33492,1,0,3:0:0:0:
277,190,33632,1,0,3:0:0:0:
172,164,33913,1,0,1:0:0:0:
309,117,34053,1,8,0:0:0:0:
125,130,34193,1,8,2:1:0:0:
177,89,34473,1,2,1:0:0:0:
148,151,34754,1,6,3:0:0:0:
209,125,35314,1,10,0:1:0:0:
86,160,35455,1,2,1:0:0:0:
89,167,35595,1,2,3:1:0:0:
89,167,35735,1,2,1:0:0:0:
209,137,35875,1,2,3:1:0:0:
86,160,36015,1,2,3:1:0:0:
89,167,36155,1,0,1:0:0:0:
89,167,36295,1,0,1:0:0:0:
168,109,36436,1,10,0:1:0:0:
86,160,36576,1,0,1:3:0:0:
89,167,36716,1,0,1:0:0:0:
89,167,36856,1,0,1:0:0:0:
327,235,36997,1,6,0:0:0:0:
164,157,37557,1,8,2:1:0:0:
305,116,37838,1,2,1:0:0:0:
199,113,37978,1,0,3:0:0:0:
189,121,38118,1,2,3:0:0:0:
259,216,38679,1,2,3:0:0:0:
71,181,38959,1,2,1:0:0:0:
148,151,39240,1,6,3:0:0:0:
215,155,39800,1,8,2:1:0:0:
119,105,39941,1,0,3:0:0:0:
170,65,40081,1,2,3:1:0:0:
74,124,40361,1,2,3:1:0:0:
163,55,40642,1,2,1:0:0:0:
176,151,40922,1,8,2:1:0:0:
103,40,41202,1,2,1:0:0:0:
199,106,41483,1,2,3:0:0:0:
61,118,42043,1,4,3:0:0:0:
175,168,42604,1,2,3:0:0:0:
48,97,43165,1,2,3:0:0:0:
168,171,43726,5,2,3:0:0:0:
190,234,44286,1,8,0:1:0:0:
62,165,44567,1,0,3:0:0:0:
230,104,44847,1,0,3:0:0:0:
230,104,44987,1,0,3:0:0:0:
50,150,45408,1,8,0:1:0:0:
205,108,45969,1,4,3:2:0:0:
75,137,46529,1,8,0:1:0:0:
119,145,46950,1,0,3:0:0:0:
125,145,47090,1,0,3:0:0:0:
154,130,47651,1,8,0:0:0:0:
135,120,48212,1,6,3:0:0:0:
126,160,48772,1,8,0:1:0:0:
82,150,49053,1,0,3:0:0:0:
84,150,49333,1,0,3:0:0:0:
53,148,49473,1,0,3:0:0:0:
140,101,49894,1,8,0:1:0:0:
173,132,50455,1,2,3:2:0:0:
117,120,51015,1,8,0:1:0:0:
105,140,51436,1,0,3:0:0:0:
105,140,51576,1,0,3:0:0:0:
237,122,51997,1,8,0:0:0:0:
107,160,52137,1,8,0:1:0:0:
225,113,52698,1,6,3:0:0:0:
105,177,53258,1,8,0:0:0:0:
80,127,53539,1,0,3:0:0:0:
212,171,53819,1,0,3:0:0:0:
228,175,53959,1,0,3:0:0:0:
31,91,54380,1,8,1:0:0:0:
195,113,54941,1,2,3:0:0:0:
91,140,55501,1,8,0:1:0:0:
205,142,55922,1,0,3:0:0:0:
148,117,56062,1,2,3:0:0:0:
145,183,56623,1,10,3:0:0:0:
120,120,57184,1,6,3:0:0:0:
84,126,57744,1,8,0:1:0:0:
191,136,58025,1,0,3:0:0:0:
211,137,58305,1,0,3:0:0:0:
127,104,58445,1,0,3:0:0:0:
141,151,58866,1,8,0:0:0:0:
104,100,59427,1,2,3:0:0:0:
117,121,60548,1,2,3:0:0:0:
78,120,61109,1,2,3:0:0:0:
113,192,61670,5,10,3:0:0:0:
166,167,62230,1,8,0:1:0:0:
128,170,62511,1,0,3:0:0:0:
71,214,62791,1,0,3:0:0:0:
71,214,62931,1,0,3:0:0:0:
118,121,63352,1,8,0:1:0:0:
36,133,63913,1,0,3:0:0:0:
106,122,64473,1,8,0:1:0:0:
61,141,64894,1,0,3:0:0:0:
61,141,65034,1,0,3:0:0:0:
82,106,65595,1,8,0:1:0:0:
82,177,66156,1,4,3:0:0:0:
8,127,66716,1,8,0:1:0:0:
74,172,66997,1,0,3:0:0:0:
76,173,67277,1,0,3:0:0:0:
76,173,67417,1,0,3:0:0:0:
109,135,67838,1,8,0:1:0:0:
89,157,68399,1,0,3:0:0:0:
81,122,68959,1,8,0:1:0:0:
56,152,69380,1,0,3:0:0:0:
73,154,69520,1,0,3:0:0:0:
89,122,69941,1,8,0:0:0:0:
89,122,70081,1,8,0:1:0:0:
82,177,70642,1,4,3:0:0:0:
8,127,71202,1,8,0:1:0:0:
74,172,71483,1,0,3:0:0:0:
76,173,71763,1,0,3:0:0:0:
76,173,71903,1,0,3:0:0:0:
109,135,72324,1,8,0:1:0:0:
89,157,72885,1,0,3:0:0:0:
81,122,73445,1,8,0:1:0:0:
56,152,73866,1,0,3:0:0:0:
73,154,74006,1,0,3:0:0:0:
186,107,74567,1,8,0:1:0:0:
104,170,75128,1,4,3:0:0:0:
187,140,75688,1,8,0:0:0:0:
128,157,75969,1,0,3:0:0:0:
117,156,76249,1,0,3:0:0:0:
117,156,76389,1,0,3:0:0:0:
86,167,76810,1,8,0:0:0:0:
171,132,77371,1,0,3:0:0:0:
171,132,77511,1,0,3:0:0:0:
97,177,77931,1,0,3:0:0:0:
92,151,78071,1,0,3:0:0:0:
91,195,78492,1,0,3:0:0:0:
87,148,78632,1,0,3:0:0:0:
119,166,79053,1,8,3:0:0:0:
125,154,79193,1,0,3:0:0:0:
148,151,79614,1,4,3:0:0:0:
209,125,80174,1,10,0:1:0:0:
86,160,80315,1,2,1:0:0:0:
89,167,80455,1,2,3:1:0:0:
89,167,80595,1,2,1:0:0:0:
209,137,80735,1,2,3:1:0:0:
86,160,80875,1,2,3:1:0:0:
89,167,81015,1,0,1:0:0:0:
89,167,81155,1,0,1:0:0:0:
168,109,81296,1,10,0:1:0:0:
86,160,81436,1,0,1:3:0:0:
89,167,81576,1,0,1:0:0:0:
89,167,81716,1,0,1:0:0:0:
327,235,81857,1,6,3:2:0:0:
164,157,82417,1,8,2:1:0:0:
305,116,82698,1,2,1:0:0:0:
199,113,82838,1,0,3:0:0:0:
189,121,82978,1,0,3:0:0:0:
259,216,83539,1,8,0:0:0:0:
71,181,83819,1,2,1:0:0:0:
148,151,84100,1,6,3:0:0:0:
209,125,84660,1,10,0:1:0:0:
86,160,84801,1,2,1:0:0:0:
89,167,84941,1,2,3:1:0:0:
89,167,85081,1,2,1:0:0:0:
209,137,85221,1,2,3:1:0:0:
86,160,85361,1,2,3:1:0:0:
89,167,85501,1,0,1:0:0:0:
89,167,85641,1,0,1:0:0:0:
168,109,85782,1,10,0:1:0:0:
86,160,85922,1,0,1:3:0:0:
89,167,86062,1,0,1:0:0:0:
89,167,86202,1,0,1:0:0:0:
327,235,86343,1,2,3:0:0:0:
112,112,86623,1,2,1:0:0:0:
331,108,86903,1,8,2:1:0:0:
201,122,87184,1,2,1:0:0:0:
289,167,87324,1,0,3:0:0:0:
277,190,87464,1,0,3:0:0:0:
172,164,87745,1,0,1:0:0:0:
309,117,87885,1,8,0:0:0:0:
125,130,88025,1,8,2:1:0:0:
177,89,88305,1,2,1:0:0:0:
148,151,88586,1,6,3:0:0:0:
209,125,89146,1,10,0:1:0:0:
86,160,89287,1,2,1:0:0:0:
89,167,89427,1,2,3:1:0:0:
89,167,89567,1,2,1:0:0:0:
209,137,89707,1,2,3:1:0:0:
86,160,89847,1,2,3:1:0:0:
89,167,89987,1,0,1:0:0:0:
89,167,90127,1,0,1:0:0:0:
168,109,90268,1,10,0:1:0:0:
86,160,90408,1,0,1:3:0:0:
89,167,90548,1,0,1:0:0:0:
89,167,90688,1,0,1:0:0:0:
327,235,90829,1,6,0:0:0:0:
164,157,91389,1,8,2:1:0:0:
305,116,91670,1,2,1:0:0:0:
199,113,91810,1,0,3:0:0:0:
189,121,91950,1,2,3:0:0:0:
259,216,92511,1,2,3:0:0:0:
71,181,92791,1,2,1:0:0:0:
148,151,93072,1,6,3:0:0:0:
215,155,93632,1,8,2:1:0:0:
119,105,93773,1,0,3:0:0:0:
170,65,93913,1,2,3:1:0:0:
74,124,94193,1,2,3:1:0:0:
163,55,94474,1,2,1:0:0:0:
176,151,94754,1,8,2:1:0:0:
103,40,95034,1,2,1:0:0:0:
199,106,95315,1,2,3:0:0:0:
61,118,95875,1,4,3:0:0:0:
175,168,96436,1,2,3:0:0:0:
48,97,96997,1,2,3:0:0:0:
228,167,97557,1,2,3:0:0:0:
55,153,98118,1,0,0:0:0:0:
173,160,99240,1,8,0:0:0:0:
239,169,99800,1,2,0:3:0:0:
108,150,100361,1,8,0:0:0:0:
159,165,101483,1,8,3:1:0:0:
92,152,102043,1,6,3:0:0:0:
