osu file format v14

[General]
AudioFilename: audio.mp3
AudioLeadIn: 0
PreviewTime: -1
Countdown: 0
SampleSet: Soft
StackLeniency: 0.3
Mode: 0
LetterboxInBreaks: 0
WidescreenStoryboard: 0

[Editor]
Bookmarks: 61670,102464
DistanceSpacing: 0.6
BeatDivisor: 8
GridSize: 16
TimelineZoom: 2.5

[Metadata]
Title:24K Magic
TitleUnicode:24K Magic
Artist:Bruno Mars
ArtistUnicode:Bruno Mars
Creator:Mayflower
Version:24-KAROT MAGIC
Source:
Tags:
BeatmapID:2121537
BeatmapSetID:1013628

[Difficulty]
HPDrainRate:5
CircleSize:3.7
OverallDifficulty:8.5
ApproachRate:9.1
SliderMultiplier:2.2
SliderTickRate:1

[Events]
//Background and Video events
0,0,"309969.jpg",0,0
//Break Periods
//Storyboard Layer 0 (Background)
//Storyboard Layer 1 (Fail)
//Storyboard Layer 2 (Pass)
//Storyboard Layer 3 (Foreground)
//Storyboard Sound Samples

[TimingPoints]
21857,560.747663551402,4,2,1,40,1,0
25221,-250,4,2,1,40,0,0
25782,-62.5,4,2,1,40,0,0
34193,-100,4,2,1,40,0,0
34473,-83.3333333333333,4,2,1,40,0,0
34754,-62.5,4,2,1,40,0,0
38118,-50,4,2,1,40,0,0
38679,-55.5555555555556,4,2,1,40,0,0
39240,-62.5,4,2,1,40,0,0
41483,-50,4,2,1,40,0,0
42043,-250,4,2,1,40,0,0
42604,-50,4,2,1,40,0,0
43726,-71.4285714285714,4,2,1,40,0,0
44286,-100,4,2,1,40,0,0
44847,-71.4285714285714,4,2,1,40,0,0
45408,-83.3333333333333,4,2,1,40,0,0
45969,-62.5,4,2,1,40,0,0
46529,-71.4285714285714,4,2,1,40,0,0
48212,-62.5,4,2,1,40,0,0
48492,-83.3333333333333,4,2,1,40,0,0
48913,-71.4285714285714,4,2,1,40,0,0
49614,-83.3333333333333,4,2,1,40,0,0
50034,-71.4285714285714,4,2,1,40,0,0
52698,-62.5,4,2,1,40,0,0
53258,-71.4285714285714,4,2,1,40,0,0
54941,-62.5,4,2,1,40,0,0
55501,-71.4285714285714,4,2,1,40,0,0
56062,-50,4,2,1,40,0,0
56623,-55.5555555555556,4,2,1,40,0,0
57184,-62.5,4,2,1,40,0,0
58025,-71.4285714285714,4,2,1,40,0,0
59427,-50,4,2,1,40,0,0
61670,-62.5,4,2,1,40,0,0
62230,-83.3333333333333,4,2,1,40,0,0
65875,-62.5,4,2,1,40,0,0
66156,-76.9230769230769,4,2,1,40,0,0
70361,-62.5,4,2,1,40,0,0
70642,-71.4285714285714,4,2,1,40,0,0
74847,-62.5,4,2,1,40,0,0
75128,-66.6666666666667,4,2,1,40,0,0
75408,-50,4,2,1,40,0,0
75969,-66.6666666666667,4,2,1,40,0,0
79193,-250,4,2,1,40,0,0
79614,-62.5,4,2,1,40,0,0
88025,-100,4,2,1,40,0,0
88305,-83.3333333333333,4,2,1,40,0,0
88585,-62.5,4,2,1,40,0,0
91950,-50,4,2,1,40,0,0
92511,-55.5555555555556,4,2,1,40,0,0
93071,-62.5,4,2,1,40,0,0
95314,-50,4,2,1,40,0,0
95875,-250,4,2,1,40,0,0
96436,-50,4,2,1,40,0,0
96997,-55.5555555555556,4,2,1,40,0,0
97557,-62.5,4,2,1,40,0,0
101202,-83.3333333333333,4,2,1,40,0,0
101342,-62.5,4,2,1,40,0,0
101623,-166.666666666667,4,2,1,40,0,0
102043,-62.5,4,2,1,40,0,0
102324,-55.5555555555556,4,2,1,40,0,0
102744,-125,4,2,1,40,0,0
103165,-55.5555555555556,4,2,1,40,0,0
103445,-50,4,2,1,40,0,0
103866,-71.4285714285714,4,2,1,40,0,0
105969,-50,4,2,1,40,0,0
106529,-62.5,4,2,1,40,0,0
107371,-83.3333333333333,4,2,1,40,0,0
107651,-71.4285714285714,4,2,1,40,0,0
108492,-83.3333333333333,4,2,1,40,0,0
108772,-62.5,4,2,1,40,0,0
109333,-71.4285714285714,4,2,1,40,0,0
109894,-50,4,2,1,40,0,0
110455,-55.5555555555556,4,2,1,40,0,0
110735,-83.3333333333333,4,2,1,40,0,0
111576,-71.4285714285714,4,2,1,40,0,0
113258,-50,4,2,1,40,0,0
113539,-55.5555555555556,4,2,1,40,0,0
113819,-100,4,2,1,40,0,0
114380,-50,4,2,1,40,0,0
115501,-83.3333333333333,4,2,1,40,0,0

[HitObjects]
96,264,21857,6,0,P|87:226|68:192,1,73.3333333333334
238,292,23539,5,0,0:0:0:0:
246,384,23679,1,0,0:0:0:0:
165,281,23819,2,0,L|168:309,1,27.5
162,308,23959,2,0,L|165:281,1,27.5
202,175,24099,5,0,0:0:0:0:
162,308,24240,1,0,0:0:0:0:
128,142,24380,2,0,L|126:170,1,27.5
131,169,24520,2,0,L|129:142,1,27.5
77,8,24661,5,0,0:0:0:0:
126,170,24800,1,0,0:0:0:0:
76,285,24941,2,0,L|31:270,1,27.5
49,276,25081,2,0,L|75:267,1,27.5
77,24,25221,6,0,P|62:50|54:102,1,77
54,96,25782,6,0,B|113:17|195:64|188:76|184:89|255:171|349:72,1,308,4|0,0:0|0:0,0:0:0:0:
326,92,26342,5,8,1:0:0:0:
362,151,26483,1,0,1:0:0:0:
303,188,26623,1,0,1:0:0:0:
265,128,26763,1,0,1:0:0:0:
398,46,26903,5,0,1:0:0:0:
385,100,27044,1,0,1:0:0:0:
330,88,27184,1,0,1:0:0:0:
342,31,27324,1,0,1:0:0:0:
409,140,27464,5,8,1:0:0:0:
371,162,27605,1,0,1:0:0:0:
347,124,27745,1,0,1:0:0:0:
385,100,27885,1,0,1:0:0:0:
172,384,28025,6,0,P|187:236|334:223,1,308,0|0,3:0|0:0,2:0:0:0:
322,216,28585,1,8,0:0:0:0:
143,275,29006,1,0,3:0:0:0:
98,266,29146,2,0,P|91:233|67:197,1,44,0|0,3:0|0:0,0:0:0:0:
259,331,29427,2,0,P|251:351|247:373,1,44
188,191,29707,2,0,L|290:139,1,88,8|0,0:0|0:0,0:0:0:0:
179,273,29987,1,0,0:0:0:0:
152,343,30128,1,0,0:0:0:0:
364,0,30268,6,0,L|335:336,1,308,4|0,0:0|0:0,0:0:0:0:
337,306,30828,5,0,1:0:0:0:
373,246,30969,1,0,1:0:0:0:
314,209,31109,1,0,1:0:0:0:
276,269,31249,1,0,1:0:0:0:
409,351,31389,5,0,1:0:0:0:
396,298,31530,1,0,1:0:0:0:
341,310,31670,1,0,1:0:0:0:
353,366,31810,1,0,1:0:0:0:
420,257,31950,5,0,1:0:0:0:
382,235,32091,1,0,1:0:0:0:
358,273,32231,1,0,1:0:0:0:
396,298,32371,1,0,1:0:0:0:
127,200,32511,1,0,0:0:0:0:
48,273,32651,1,0,0:0:0:0:
112,367,32791,1,0,0:0:0:0:
348,40,33071,2,0,P|415:2|506:13,1,132
468,0,33352,2,0,P|401:38|310:27,1,132
266,32,33632,2,0,P|301:56|275:146,1,132
342,115,33913,1,0,0:0:0:0:
76,26,34053,1,0,0:0:0:0:
237,229,34193,2,0,P|192:253|160:275,1,82.5
165,283,34473,2,0,P|199:260|254:234,1,98.9999969787599
37,48,34754,6,0,B|28:256|101:107|83:371,1,308
84,346,35314,5,0,0:0:0:0:
135,267,35454,1,0,0:0:0:0:
219,225,35594,1,0,0:0:0:0:
311,230,35734,1,0,0:0:0:0:
111,342,35875,5,0,0:0:0:0:
151,279,36015,1,0,0:0:0:0:
219,245,36155,1,0,0:0:0:0:
293,249,36295,1,0,0:0:0:0:
136,339,36436,5,0,0:0:0:0:
168,288,36576,1,0,0:0:0:0:
223,261,36716,1,0,0:0:0:0:
282,265,36856,1,0,0:0:0:0:
28,147,36997,6,0,B|-24:134|-18:50|46:39|80:28|144:116|114:206,1,308
115,202,37557,1,0,0:0:0:0:
124,159,37838,2,0,P|120:173|114:206,1,44
208,91,37978,2,0,P|204:69|198:48,1,44
245,333,38118,6,0,P|256:242|354:134,1,220
163,367,38539,1,0,0:0:0:0:
501,384,38679,2,0,P|457:266|394:251,1,197.99999395752
90,289,39240,6,0,B|150:273|146:209|95:150|24:193|-1:259|11:363,1,308
9,343,39800,1,0,0:0:0:0:
30,177,40081,1,0,0:0:0:0:
16,204,40361,1,0,0:0:0:0:
137,169,40501,5,0,0:0:0:0:
227,249,40642,2,0,P|215:200|204:186,1,44
186,333,40922,2,0,P|227:352|282:396,1,88
25,308,41202,2,0,P|75:287|129:250,1,88
382,175,41483,6,0,P|339:114|218:144,1,165
323,269,42043,6,0,P|356:295|380:330,1,77
184,25,42604,6,0,L|172:224,1,165
150,153,42885,5,0,0:0:0:0:
390,108,43165,1,0,0:0:0:0:
466,243,43445,1,0,0:0:0:0:
488,25,43726,6,0,B|476:157|433:176|356:157|357:94|385:78|407:66,1,269.499991775513
390,251,44286,6,0,L|402:315,1,55
420,224,44497,2,0,L|408:288,1,55
146,167,44847,6,0,P|185:192|216:246,1,76.9999976501466
44,134,45128,2,0,P|38:86|76:51,1,76.9999976501466
77,316,45408,6,0,L|35:380,1,65.9999979858399
13,277,45689,1,0,0:0:0:0:
293,337,45969,6,0,B|360:368|391:226|260:214|192:274|147:346,1,308
273,233,46529,2,0,L|290:173,1,38.4999988250733
323,72,46810,2,0,L|331:124,1,38.4999988250733
290,79,46950,2,0,L|296:26,1,38.4999988250733
233,153,47090,1,0,0:0:0:0:
415,232,47371,6,0,L|399:220,7,19.2499994125366
492,277,47651,2,0,P|497:201|510:148,1,115.49999647522
512,196,47931,2,0,L|496:95,1,96.2499970626832
344,377,48212,6,0,P|334:302|284:309,1,132
449,325,48492,6,0,L|512:343,1,65.9999979858399
445,290,48772,1,0,0:0:0:0:
79,110,48913,5,0,0:0:0:0:
177,153,49053,2,0,P|164:104|150:71,1,65.9999979858399
169,236,49333,1,0,0:0:0:0:
441,300,49614,6,0,B|470:319|470:319|490:342,1,65.9999979858399
354,276,49894,1,0,0:0:0:0:
192,188,50034,5,0,0:0:0:0:
280,45,50174,2,0,L|274:131,1,76.9999976501466
223,284,50455,2,0,P|209:240|191:214,1,76.9999976501466
339,357,50735,2,0,P|342:311|352:281,1,76.9999976501466
89,349,51015,1,0,0:0:0:0:
111,318,51156,1,0,0:0:0:0:
0,384,51436,1,0,0:0:0:0:
108,220,51576,2,0,P|76:275|55:336,1,115.49999647522
32,117,51857,6,0,L|16:76,1,38.4999988250733
69,155,51997,2,0,L|91:118,1,38.4999988250733
7,327,52277,5,0,0:0:0:0:
65,255,52417,1,0,0:0:0:0:
47,228,52557,1,0,0:0:0:0:
244,384,52698,6,0,P|242:228|134:83,1,308
161,104,53258,1,0,0:0:0:0:
173,136,53539,1,0,0:0:0:0:
289,24,53679,1,0,0:0:0:0:
118,58,53819,2,0,P|161:31|204:14,2,76.9999976501466
431,121,54380,1,0,0:0:0:0:
417,140,54520,1,0,0:0:0:0:
224,45,54660,1,0,0:0:0:0:
252,282,54941,6,0,P|206:238|154:216,1,88
443,320,55221,2,0,P|416:363|353:394,1,88
473,118,55501,2,0,L|522:276,1,153.999995300293
470,32,55922,1,0,0:0:0:0:
266,322,56062,6,0,P|275:202|382:162,1,220
111,384,56623,2,0,P|91:269|144:172,1,197.99999395752
0,384,57184,6,0,B|-32:305|-25:235|32:175|96:219|117:280|63:311,1,308
64,310,57744,1,0,0:0:0:0:
0,151,58025,1,0,0:0:0:0:
237,84,58305,2,0,L|107:118,1,115.49999647522
267,0,58585,2,0,L|300:28,1,38.4999988250733
360,83,58726,1,0,0:0:0:0:
151,2,58866,2,0,P|99:12|69:29,1,76.9999976501466
269,141,59146,1,0,0:0:0:0:
326,291,59427,6,0,B|291:292|267:250|330:196|383:208|405:378,1,220
397,331,60548,6,0,B|392:100|464:260|456:0,1,330
280,384,61109,2,0,B|340:308|280:236|280:228|280:220|220:136|280:68,1,330
84,300,61670,6,0,B|57:356|109:394|187:393|199:311|165:249|78:191,1,308
94,203,62230,6,0,L|224:252,1,131.99999597168
136,126,62791,2,0,L|72:112,2,65.9999979858399
0,36,63352,2,0,L|136:13,1,131.99999597168
0,115,63772,1,0,0:0:0:0:
68,177,63913,2,0,L|86:262,2,65.9999979858399
175,236,64333,2,0,P|179:294|102:331,1,131.99999597168
268,316,64754,6,0,L|324:280,1,65.9999979858399
412,232,65034,1,0,0:0:0:0:
407,334,65174,1,0,0:0:0:0:
360,143,65314,1,0,0:0:0:0:
290,188,65455,1,0,0:0:0:0:
446,29,65595,2,0,L|467:108,1,65.9999979858399
276,55,65875,6,0,P|253:41|212:34,1,44
279,135,66015,2,0,P|298:147|319:155,1,44
207,230,66156,6,0,L|464:162,1,250.249988544465
512,181,66716,2,0,L|367:220,1,142.99999345398
512,58,67277,2,0,L|432:96,2,71.4999967269899
352,125,67838,1,0,0:0:0:0:
331,95,67978,5,0,0:0:0:0:
287,178,68118,1,0,0:0:0:0:
331,239,68258,1,0,0:0:0:0:
181,128,68399,2,0,L|148:37,1,71.4999967269899
308,190,68679,1,0,0:0:0:0:
332,118,68819,1,0,0:0:0:0:
216,248,68959,1,0,0:0:0:0:
241,258,69099,1,0,0:0:0:0:
139,206,69240,2,0,L|46:236,1,71.4999967269899
252,305,69520,6,0,P|218:287|221:239,1,71.4999967269899
348,117,69800,2,0,P|298:152|259:147,1,71.4999967269899
422,14,70081,2,0,P|468:20|495:44,1,71.4999967269899
276,114,70361,6,0,P|299:128|340:135,1,44
272,33,70501,2,0,P|253:21|232:13,1,44
363,295,70642,6,0,L|334:23,1,269.499991775513
366,0,71202,2,0,L|382:163,1,153.999995300293
206,0,71763,2,0,L|231:86,2,76.9999976501466
252,157,72324,1,0,0:0:0:0:
211,326,72604,5,0,0:0:0:0:
253,243,72744,1,0,0:0:0:0:
221,130,72885,2,0,L|288:166,1,76.9999976501466
153,239,73165,5,0,0:0:0:0:
124,150,73305,1,0,0:0:0:0:
21,93,73446,2,0,L|93:71,1,76.9999976501466
84,225,73726,5,0,0:0:0:0:
0,182,73866,1,0,0:0:0:0:
5,318,74007,2,0,L|41:251,1,76.9999976501466
236,384,74286,2,0,L|200:317,1,76.9999976501466
417,291,74567,2,0,P|420:335|470:354,1,76.9999976501466
313,115,74847,6,0,P|282:96|270:92,1,44
407,159,74987,2,0,P|424:146|445:137,1,44
231,33,75128,6,0,P|231:90|299:158,1,123.750004720688
266,103,75408,6,0,B|222:152|191:132|157:168,1,110
326,53,75688,5,0,0:0:0:0:
223,262,75969,2,0,P|209:320|183:329,1,82.5000031471254
424,194,76249,2,0,L|370:302,1,82.5000031471254
466,207,76529,2,0,P|445:151|463:86,1,123.750004720688
476,122,76810,5,0,0:0:0:0:
501,366,76950,1,0,0:0:0:0:
206,254,77371,5,0,0:0:0:0:
501,366,77511,1,0,0:0:0:0:
244,102,77931,5,0,0:0:0:0:
501,366,78071,1,0,0:0:0:0:
375,2,78492,5,0,0:0:0:0:
501,366,78632,1,0,0:0:0:0:
91,230,79053,5,0,0:0:0:0:
505,99,79193,6,0,P|492:118|484:152,1,55
454,267,79614,6,0,B|375:195|457:124|470:128|482:135|529:53|450:-5,1,308
456,0,80174,5,0,0:0:0:0:
492,59,80315,1,0,0:0:0:0:
433,96,80455,1,0,0:0:0:0:
395,36,80595,1,0,0:0:0:0:
489,111,80735,5,0,0:0:0:0:
475,164,80876,1,0,0:0:0:0:
421,151,81016,1,0,0:0:0:0:
433,96,81156,1,0,0:0:0:0:
491,205,81296,5,0,0:0:0:0:
451,219,81437,1,0,0:0:0:0:
435,179,81577,1,0,0:0:0:0:
475,164,81717,1,0,0:0:0:0:
225,383,81857,6,0,P|258:291|449:275,1,308
445,272,82417,1,0,0:0:0:0:
130,369,82838,1,0,0:0:0:0:
67,248,82978,2,0,P|23:282|6:284,1,44
249,151,83258,2,0,P|303:163|319:157,1,44
26,99,83539,2,0,B|51:118|51:118|81:159,1,44
132,234,83679,1,0,0:0:0:0:
56,13,83959,1,0,0:0:0:0:
96,259,84099,6,0,B|30:191|159:138|180:187|170:382,1,308
170,367,84660,5,0,0:0:0:0:
256,349,84800,1,0,0:0:0:0:
342,330,84940,1,0,0:0:0:0:
428,311,85080,1,0,0:0:0:0:
187,332,85221,5,0,0:0:0:0:
256,317,85361,1,0,0:0:0:0:
325,302,85501,1,0,0:0:0:0:
394,287,85641,1,0,0:0:0:0:
201,304,85782,5,0,0:0:0:0:
256,292,85922,1,0,0:0:0:0:
311,280,86062,1,0,0:0:0:0:
366,268,86202,1,0,0:0:0:0:
89,353,86342,6,0,P|64:318|22:293,1,88
203,384,86623,1,0,0:0:0:0:
114,108,86903,2,0,P|123:205|136:273,1,132
153,255,87184,2,0,P|143:189|138:123,1,132
133,33,87464,2,0,P|140:86|51:92,1,132
0,14,87744,1,0,0:0:0:0:
276,245,87885,1,0,0:0:0:0:
363,160,88025,2,0,P|371:196|380:255,1,82.5
402,278,88305,2,0,P|401:226|431:183,1,98.9999969787599
102,360,88585,6,0,P|50:313|197:207,1,308
181,194,89146,5,0,0:0:0:0:
219,120,89286,1,0,0:0:0:0:
164,60,89426,1,0,0:0:0:0:
89,94,89567,1,0,0:0:0:0:
305,186,89707,5,0,0:0:0:0:
284,123,89847,1,0,0:0:0:0:
219,120,89987,1,0,0:0:0:0:
196,181,90127,1,0,0:0:0:0:
302,273,90268,5,0,0:0:0:0:
352,256,90408,1,0,0:0:0:0:
358,203,90548,1,0,0:0:0:0:
305,186,90688,1,0,0:0:0:0:
41,290,90828,6,0,B|-19:257|20:194|64:171|137:222|143:298|137:394,1,308
138,368,91389,1,0,0:0:0:0:
88,81,91670,2,0,P|92:95|98:128,1,44
1,84,91810,2,0,P|5:62|11:41,1,44
288,199,91950,6,0,P|370:126|477:109,1,220
226,32,92371,1,0,0:0:0:0:
260,375,92511,2,0,P|220:288|126:272,1,197.99999395752
512,382,93071,6,0,P|531:335|348:191,1,308
377,181,93632,1,0,0:0:0:0:
425,364,93913,1,0,0:0:0:0:
411,337,94193,1,0,0:0:0:0:
375,215,94333,5,0,0:0:0:0:
285,135,94474,2,0,P|297:184|308:198,1,44
326,51,94754,2,0,P|285:32|230:-12,1,88
487,76,95034,2,0,P|437:97|383:134,1,88
253,280,95314,6,0,B|284:290|333:267|292:180|215:225|187:346,1,220
38,163,95875,6,0,P|70:187|91:217,1,77
181,355,96436,6,0,P|196:271|351:230,1,220
46,298,96997,2,0,B|104:352|56:396|34:346|112:209,1,197.99999395752
10,353,97557,6,0,B|80:306|114:244|102:162|24:161|-27:199|0:255,1,308
0,253,98118,1,8,0:0:0:0:
0,233,99240,1,8,0:0:0:0:
181,371,99800,2,0,L|163:79,1,264
78,351,100361,1,8,0:0:0:0:
104,236,101202,6,0,P|81:245|65:271,1,44
205,144,101342,2,0,L|194:86,1,44
203,303,101483,5,0,0:0:0:0:
208,277,101623,6,0,B|186:242,2,32.99999899292
432,372,102043,6,0,P|438:308|476:234,1,132
212,381,102324,6,0,P|171:354|126:358,1,49.4999984893799
59,278,102464,2,0,P|76:261|99:251,1,49.4999984893799
215,221,102604,1,0,0:0:0:0:
456,290,102744,6,0,P|462:260|471:230,2,44
356,138,103165,6,0,P|388:82|490:19,1,148.49999546814
212,381,103445,6,0,P|186:339|140:323,1,55
108,209,103585,2,0,P|131:201|162:204,1,55
299,221,103725,1,0,0:0:0:0:
100,296,103866,6,0,B|65:316|65:316|35:359,2,76.9999976501466
252,239,104286,2,0,P|225:201|183:189,1,76.9999976501466
53,226,104567,1,0,0:0:0:0:
34,186,104707,1,0,0:0:0:0:
214,382,104847,2,0,P|252:355|264:313,1,76.9999976501466
263,158,105128,1,0,0:0:0:0:
281,188,105268,1,0,0:0:0:0:
49,293,105408,2,0,P|99:245|192:243,1,153.999995300293
0,362,105828,1,0,0:0:0:0:
180,238,105969,6,0,L|-9:368,1,220
293,121,106529,6,0,B|223:126|251:202|264:247|438:195|353:17,1,308
366,53,107090,1,0,0:0:0:0:
417,278,107371,2,0,L|455:340,1,65.9999979858399
195,208,107651,2,0,P|181:151|196:111,1,76.9999976501466
296,255,107931,2,0,P|299:293|285:328,1,76.9999976501466
277,29,108212,2,0,L|273:154,1,115.49999647522
251,108,108492,2,0,L|264:180,1,65.9999979858399
90,45,108772,6,0,B|95:-14|33:-32|-39:-5|-22:75|30:121|113:140,1,308
64,151,109333,2,0,P|132:181|147:196,1,76.9999976501466
268,272,109614,1,0,0:0:0:0:
246,265,109754,1,0,0:0:0:0:
473,257,109894,6,0,P|408:111|333:107,1,220
260,384,110455,2,0,P|259:313|318:226,1,148.49999546814
294,246,110735,6,0,L|250:213,1,32.99999899292
267,226,111015,2,0,L|476:377,1,230.99999295044
454,361,111576,6,0,P|461:316|466:307,1,38.4999988250733
267,226,111786,2,0,P|304:198|314:195,1,38.4999988250733
420,60,112137,2,0,P|377:60|402:11,1,115.49999647522
375,1,112417,2,0,P|331:16|296:49,1,76.9999976501466
231,230,112698,2,0,P|202:158|176:141,1,76.9999976501466
165,360,112978,1,0,0:0:0:0:
35,88,113258,6,0,L|57:293,1,165
52,252,113539,2,0,L|36:92,1,148.49999546814
27,358,113819,6,0,P|11:329|4:315,1,27.5
33,382,114099,2,0,P|49:353|56:339,1,27.5
38,132,114380,2,0,B|147:200|-1:265|96:38,1,220
41,280,114941,2,0,B|32:128|91:228|82:22,1,220
171,347,115501,6,0,P|130:273|238:275,1,230.99999295044
235,268,116062,1,0,0:0:0:0:
75,384,116342,1,0,0:0:0:0:
57,266,116623,2,0,P|48:227|36:191,2,65.9999979858399
