osu file format v14

[General]
AudioFilename: audio.mp3
AudioLeadIn: 0
PreviewTime: -1
Countdown: 1
SampleSet: None
StackLeniency: 0.7
Mode: 0
LetterboxInBreaks: 0
WidescreenStoryboard: 0

[Editor]
DistanceSpacing: 1
BeatDivisor: 4
GridSize: 8
TimelineZoom: 1

[Metadata]
Title:Power Rangers Dino Thunder
TitleUnicode:Power Rangers Dino Thunder
Artist:Bruce Lynch
ArtistUnicode:Bruce Lynch
Creator:bobbathan
Version:Normal
Source:Power Rangers Dino Thunder
Tags:
BeatmapID:1689506
BeatmapSetID:804805

[Difficulty]
HPDrainRate:2
CircleSize:2
OverallDifficulty:2
ApproachRate:3
SliderMultiplier:1.4
SliderTickRate:1

[Events]
//Background and Video events
0,0,"maxresdefault.jpg",0,0
//Break Periods
//Storyboard Layer 0 (Background)
//Storyboard Layer 1 (Fail)
//Storyboard Layer 2 (Pass)
//Storyboard Layer 3 (Foreground)
//Storyboard Sound Samples

[TimingPoints]
4106.38602941176,235.294117647059,4,2,0,100,1,0

[HitObjects]
66,268,694,5,0,0:0:0:0:
197,270,1165,1,0,0:0:0:0:
335,269,1694,1,0,0:0:0:0:
339,172,2106,1,0,0:0:0:0:
343,67,2576,1,0,0:0:0:0:
73,228,3753,6,0,L|228:233,1,140
164,204,5282,5,0,0:0:0:0:
259,201,7576,1,0,0:0:0:0:
316,160,7929,1,0,0:0:0:0:
428,160,8576,6,0,L|432:380,1,210
311,355,9929,2,0,L|178:239,1,175
93,179,11929,6,0,L|221:182,1,105
129,188,13694,5,0,0:0:0:0:
242,195,14165,1,0,0:0:0:0:
354,196,14635,1,0,0:0:0:0:
90,289,16106,5,0,0:0:0:0:
210,285,16576,1,0,0:0:0:0:
320,288,17047,1,0,0:0:0:0:
256,192,18518,12,0,19576,0:0:0:0:
50,103,19871,6,0,B|282:332|357:99|382:129,1,385
93,207,22165,5,0,0:0:0:0:
213,206,22576,1,0,0:0:0:0:
313,227,23165,1,0,0:0:0:0:
61,73,24518,6,0,P|215:340|418:74,1,735
268,127,26165,1,0,0:0:0:0:
141,66,26929,2,0,L|144:238,1,140
287,217,27576,2,0,L|285:72,1,140
403,111,28459,2,0,L|407:291,1,175
437,309,29341,5,0,0:0:0:0:
282,320,29812,1,0,0:0:0:0:
113,320,30400,1,0,0:0:0:0:
121,210,30988,1,0,0:0:0:0:
115,91,31282,1,0,0:0:0:0:
278,90,31635,1,0,0:0:0:0:
48,51,34106,6,0,B|458:50|457:64|454:276,1,560
408,314,36341,2,0,L|70:190,1,350
76,98,37400,1,0,0:0:0:0:
256,192,38871,12,0,40047,0:0:0:0:
201,169,40282,5,0,0:0:0:0:
302,225,41106,2,0,B|401:171|196:182|421:135|231:101,1,175
160,86,42400,2,0,L|156:232,1,140
251,243,43459,2,0,L|251:100,1,140
436,248,44812,5,0,0:0:0:0:
327,156,45341,1,0,0:0:0:0:
272,257,45929,1,0,0:0:0:0:
119,223,46576,1,0,0:0:0:0:
90,119,47459,1,0,0:0:0:0:
209,115,47929,1,0,0:0:0:0:
324,115,48341,1,0,0:0:0:0:
435,124,48694,1,0,0:0:0:0:
438,222,48988,1,0,0:0:0:0:
437,332,49282,1,0,0:0:0:0:
316,336,49812,6,0,L|77:76,1,350
222,85,50812,1,0,0:0:0:0:
448,303,51988,2,0,P|449:228|91:302,1,630
243,337,54518,5,0,0:0:0:0:
245,219,55047,1,0,0:0:0:0:
239,114,55576,1,0,0:0:0:0:
349,111,56282,1,0,0:0:0:0:
456,115,56812,1,0,0:0:0:0:
256,192,57165,12,0,59459,0:0:0:0:
