osu file format v14

[General]
AudioFilename: audio.mp3
AudioLeadIn: 0
PreviewTime: -1
Countdown: 1
SampleSet: Soft
StackLeniency: 0.7
Mode: 0
LetterboxInBreaks: 0
WidescreenStoryboard: 1

[Editor]
DistanceSpacing: 1
BeatDivisor: 4
GridSize: 8
TimelineZoom: 1

[Metadata]
Title:Power Rangers Dino Thunder
TitleUnicode:Power Rangers Dino Thunder
Artist:Bruce Lynch
ArtistUnicode:Bruce Lynch
Creator:bobbathan
Version:Hard
Source:Power Rangers Dino Thunder
Tags:
BeatmapID:1689505
BeatmapSetID:804805

[Difficulty]
HPDrainRate:6
CircleSize:4.5
OverallDifficulty:5
ApproachRate:8.5
SliderMultiplier:1.4
SliderTickRate:1

[Events]
//Background and Video events
0,0,"3b33e657193e013ddb68df8a2fa3add5.jpg",0,0
//Break Periods
//Storyboard Layer 0 (Background)
//Storyboard Layer 1 (Fail)
//Storyboard Layer 2 (Pass)
//Storyboard Layer 3 (Foreground)
//Storyboard Sound Samples

[TimingPoints]
4106.38602941176,235.294117647059,4,2,0,100,1,0

[HitObjects]
360,84,694,5,0,0:0:0:0:
460,140,1165,1,0,0:0:0:0:
335,202,1635,1,0,0:0:0:0:
309,116,2106,1,0,0:0:0:0:
432,156,2576,1,0,0:0:0:0:
368,114,3929,6,0,B|325:116|329:116,1,35
356,108,5106,5,0,0:0:0:0:
321,177,5282,1,0,0:0:0:0:
229,232,5400,1,0,0:0:0:0:
131,131,5694,1,0,0:0:0:0:
50,286,6576,6,0,L|91:295,1,35
153,299,6929,2,0,L|264:298,1,105
390,284,7694,1,0,0:0:0:0:
261,110,8047,1,0,0:0:0:0:
164,217,8871,1,0,0:0:0:0:
393,182,9400,1,0,0:0:0:0:
191,116,9988,1,0,0:0:0:0:
184,325,11282,5,0,0:0:0:0:
232,316,11576,1,0,0:0:0:0:
268,305,11753,1,0,0:0:0:0:
306,283,12047,1,0,0:0:0:0:
305,255,12400,1,0,0:0:0:0:
259,193,13576,6,0,B|188:183|133:303|131:303|167:43,1,315
226,79,14576,1,0,0:0:0:0:
379,89,15812,5,0,0:0:0:0:
188,132,16106,1,0,0:0:0:0:
352,219,16576,1,0,0:0:0:0:
221,275,17047,1,0,0:0:0:0:
256,192,18459,12,0,19459,0:0:0:0:
176,133,19694,5,0,0:0:0:0:
405,186,20047,1,0,0:0:0:0:
246,278,20224,1,0,0:0:0:0:
291,75,20576,1,0,0:0:0:0:
445,88,20871,1,0,0:0:0:0:
462,141,22106,5,0,0:0:0:0:
318,148,22341,1,0,0:0:0:0:
208,230,22518,1,0,0:0:0:0:
325,325,22871,1,0,0:0:0:0:
411,235,23224,1,0,0:0:0:0:
122,148,24518,5,0,0:0:0:0:
256,43,24753,1,0,0:0:0:0:
370,152,24929,1,0,0:0:0:0:
328,243,25224,1,0,0:0:0:0:
192,241,25576,1,0,0:0:0:0:
192,241,25871,1,0,0:0:0:0:
221,148,26224,1,0,0:0:0:0:
301,105,26518,1,0,0:0:0:0:
95,209,26988,6,0,L|166:215,1,70
255,198,27518,2,0,L|318:232,1,70
183,288,27988,2,0,L|142:293,1,35
58,281,28459,2,0,L|62:225,1,35
166,187,29341,2,0,L|84:59,1,140
250,200,30047,5,0,0:0:0:0:
350,201,30341,2,0,L|417:48,1,140
247,264,30929,2,0,L|247:366,1,70
357,268,31635,1,0,0:0:0:0:
115,127,32635,1,0,0:0:0:0:
406,143,33106,1,0,0:0:0:0:
157,323,33400,1,0,0:0:0:0:
181,307,33576,1,0,0:0:0:0:
200,294,33753,1,0,0:0:0:0:
212,284,33929,1,0,0:0:0:0:
237,267,34047,1,0,0:0:0:0:
245,154,34165,5,0,0:0:0:0:
445,84,34459,1,0,0:0:0:0:
433,295,34635,1,0,0:0:0:0:
384,300,34929,1,0,0:0:0:0:
225,286,35106,1,0,0:0:0:0:
133,141,36282,6,0,P|235:147|221:189,1,175
229,176,36753,2,0,B|330:86|399:229|392:182,1,175
384,188,37106,2,0,P|346:303|208:304,1,245
300,327,38812,1,0,0:0:0:0:
279,304,38929,1,0,0:0:0:0:
257,291,39106,1,0,0:0:0:0:
244,276,39282,1,0,0:0:0:0:
234,265,39459,1,0,0:0:0:0:
218,250,39635,1,0,0:0:0:0:
205,235,39753,1,0,0:0:0:0:
167,108,40165,5,0,0:0:0:0:
328,111,40459,1,0,0:0:0:0:
334,244,40635,1,0,0:0:0:0:
167,228,40871,1,0,0:0:0:0:
246,186,41224,1,0,0:0:0:0:
372,211,42106,2,0,L|370:249,1,35
304,242,42635,2,0,L|305:200,1,35
235,202,42929,2,0,L|232:267,1,35
152,215,43576,1,0,0:0:0:0:
311,166,44871,6,0,L|211:273,1,140
169,219,45459,2,0,L|268:117,1,140
218,83,45988,2,0,B|56:156|65:306|51:272,1,245
150,280,46753,5,0,0:0:0:0:
254,127,47282,1,0,0:0:0:0:
399,136,47576,1,0,0:0:0:0:
314,261,47871,1,0,0:0:0:0:
254,127,48106,1,0,0:0:0:0:
399,136,48282,1,0,0:0:0:0:
314,261,48635,1,0,0:0:0:0:
236,103,48929,1,0,0:0:0:0:
191,198,49224,1,0,0:0:0:0:
171,314,49694,1,0,0:0:0:0:
67,261,49988,1,0,0:0:0:0:
89,101,50165,1,0,0:0:0:0:
324,107,50518,1,0,0:0:0:0:
170,268,50812,1,0,0:0:0:0:
92,132,51753,5,0,0:0:0:0:
175,130,52282,2,0,P|175:185|253:113,1,245
207,60,53165,1,0,0:0:0:0:
120,98,54459,6,0,L|127:146,1,35
123,196,54812,1,0,0:0:0:0:
202,239,55106,1,0,0:0:0:0:
332,263,55459,1,0,0:0:0:0:
114,268,56224,6,0,L|123:154,1,105
199,145,56812,1,0,0:0:0:0:
301,73,57106,1,0,0:0:0:0:
454,99,57341,1,0,0:0:0:0:
370,329,57576,1,0,0:0:0:0:
259,231,57812,1,0,0:0:0:0:
125,302,57988,1,0,0:0:0:0:
170,125,58224,1,0,0:0:0:0:
243,46,58518,1,0,0:0:0:0:
447,91,58871,1,0,0:0:0:0:
256,192,59282,12,0,59953,0:0:0:0:
