osu file format v14

[General]
AudioFilename: audio.mp3
AudioLeadIn: 0
PreviewTime: 67078
Countdown: 0
SampleSet: Normal
StackLeniency: 0.7
Mode: 1
LetterboxInBreaks: 0
WidescreenStoryboard: 0

[Editor]
Bookmarks: 23738,32510,41154,49798,84373,93017,136236,153524,162166,188099,205387,222674,274539,296147
DistanceSpacing: 1.7
BeatDivisor: 8
GridSize: 8
TimelineZoom: 2.1

[Metadata]
Title:The Way It Is
TitleUnicode:The Way It Is
Artist:Bruce Hornsby and The Range
ArtistUnicode:Bruce Hornsby and The Range
Creator:vrnl
Version:Oni
Source:
Tags:piano pop rock english 1986 80s
BeatmapID:4287154
BeatmapSetID:2052586

[Difficulty]
HPDrainRate:5
CircleSize:5
OverallDifficulty:4
ApproachRate:5
SliderMultiplier:1.4
SliderTickRate:1

[Events]
//Background and Video events
0,0,"ezgif.com-webp-to-jpg.jpg",0,50
//Break Periods
//Storyboard Layer 0 (Background)
//Storyboard Layer 1 (Fail)
//Storyboard Layer 2 (Pass)
//Storyboard Layer 3 (Foreground)
//Storyboard Layer 4 (Overlay)
//Storyboard Sound Samples

[TimingPoints]
217,500,4,1,0,65,1,8
217,-108.047757108642,4,1,0,65,0,8
342,659.340659340659,4,1,0,65,1,8
342,-81.9362158073869,4,1,0,65,0,8
506,625,4,1,0,65,1,0
506,-86.4382056869136,4,1,0,65,0,0
2555,594.059405940594,4,1,0,65,1,8
2555,-90.9401955664404,4,1,0,65,0,8
2852,618.556701030928,4,1,0,65,1,0
2852,-87.338603662819,4,1,0,65,0,0
3161,652.173913043478,4,1,0,65,1,8
3161,-82.8366137832923,4,1,0,65,0,8
4465,674.157303370786,4,1,0,65,1,8
4465,-80.1801801801802,4,1,0,65,0,0
5117,674.157303370787,4,1,0,65,1,8
5117,-80.1354198555761,4,1,0,65,0,8
5454,731.707317073171,4,1,0,65,1,0
5454,-73.8326340242387,4,1,0,65,0,0
6185,722.89156626506,4,1,0,65,1,8
6185,-74.7330320001441,4,1,0,65,0,8
6907,681.818181818182,4,1,0,65,1,8
6907,-79.2350218796708,4,1,0,65,0,8
7588,714.285714285714,4,1,0,65,1,8
7588,-75.6334299760494,4,1,0,65,0,8
8064,750,4,1,0,65,1,8
8064,-72.031838072428,4,1,0,65,0,8
8314,714.285714285714,4,1,0,65,1,0
8314,-75.6334299760494,4,1,0,65,0,0
8552,750,4,1,0,65,1,8
8552,-72.031838072428,4,1,0,65,0,8
10850,535.714285714285,4,1,0,65,1,8
10850,-100.844573301399,4,1,0,65,0,8
11117,535.714285714285,4,1,0,65,1,0
11117,-100.844573301399,4,1,0,65,0,0
11653,512.820512820512,4,1,0,65,1,8
11653,-105.405405405405,4,1,0,65,0,0
11781,606.060606060605,4,1,0,65,1,8
11781,-89.1891891891892,4,1,0,65,0,0
12848,495.867768595041,4,1,0,65,1,8
12848,-108.948155084547,4,1,0,65,0,8
12971,638.297872340425,4,1,0,65,1,8
12971,-84.637409735103,4,1,0,65,0,8
13130,638.297872340425,4,1,0,65,1,0
13130,-84.637409735103,4,1,0,65,0,0
13609,480,4,1,0,65,1,8
13609,-112.549746988169,4,1,0,65,0,8
13729,705.882352941176,4,1,0,65,1,8
13729,-76.5338279519548,4,1,0,65,0,8
14829,468.75,4,1,0,65,1,8
14829,-115.250940915885,4,1,0,65,0,8
14946,705.882352941176,4,1,0,65,1,8
14946,-76.5338279519548,4,1,0,65,0,8
15122,606.060606060606,4,1,0,65,1,0
15122,-89.1393996146297,4,1,0,65,0,0
15425,638.297872340425,4,1,0,65,1,8
15425,-84.637409735103,4,1,0,65,0,8
15744,714.285714285714,4,1,0,65,1,8
15744,-75.6334299760494,4,1,0,65,0,8
16101,769.230769230769,4,1,0,65,1,8
16101,-70.2310421206173,4,1,0,65,0,8
16870,789.473684210526,4,1,0,65,1,8
16870,-68.4302461688066,4,1,0,65,0,8
17264,625,4,1,0,65,1,8
17264,-86.4382056869136,4,1,0,65,0,8
17576,588.235294117647,4,1,0,65,1,8
17576,-91.8405935423457,4,1,0,65,0,8
17870,545.454545454545,4,1,0,65,1,8
17870,-99.0437773495886,4,1,0,65,0,8
18415,540.54054054054,4,1,0,65,1,0
18415,-99.944175325494,4,1,0,65,0,0
18955,681.818181818182,4,1,0,65,1,8
18955,-79.2350218796708,4,1,0,65,0,8
19125,882.35294117647,4,1,0,65,1,8
19125,-61.2270623615639,4,1,0,65,0,8
19345,666.666666666666,4,1,0,65,1,8
19345,-81.0358178314816,4,1,0,65,0,8
20011,916.030534351145,4,1,0,65,1,8
20011,-58.9760674218004,4,1,0,65,0,8
20927,736.196319018405,4,1,0,65,1,0
20927,-73.382435036286,4,1,0,65,0,0
23859,540.23878554321,4,1,0,85,1,0
23859,-100,4,1,0,85,0,0
135823,-100,4,1,0,95,0,0
179312,-100,4,1,0,85,0,0
283038,-100,4,1,0,75,0,0
284659,-100,4,1,0,65,0,0
287360,-100,4,1,0,50,0,0
289386,-100,4,1,0,40,0,0
290872,-100,4,1,0,30,0,0
291749,-100,4,1,0,15,0,0
292357,-100,4,1,0,5,0,0

[HitObjects]
196,105,217,5,0,0:0:0:0:
196,105,342,1,0,0:0:0:0:
231,55,506,1,2,0:0:0:0:
127,157,974,1,2,0:0:0:0:
124,162,1443,1,0,0:0:0:0:
211,125,2555,1,2,0:0:0:0:
211,125,2703,1,0,0:0:0:0:
211,125,2852,1,2,0:0:0:0:
154,112,2929,1,2,0:0:0:0:
139,104,3161,1,2,0:0:0:0:
208,99,3487,1,0,0:0:0:0:
213,49,3813,1,2,0:0:0:0:
213,49,4139,1,2,0:0:0:0:
398,172,4220,1,2,0:0:0:0:
398,172,4465,1,2,0:0:0:0:
398,172,4802,1,0,0:0:0:0:
398,172,5117,1,2,0:0:0:0:
398,172,5454,1,0,0:0:0:0:
161,41,5819,1,2,0:0:0:0:
161,41,6185,1,0,0:0:0:0:
110,146,6907,1,0,0:0:0:0:
304,126,7134,1,0,0:0:0:0:
304,126,7360,1,2,0:0:0:0:
304,126,7588,1,2,0:0:0:0:
304,126,7826,1,0,0:0:0:0:
304,126,8064,1,2,0:0:0:0:
304,126,8314,1,2,0:0:0:0:
304,126,8552,1,0,0:0:0:0:
141,156,8802,1,0,0:0:0:0:
181,122,10850,1,2,0:0:0:0:
181,75,10983,1,0,0:0:0:0:
139,116,11117,1,2,0:0:0:0:
208,60,11653,1,2,0:0:0:0:
208,60,11781,1,2,0:0:0:0:
208,60,11932,1,0,0:0:0:0:
145,133,12848,1,0,0:0:0:0:
176,129,12971,1,2,0:0:0:0:
176,129,13130,1,0,0:0:0:0:
252,116,13609,1,2,0:0:0:0:
252,116,13729,1,0,0:0:0:0:
252,116,13905,1,0,0:0:0:0:
188,143,14829,1,2,0:0:0:0:
188,143,14946,1,0,0:0:0:0:
237,119,15122,1,2,0:0:0:0:
80,137,15425,1,0,0:0:0:0:
204,66,15744,1,0,0:0:0:0:
211,116,16101,1,2,0:0:0:0:
127,132,16485,1,0,0:0:0:0:
280,86,16581,1,2,0:0:0:0:
280,86,16870,1,0,0:0:0:0:
194,135,17264,1,2,0:0:0:0:
194,135,17576,1,0,0:0:0:0:
136,108,17870,1,2,0:0:0:0:
156,156,18415,1,0,0:0:0:0:
194,122,18955,1,0,0:0:0:0:
194,122,19125,1,0,0:0:0:0:
194,122,19345,1,0,0:0:0:0:
144,140,20011,1,2,0:0:0:0:
196,220,20927,1,0,0:0:0:0:
216,122,23859,1,0,0:0:0:0:
101,156,24264,1,0,0:0:0:0:
74,128,24399,1,2,0:0:0:0:
74,128,24669,1,0,0:0:0:0:
74,128,24939,1,0,0:0:0:0:
74,128,25479,1,2,0:0:0:0:
250,85,25749,1,0,0:0:0:0:
74,128,26019,1,0,0:0:0:0:
257,86,26290,1,2,0:0:0:0:
74,128,26425,1,0,0:0:0:0:
74,128,26560,1,2,0:0:0:0:
74,128,26830,1,0,0:0:0:0:
74,128,27100,1,0,0:0:0:0:
74,128,27640,1,2,0:0:0:0:
74,128,27910,1,2,0:0:0:0:
203,153,28045,1,2,0:0:0:0:
74,128,28180,1,0,0:0:0:0:
74,128,28586,1,0,0:0:0:0:
74,128,28721,1,2,0:0:0:0:
74,128,28991,1,0,0:0:0:0:
74,128,29261,1,0,0:0:0:0:
74,128,29801,1,2,0:0:0:0:
74,128,30071,1,2,0:0:0:0:
203,153,30206,1,0,0:0:0:0:
74,128,30341,1,0,0:0:0:0:
74,128,30747,1,0,0:0:0:0:
74,128,30882,1,2,0:0:0:0:
74,128,31152,1,0,0:0:0:0:
179,106,31287,1,0,0:0:0:0:
179,106,31422,1,2,0:0:0:0:
179,106,31557,1,0,0:0:0:0:
179,106,31692,1,2,0:0:0:0:
179,106,31827,1,2,0:0:0:0:
74,128,31962,1,0,0:0:0:0:
74,128,32232,1,0,0:0:0:0:
74,128,32367,1,0,0:0:0:0:
74,128,32502,1,2,0:0:0:0:
74,128,32907,1,0,0:0:0:0:
194,74,33043,1,2,0:0:0:0:
74,128,33313,1,0,0:0:0:0:
74,128,33583,1,0,0:0:0:0:
74,128,34123,1,2,0:0:0:0:
74,128,34393,1,0,0:0:0:0:
74,128,34528,1,2,0:0:0:0:
74,128,34663,1,0,0:0:0:0:
74,128,35068,1,0,0:0:0:0:
74,128,35204,1,2,0:0:0:0:
154,113,35474,1,0,0:0:0:0:
87,162,35744,1,0,0:0:0:0:
154,113,36284,1,2,0:0:0:0:
154,113,36554,1,0,0:0:0:0:
264,99,36644,1,2,0:0:0:0:
264,99,36734,1,2,0:0:0:0:
154,113,36824,1,0,0:0:0:0:
74,128,37635,1,0,0:0:0:0:
74,128,37905,1,2,0:0:0:0:
74,128,38175,1,0,0:0:0:0:
314,119,38310,1,2,0:0:0:0:
74,128,38580,1,0,0:0:0:0:
74,128,38715,1,0,0:0:0:0:
216,75,38985,1,2,0:0:0:0:
74,128,39390,1,2,0:0:0:0:
216,75,39525,1,0,0:0:0:0:
74,128,39796,1,2,0:0:0:0:
74,128,40066,1,0,0:0:0:0:
74,128,40606,1,2,0:0:0:0:
189,162,40876,1,2,0:0:0:0:
189,162,41011,1,0,0:0:0:0:
189,162,41146,1,2,0:0:0:0:
189,162,41551,1,0,0:0:0:0:
153,77,41686,1,2,0:0:0:0:
189,162,41956,1,2,0:0:0:0:
189,162,42227,1,0,0:0:0:0:
189,162,42767,1,2,0:0:0:0:
189,162,43037,1,0,0:0:0:0:
189,162,43172,1,2,0:0:0:0:
189,162,43307,1,0,0:0:0:0:
189,162,43712,1,0,0:0:0:0:
189,162,43847,1,2,0:0:0:0:
189,162,44117,1,2,0:0:0:0:
189,162,44388,1,0,0:0:0:0:
189,162,44928,1,2,0:0:0:0:
189,162,45198,1,2,0:0:0:0:
189,162,45468,1,0,0:0:0:0:
185,71,45873,1,0,0:0:0:0:
185,71,46008,1,2,0:0:0:0:
189,162,46278,1,0,0:0:0:0:
189,162,46549,1,2,0:0:0:0:
189,162,46954,1,2,0:0:0:0:
189,162,47224,1,2,0:0:0:0:
189,162,47359,1,0,0:0:0:0:
189,162,47629,1,0,0:0:0:0:
189,162,48034,1,0,0:0:0:0:
116,89,48169,1,2,0:0:0:0:
189,162,48439,1,0,0:0:0:0:
189,162,48709,1,0,0:0:0:0:
189,162,49250,1,2,0:0:0:0:
175,91,49520,1,0,0:0:0:0:
175,91,49790,1,2,0:0:0:0:
175,91,49925,1,2,0:0:0:0:
175,91,50060,1,0,0:0:0:0:
175,91,50330,1,2,0:0:0:0:
139,120,50735,1,0,0:0:0:0:
264,118,50870,1,0,0:0:0:0:
264,118,51005,1,2,0:0:0:0:
264,118,51411,1,2,0:0:0:0:
151,108,51681,1,0,0:0:0:0:
191,134,51951,1,2,0:0:0:0:
161,52,52086,1,0,0:0:0:0:
161,52,52221,1,0,0:0:0:0:
161,52,52491,1,2,0:0:0:0:
191,134,52896,1,0,0:0:0:0:
191,134,53031,1,2,0:0:0:0:
191,134,53302,1,2,0:0:0:0:
127,156,53707,1,2,0:0:0:0:
191,134,53842,1,2,0:0:0:0:
191,134,54112,1,0,0:0:0:0:
198,103,54652,1,2,0:0:0:0:
171,122,54922,1,0,0:0:0:0:
171,122,55057,1,0,0:0:0:0:
191,134,55192,1,2,0:0:0:0:
171,122,55462,1,0,0:0:0:0:
191,134,55598,1,2,0:0:0:0:
201,104,56003,1,2,0:0:0:0:
217,47,56273,1,0,0:0:0:0:
176,68,56408,1,2,0:0:0:0:
156,100,56543,1,0,0:0:0:0:
201,104,56813,1,2,0:0:0:0:
192,105,57083,1,0,0:0:0:0:
192,105,57353,1,0,0:0:0:0:
187,107,57623,1,2,0:0:0:0:
187,107,57758,1,2,0:0:0:0:
192,105,57894,1,0,0:0:0:0:
192,105,58029,1,2,0:0:0:0:
192,105,58164,1,0,0:0:0:0:
187,107,58434,1,0,0:0:0:0:
192,105,58839,1,0,0:0:0:0:
192,105,58974,1,2,0:0:0:0:
187,107,59244,1,0,0:0:0:0:
183,108,59514,1,2,0:0:0:0:
183,108,59649,1,2,0:0:0:0:
183,108,59919,1,2,0:0:0:0:
177,57,60325,1,0,0:0:0:0:
177,57,60460,1,2,0:0:0:0:
177,57,60595,1,0,0:0:0:0:
183,108,60730,1,0,0:0:0:0:
267,126,61000,1,0,0:0:0:0:
183,108,61135,1,2,0:0:0:0:
183,108,61405,1,0,0:0:0:0:
183,108,61810,1,2,0:0:0:0:
183,108,61945,1,0,0:0:0:0:
183,108,62080,1,0,0:0:0:0:
221,127,62215,1,2,0:0:0:0:
221,127,62486,1,2,0:0:0:0:
221,127,62756,1,0,0:0:0:0:
173,81,63296,1,2,0:0:0:0:
221,127,63566,1,2,0:0:0:0:
221,127,63836,1,0,0:0:0:0:
221,127,64106,1,2,0:0:0:0:
242,137,64241,1,0,0:0:0:0:
221,127,64511,1,2,0:0:0:0:
187,147,64917,1,2,0:0:0:0:
175,103,65187,1,0,0:0:0:0:
187,147,65592,1,2,0:0:0:0:
187,147,65727,1,0,0:0:0:0:
187,147,65997,1,2,0:0:0:0:
179,101,66537,1,2,0:0:0:0:
179,101,66807,1,0,0:0:0:0:
179,101,67078,1,0,0:0:0:0:
179,101,67213,1,2,0:0:0:0:
179,101,67348,1,2,0:0:0:0:
179,101,67618,1,2,0:0:0:0:
179,101,67888,1,0,0:0:0:0:
179,101,68023,1,0,0:0:0:0:
179,101,68158,1,2,0:0:0:0:
179,101,68698,1,2,0:0:0:0:
179,101,68833,1,0,0:0:0:0:
179,101,68968,1,0,0:0:0:0:
179,101,69239,1,0,0:0:0:0:
179,101,69644,1,2,0:0:0:0:
179,101,69914,1,0,0:0:0:0:
179,101,70184,1,0,0:0:0:0:
179,101,70319,1,2,0:0:0:0:
179,101,70589,1,2,0:0:0:0:
179,101,70724,1,2,0:0:0:0:
179,101,71129,1,2,0:0:0:0:
179,101,71400,1,0,0:0:0:0:
179,101,71535,1,2,0:0:0:0:
179,101,71670,1,2,0:0:0:0:
179,101,71940,1,0,0:0:0:0:
179,101,72210,1,0,0:0:0:0:
179,101,72345,1,0,0:0:0:0:
144,137,72480,1,2,0:0:0:0:
179,101,73020,1,2,0:0:0:0:
179,101,73155,1,0,0:0:0:0:
179,101,73290,1,0,0:0:0:0:
234,117,73560,1,0,0:0:0:0:
179,101,73966,1,0,0:0:0:0:
179,101,74236,1,2,0:0:0:0:
179,101,74506,1,0,0:0:0:0:
179,101,74641,1,2,0:0:0:0:
179,101,74776,1,2,0:0:0:0:
176,109,74911,1,0,0:0:0:0:
179,101,75181,1,2,0:0:0:0:
179,101,75721,1,0,0:0:0:0:
179,101,75856,1,2,0:0:0:0:
179,101,75992,1,2,0:0:0:0:
179,101,76262,1,2,0:0:0:0:
179,101,76532,1,0,0:0:0:0:
179,101,76667,1,0,0:0:0:0:
179,101,76802,1,2,0:0:0:0:
179,101,77342,1,2,0:0:0:0:
179,101,77477,1,0,0:0:0:0:
179,101,77612,1,0,0:0:0:0:
179,101,77882,1,0,0:0:0:0:
179,101,78288,1,2,0:0:0:0:
179,101,78558,1,0,0:0:0:0:
179,101,78828,1,0,0:0:0:0:
179,101,78963,1,2,0:0:0:0:
179,101,79233,1,2,0:0:0:0:
179,101,79368,1,2,0:0:0:0:
178,90,79773,1,0,0:0:0:0:
179,101,80043,1,0,0:0:0:0:
179,101,80178,1,2,0:0:0:0:
184,98,80313,1,2,0:0:0:0:
186,97,80584,1,2,0:0:0:0:
186,97,80854,1,0,0:0:0:0:
188,95,80989,1,0,0:0:0:0:
191,95,81124,1,2,0:0:0:0:
196,93,81664,1,2,0:0:0:0:
196,91,81799,1,0,0:0:0:0:
196,90,81934,1,0,0:0:0:0:
196,93,82204,1,0,0:0:0:0:
111,146,82474,1,0,0:0:0:0:
198,87,82609,1,2,0:0:0:0:
202,49,83015,1,0,0:0:0:0:
197,86,83150,1,0,0:0:0:0:
197,86,83285,1,2,0:0:0:0:
198,87,83555,1,0,0:0:0:0:
197,83,83825,1,2,0:0:0:0:
155,106,83960,1,0,0:0:0:0:
186,93,84095,1,2,0:0:0:0:
194,112,84230,1,0,0:0:0:0:
159,157,84365,1,0,0:0:0:0:
197,80,84500,1,2,0:0:0:0:
182,95,84770,1,2,0:0:0:0:
180,97,85176,1,0,0:0:0:0:
205,165,85446,1,0,0:0:0:0:
181,97,85986,1,2,0:0:0:0:
180,97,86256,1,0,0:0:0:0:
180,97,86391,1,2,0:0:0:0:
181,97,86526,1,0,0:0:0:0:
181,97,86931,1,2,0:0:0:0:
180,97,87066,1,2,0:0:0:0:
180,97,87337,1,2,0:0:0:0:
181,97,87607,1,0,0:0:0:0:
180,97,88147,1,2,0:0:0:0:
180,97,88417,1,0,0:0:0:0:
180,97,88507,1,2,0:0:0:0:
181,97,88597,1,2,0:0:0:0:
176,103,88687,1,0,0:0:0:0:
180,97,89227,1,2,0:0:0:0:
181,97,89498,1,0,0:0:0:0:
180,97,89768,1,2,0:0:0:0:
180,97,90173,1,2,0:0:0:0:
181,97,90443,1,2,0:0:0:0:
180,97,90578,1,0,0:0:0:0:
180,97,90848,1,0,0:0:0:0:
163,159,91253,1,0,0:0:0:0:
163,159,91388,1,2,0:0:0:0:
180,97,91658,1,0,0:0:0:0:
181,97,91929,1,0,0:0:0:0:
180,97,92469,1,2,0:0:0:0:
228,173,92604,1,0,0:0:0:0:
228,173,92739,1,2,0:0:0:0:
228,173,92874,1,2,0:0:0:0:
180,97,93009,1,0,0:0:0:0:
228,173,93279,1,2,0:0:0:0:
228,173,93414,1,0,0:0:0:0:
228,173,93549,1,2,0:0:0:0:
228,173,93954,1,2,0:0:0:0:
125,165,94090,1,0,0:0:0:0:
125,165,94225,1,0,0:0:0:0:
228,173,94495,1,0,0:0:0:0:
186,108,94630,1,2,0:0:0:0:
212,59,94900,1,2,0:0:0:0:
212,59,95035,1,0,0:0:0:0:
212,59,95170,1,2,0:0:0:0:
212,59,95305,1,2,0:0:0:0:
212,59,95710,1,2,0:0:0:0:
212,59,95980,1,2,0:0:0:0:
212,59,96250,1,0,0:0:0:0:
200,152,96791,1,2,0:0:0:0:
236,123,97061,1,0,0:0:0:0:
236,123,97331,1,0,0:0:0:0:
209,158,97736,1,0,0:0:0:0:
209,158,97871,1,2,0:0:0:0:
209,158,98006,1,0,0:0:0:0:
209,158,98141,1,0,0:0:0:0:
209,158,98276,1,2,0:0:0:0:
209,158,98547,1,2,0:0:0:0:
209,158,98817,1,2,0:0:0:0:
171,127,98952,1,0,0:0:0:0:
171,127,99222,1,2,0:0:0:0:
171,127,99357,1,0,0:0:0:0:
171,127,99492,1,2,0:0:0:0:
110,110,99627,1,2,0:0:0:0:
117,109,99762,1,0,0:0:0:0:
119,108,100302,1,2,0:0:0:0:
216,118,100437,1,2,0:0:0:0:
119,108,100572,1,0,0:0:0:0:
216,118,100707,1,2,0:0:0:0:
216,118,100843,1,0,0:0:0:0:
216,118,100978,1,0,0:0:0:0:
211,121,101248,1,0,0:0:0:0:
216,118,101383,1,2,0:0:0:0:
216,118,101653,1,2,0:0:0:0:
209,122,101788,1,2,0:0:0:0:
209,122,101923,1,0,0:0:0:0:
225,55,102193,1,2,0:0:0:0:
225,55,102733,1,2,0:0:0:0:
225,55,103003,1,0,0:0:0:0:
225,55,103139,1,0,0:0:0:0:
225,55,103409,1,2,0:0:0:0:
296,70,103679,1,2,0:0:0:0:
105,136,103814,1,0,0:0:0:0:
263,142,103949,1,0,0:0:0:0:
135,140,104084,1,2,0:0:0:0:
135,140,104354,1,2,0:0:0:0:
135,140,104624,1,0,0:0:0:0:
135,140,104894,1,0,0:0:0:0:
135,140,105435,1,2,0:0:0:0:
135,140,105705,1,0,0:0:0:0:
135,140,105840,1,2,0:0:0:0:
135,140,105975,1,0,0:0:0:0:
135,140,106110,1,0,0:0:0:0:
226,166,106380,1,2,0:0:0:0:
226,166,106650,1,2,0:0:0:0:
226,166,106785,1,0,0:0:0:0:
226,166,106920,1,2,0:0:0:0:
226,166,107460,1,0,0:0:0:0:
226,166,107596,1,2,0:0:0:0:
220,167,107731,1,0,0:0:0:0:
152,152,108001,1,2,0:0:0:0:
152,152,108136,1,2,0:0:0:0:
139,153,108541,1,2,0:0:0:0:
139,153,108676,1,0,0:0:0:0:
139,153,108811,1,0,0:0:0:0:
152,152,108946,1,2,0:0:0:0:
152,152,109216,1,0,0:0:0:0:
152,152,109756,1,2,0:0:0:0:
221,103,110027,1,2,0:0:0:0:
221,103,110297,1,0,0:0:0:0:
177,19,110432,1,2,0:0:0:0:
177,19,110567,1,2,0:0:0:0:
235,82,110837,1,2,0:0:0:0:
235,82,111107,1,0,0:0:0:0:
177,19,111242,1,0,0:0:0:0:
177,19,111377,1,2,0:0:0:0:
235,82,111917,1,2,0:0:0:0:
177,19,112052,1,0,0:0:0:0:
177,19,112188,1,0,0:0:0:0:
235,82,112458,1,0,0:0:0:0:
177,19,112863,1,2,0:0:0:0:
177,19,113133,1,0,0:0:0:0:
177,19,113403,1,0,0:0:0:0:
177,19,113538,1,2,0:0:0:0:
177,19,113808,1,2,0:0:0:0:
177,19,113943,1,2,0:0:0:0:
177,19,114348,1,2,0:0:0:0:
177,19,114619,1,0,0:0:0:0:
177,19,114754,1,2,0:0:0:0:
177,19,114889,1,2,0:0:0:0:
177,19,115159,1,2,0:0:0:0:
177,19,115429,1,0,0:0:0:0:
177,19,115564,1,0,0:0:0:0:
177,19,115699,1,2,0:0:0:0:
177,19,116239,1,2,0:0:0:0:
177,19,116374,1,0,0:0:0:0:
177,19,116509,1,0,0:0:0:0:
177,19,116780,1,0,0:0:0:0:
177,19,117185,1,0,0:0:0:0:
177,19,117455,1,2,0:0:0:0:
177,19,117725,1,0,0:0:0:0:
157,136,117860,1,2,0:0:0:0:
177,19,117995,1,2,0:0:0:0:
177,19,118130,1,0,0:0:0:0:
177,19,118400,1,2,0:0:0:0:
177,19,118670,1,2,0:0:0:0:
177,19,118941,1,0,0:0:0:0:
177,19,119076,1,2,0:0:0:0:
177,19,119211,1,2,0:0:0:0:
177,19,119481,1,2,0:0:0:0:
177,19,119751,1,0,0:0:0:0:
177,19,119886,1,0,0:0:0:0:
177,19,120021,1,2,0:0:0:0:
177,19,120561,1,2,0:0:0:0:
177,19,120696,1,0,0:0:0:0:
177,19,120831,1,0,0:0:0:0:
177,19,121101,1,0,0:0:0:0:
177,19,121507,1,0,0:0:0:0:
177,19,121777,1,2,0:0:0:0:
177,19,122047,1,0,0:0:0:0:
177,19,122182,1,2,0:0:0:0:
177,19,122452,1,2,0:0:0:0:
177,19,122587,1,2,0:0:0:0:
184,152,122722,1,0,0:0:0:0:
184,152,122857,1,0,0:0:0:0:
177,19,122992,1,2,0:0:0:0:
177,19,123262,1,0,0:0:0:0:
177,19,123397,1,2,0:0:0:0:
177,19,123533,1,2,0:0:0:0:
177,19,123803,1,0,0:0:0:0:
177,19,124073,1,0,0:0:0:0:
177,19,124208,1,0,0:0:0:0:
177,19,124343,1,2,0:0:0:0:
177,19,124883,1,2,0:0:0:0:
177,19,125018,1,0,0:0:0:0:
177,19,125153,1,0,0:0:0:0:
177,19,125423,1,0,0:0:0:0:
177,19,125694,1,0,0:0:0:0:
177,19,125829,1,2,0:0:0:0:
183,186,126369,1,0,0:0:0:0:
202,49,126504,1,2,0:0:0:0:
197,86,126639,1,2,0:0:0:0:
197,86,126774,1,0,0:0:0:0:
198,87,127044,1,0,0:0:0:0:
197,83,127314,1,2,0:0:0:0:
155,106,127449,1,0,0:0:0:0:
186,93,127584,1,2,0:0:0:0:
194,112,127719,1,0,0:0:0:0:
159,157,127854,1,0,0:0:0:0:
197,80,127989,1,2,0:0:0:0:
182,95,128259,1,2,0:0:0:0:
177,19,128395,1,0,0:0:0:0:
177,19,128665,1,0,0:0:0:0:
177,19,129205,1,2,0:0:0:0:
177,19,129475,1,0,0:0:0:0:
177,19,129610,1,2,0:0:0:0:
177,19,129745,1,0,0:0:0:0:
177,19,130150,1,0,0:0:0:0:
177,19,130286,1,2,0:0:0:0:
177,19,130556,1,2,0:0:0:0:
177,19,130826,1,0,0:0:0:0:
177,19,131366,1,2,0:0:0:0:
177,19,131636,1,0,0:0:0:0:
177,19,131906,1,0,0:0:0:0:
129,114,132311,1,0,0:0:0:0:
177,19,132446,1,2,0:0:0:0:
177,19,132717,1,0,0:0:0:0:
177,19,132987,1,2,0:0:0:0:
177,19,133392,1,2,0:0:0:0:
177,19,133662,1,2,0:0:0:0:
177,19,133797,1,0,0:0:0:0:
177,19,134067,1,0,0:0:0:0:
177,19,134472,1,0,0:0:0:0:
177,19,134607,1,2,0:0:0:0:
177,19,134878,1,2,0:0:0:0:
177,19,135148,1,0,0:0:0:0:
131,147,135283,1,0,0:0:0:0:
131,147,135418,1,2,0:0:0:0:
177,19,135688,1,2,0:0:0:0:
166,155,135958,1,2,0:0:0:0:
166,155,136093,1,0,0:0:0:0:
177,19,136228,1,2,0:0:0:0:
395,264,136296,1,2,0:0:0:0:
174,144,136633,1,2,0:0:0:0:
174,144,137039,1,0,0:0:0:0:
174,144,137444,1,0,0:0:0:0:
174,144,137849,1,2,0:0:0:0:
212,104,137916,1,2,0:0:0:0:
174,144,138254,1,0,0:0:0:0:
174,144,138659,1,2,0:0:0:0:
174,144,139064,1,2,0:0:0:0:
174,144,139470,1,0,0:0:0:0:
174,144,140010,1,2,0:0:0:0:
174,144,140280,1,2,0:0:0:0:
174,144,140415,1,0,0:0:0:0:
241,117,141360,1,0,0:0:0:0:
241,117,141495,1,0,0:0:0:0:
241,117,141631,1,2,0:0:0:0:
241,117,142306,1,0,0:0:0:0:
241,117,142441,1,2,0:0:0:0:
107,123,142576,1,2,0:0:0:0:
241,117,142981,1,0,0:0:0:0:
241,117,143116,1,0,0:0:0:0:
241,117,144332,1,2,0:0:0:0:
146,95,144467,1,0,0:0:0:0:
146,95,144602,1,2,0:0:0:0:
146,95,144872,1,2,0:0:0:0:
177,46,144940,1,2,0:0:0:0:
146,95,145277,1,0,0:0:0:0:
146,95,145682,1,2,0:0:0:0:
146,95,146088,1,2,0:0:0:0:
245,128,146155,1,2,0:0:0:0:
146,95,146493,1,0,0:0:0:0:
146,95,146898,1,2,0:0:0:0:
146,95,147303,1,0,0:0:0:0:
146,95,147708,1,2,0:0:0:0:
173,36,147978,1,0,0:0:0:0:
146,95,148113,1,2,0:0:0:0:
146,95,148519,1,2,0:0:0:0:
173,36,148789,1,2,0:0:0:0:
146,95,148924,1,2,0:0:0:0:
146,95,149329,1,0,0:0:0:0:
146,95,149734,1,2,0:0:0:0:
146,95,150544,1,2,0:0:0:0:
146,95,150950,1,2,0:0:0:0:
227,108,151085,1,0,0:0:0:0:
146,95,151355,1,2,0:0:0:0:
146,95,151760,1,2,0:0:0:0:
146,95,152165,1,0,0:0:0:0:
146,95,152976,1,2,0:0:0:0:
195,79,153651,1,0,0:0:0:0:
195,79,153786,1,2,0:0:0:0:
195,79,153921,1,0,0:0:0:0:
195,79,154191,1,2,0:0:0:0:
184,77,154326,1,0,0:0:0:0:
184,77,154461,1,2,0:0:0:0:
186,75,154596,1,2,0:0:0:0:
143,72,154731,1,0,0:0:0:0:
186,75,154866,1,2,0:0:0:0:
183,74,155001,1,0,0:0:0:0:
180,70,155272,1,2,0:0:0:0:
171,85,155407,1,0,0:0:0:0:
163,87,155542,1,0,0:0:0:0:
151,92,155677,1,2,0:0:0:0:
155,90,155947,1,2,0:0:0:0:
153,88,156082,1,2,0:0:0:0:
155,90,156487,1,2,0:0:0:0:
131,92,156622,1,0,0:0:0:0:
121,92,157027,1,0,0:0:0:0:
120,92,157162,1,0,0:0:0:0:
118,92,157568,1,2,0:0:0:0:
120,92,158108,1,2,0:0:0:0:
118,92,158513,1,2,0:0:0:0:
120,92,158918,1,0,0:0:0:0:
118,92,159323,1,0,0:0:0:0:
120,92,159729,1,2,0:0:0:0:
118,92,160134,1,0,0:0:0:0:
120,92,160539,1,0,0:0:0:0:
118,92,161079,1,2,0:0:0:0:
120,92,161484,1,0,0:0:0:0:
118,92,161890,1,0,0:0:0:0:
120,92,162160,1,0,0:0:0:0:
83,130,162295,1,0,0:0:0:0:
89,130,162430,1,2,0:0:0:0:
162,130,162700,1,2,0:0:0:0:
162,130,162970,1,2,0:0:0:0:
162,130,163105,1,0,0:0:0:0:
162,130,163240,1,2,0:0:0:0:
215,85,163375,1,2,0:0:0:0:
215,85,163510,1,2,0:0:0:0:
217,91,163780,1,2,0:0:0:0:
162,130,164050,1,0,0:0:0:0:
168,34,164186,1,2,0:0:0:0:
162,130,164321,1,0,0:0:0:0:
162,130,164591,1,2,0:0:0:0:
181,32,164726,1,2,0:0:0:0:
226,36,164996,1,0,0:0:0:0:
162,130,165266,1,2,0:0:0:0:
227,147,165536,1,0,0:0:0:0:
227,147,165671,1,0,0:0:0:0:
227,147,165806,1,2,0:0:0:0:
227,147,166076,1,0,0:0:0:0:
227,147,166211,1,0,0:0:0:0:
227,147,166346,1,2,0:0:0:0:
221,146,166617,1,0,0:0:0:0:
221,146,166887,1,2,0:0:0:0:
221,146,167157,1,2,0:0:0:0:
221,146,167427,1,0,0:0:0:0:
221,146,167697,1,0,0:0:0:0:
221,146,168102,1,2,0:0:0:0:
221,146,168237,1,2,0:0:0:0:
186,118,168372,1,0,0:0:0:0:
186,118,168507,1,2,0:0:0:0:
186,118,168642,1,0,0:0:0:0:
186,118,168913,1,2,0:0:0:0:
186,118,169048,1,0,0:0:0:0:
186,118,169858,1,2,0:0:0:0:
145,99,170128,1,0,0:0:0:0:
145,99,170263,1,0,0:0:0:0:
145,99,170803,1,2,0:0:0:0:
145,99,171074,1,2,0:0:0:0:
145,99,171209,1,0,0:0:0:0:
145,99,171614,1,0,0:0:0:0:
145,99,171884,1,2,0:0:0:0:
145,99,172019,1,0,0:0:0:0:
145,99,172424,1,2,0:0:0:0:
145,99,172694,1,0,0:0:0:0:
145,99,172829,1,0,0:0:0:0:
145,99,173235,1,2,0:0:0:0:
145,99,173640,1,0,0:0:0:0:
145,99,174045,1,2,0:0:0:0:
259,130,174112,1,2,0:0:0:0:
263,133,174315,1,0,0:0:0:0:
145,99,174450,1,0,0:0:0:0:
145,99,174855,1,0,0:0:0:0:
261,134,174990,1,2,0:0:0:0:
208,54,175395,1,2,0:0:0:0:
208,54,175531,1,0,0:0:0:0:
270,95,175936,1,0,0:0:0:0:
270,95,176206,1,2,0:0:0:0:
270,95,176746,1,0,0:0:0:0:
270,95,177016,1,0,0:0:0:0:
173,83,177151,1,0,0:0:0:0:
236,138,177556,1,2,0:0:0:0:
236,138,177962,1,0,0:0:0:0:
236,138,178367,1,2,0:0:0:0:
236,138,178907,1,0,0:0:0:0:
209,115,179447,1,0,0:0:0:0:
209,115,179582,1,2,0:0:0:0:
209,115,179717,1,2,0:0:0:0:
209,115,179988,1,2,0:0:0:0:
209,115,180258,1,0,0:0:0:0:
209,115,180393,1,0,0:0:0:0:
209,115,180528,1,2,0:0:0:0:
209,115,181068,1,2,0:0:0:0:
209,115,181203,1,0,0:0:0:0:
209,115,181338,1,0,0:0:0:0:
209,115,181608,1,0,0:0:0:0:
209,115,182013,1,2,0:0:0:0:
209,115,182284,1,2,0:0:0:0:
209,115,182554,1,2,0:0:0:0:
209,115,182689,1,2,0:0:0:0:
209,115,182959,1,2,0:0:0:0:
209,115,183094,1,2,0:0:0:0:
209,115,183769,1,0,0:0:0:0:
209,115,183904,1,2,0:0:0:0:
209,115,184039,1,2,0:0:0:0:
209,115,184309,1,2,0:0:0:0:
209,115,184580,1,0,0:0:0:0:
209,115,184715,1,0,0:0:0:0:
209,115,184850,1,2,0:0:0:0:
209,115,185390,1,2,0:0:0:0:
209,115,185525,1,0,0:0:0:0:
209,115,185660,1,0,0:0:0:0:
209,115,185930,1,0,0:0:0:0:
209,115,186335,1,2,0:0:0:0:
209,115,186605,1,2,0:0:0:0:
209,115,186876,1,2,0:0:0:0:
209,115,187011,1,2,0:0:0:0:
209,115,187281,1,2,0:0:0:0:
209,115,187416,1,2,0:0:0:0:
163,228,187821,1,0,0:0:0:0:
163,228,187956,1,0,0:0:0:0:
19,163,188091,1,2,0:0:0:0:
185,61,188361,1,0,0:0:0:0:
185,61,188496,1,2,0:0:0:0:
179,66,188901,1,0,0:0:0:0:
179,66,189172,1,2,0:0:0:0:
179,66,189307,1,2,0:0:0:0:
179,66,189577,1,2,0:0:0:0:
96,168,189712,1,0,0:0:0:0:
160,147,190117,1,0,0:0:0:0:
179,66,190252,1,2,0:0:0:0:
160,147,190387,1,0,0:0:0:0:
160,147,190657,1,0,0:0:0:0:
160,147,190792,1,2,0:0:0:0:
250,95,191197,1,2,0:0:0:0:
250,95,191366,1,0,0:0:0:0:
250,95,191535,1,2,0:0:0:0:
170,107,191704,1,0,0:0:0:0:
179,66,191873,1,2,0:0:0:0:
179,66,192413,1,2,0:0:0:0:
91,124,193223,1,2,0:0:0:0:
91,124,193358,1,0,0:0:0:0:
179,66,193493,1,2,0:0:0:0:
179,66,193629,1,2,0:0:0:0:
179,66,193899,1,2,0:0:0:0:
100,168,194034,1,0,0:0:0:0:
221,144,194304,1,0,0:0:0:0:
179,66,194439,1,2,0:0:0:0:
221,144,194574,1,0,0:0:0:0:
218,130,194709,1,0,0:0:0:0:
221,144,194979,1,2,0:0:0:0:
216,131,195114,1,0,0:0:0:0:
221,144,195384,1,2,0:0:0:0:
179,66,195654,1,0,0:0:0:0:
179,66,196195,1,2,0:0:0:0:
165,181,196465,1,0,0:0:0:0:
165,181,196600,1,0,0:0:0:0:
179,66,196735,1,2,0:0:0:0:
160,182,196870,1,2,0:0:0:0:
160,182,197005,1,0,0:0:0:0:
160,182,197275,1,2,0:0:0:0:
160,182,197680,1,2,0:0:0:0:
179,66,197815,1,2,0:0:0:0:
160,182,197950,1,0,0:0:0:0:
160,182,198086,1,0,0:0:0:0:
179,66,198356,1,2,0:0:0:0:
160,182,198761,1,0,0:0:0:0:
179,66,198896,1,2,0:0:0:0:
160,182,199031,1,0,0:0:0:0:
160,182,199166,1,0,0:0:0:0:
160,182,199301,1,2,0:0:0:0:
179,66,199706,1,2,0:0:0:0:
179,66,199841,1,2,0:0:0:0:
166,161,199976,1,0,0:0:0:0:
166,161,200111,1,2,0:0:0:0:
179,66,200246,1,0,0:0:0:0:
179,66,200652,1,2,0:0:0:0:
179,66,200787,1,2,0:0:0:0:
179,66,201057,1,0,0:0:0:0:
174,134,201462,1,0,0:0:0:0:
174,134,201597,1,2,0:0:0:0:
179,66,201867,1,2,0:0:0:0:
205,150,202002,1,0,0:0:0:0:
179,66,202137,1,2,0:0:0:0:
179,66,202542,1,2,0:0:0:0:
205,150,202678,1,0,0:0:0:0:
179,66,202813,1,0,0:0:0:0:
192,159,202948,1,2,0:0:0:0:
171,100,203218,1,0,0:0:0:0:
179,66,203353,1,2,0:0:0:0:
179,66,203623,1,2,0:0:0:0:
191,120,203758,1,2,0:0:0:0:
191,120,203893,1,2,0:0:0:0:
191,120,204028,1,0,0:0:0:0:
202,124,204298,1,0,0:0:0:0:
202,124,204838,1,2,0:0:0:0:
202,124,205109,1,0,0:0:0:0:
202,124,205379,1,0,0:0:0:0:
179,66,205514,1,2,0:0:0:0:
179,66,205649,1,2,0:0:0:0:
202,124,205919,1,2,0:0:0:0:
202,124,206189,1,0,0:0:0:0:
202,124,206324,1,0,0:0:0:0:
202,124,206459,1,2,0:0:0:0:
202,124,206999,1,2,0:0:0:0:
202,124,207135,1,0,0:0:0:0:
202,124,207270,1,0,0:0:0:0:
202,124,207540,1,0,0:0:0:0:
202,124,207945,1,2,0:0:0:0:
202,124,208215,1,0,0:0:0:0:
202,124,208485,1,0,0:0:0:0:
202,124,208620,1,2,0:0:0:0:
202,124,208890,1,2,0:0:0:0:
202,124,209025,1,2,0:0:0:0:
202,124,209431,1,2,0:0:0:0:
202,124,209701,1,0,0:0:0:0:
202,124,209836,1,2,0:0:0:0:
202,124,209971,1,2,0:0:0:0:
202,124,210241,1,2,0:0:0:0:
202,124,210511,1,0,0:0:0:0:
202,124,210646,1,0,0:0:0:0:
202,124,210781,1,2,0:0:0:0:
202,124,211321,1,2,0:0:0:0:
202,124,211456,1,0,0:0:0:0:
202,124,211591,1,0,0:0:0:0:
202,124,211862,1,0,0:0:0:0:
202,124,212267,1,2,0:0:0:0:
202,124,212537,1,0,0:0:0:0:
202,124,212807,1,2,0:0:0:0:
202,124,213077,1,2,0:0:0:0:
202,124,213212,1,2,0:0:0:0:
202,124,213482,1,2,0:0:0:0:
202,124,213752,1,0,0:0:0:0:
202,124,214023,1,0,0:0:0:0:
202,124,214158,1,2,0:0:0:0:
202,124,214293,1,2,0:0:0:0:
202,124,214563,1,2,0:0:0:0:
202,124,214833,1,0,0:0:0:0:
202,124,214968,1,0,0:0:0:0:
202,124,215103,1,2,0:0:0:0:
202,124,215643,1,2,0:0:0:0:
202,124,215778,1,0,0:0:0:0:
202,124,215913,1,0,0:0:0:0:
202,124,216184,1,0,0:0:0:0:
202,124,216589,1,2,0:0:0:0:
197,128,216859,1,0,0:0:0:0:
196,129,217129,1,0,0:0:0:0:
191,132,217264,1,2,0:0:0:0:
186,134,217534,1,2,0:0:0:0:
179,137,217669,1,2,0:0:0:0:
176,139,218074,1,2,0:0:0:0:
169,141,218344,1,0,0:0:0:0:
160,142,218480,1,2,0:0:0:0:
156,143,218615,1,2,0:0:0:0:
151,150,218885,1,2,0:0:0:0:
147,149,219155,1,0,0:0:0:0:
142,150,219290,1,0,0:0:0:0:
138,153,219425,1,2,0:0:0:0:
131,157,219830,1,2,0:0:0:0:
125,155,220100,1,0,0:0:0:0:
118,160,220370,1,0,0:0:0:0:
112,158,220505,1,2,0:0:0:0:
189,95,220640,1,2,0:0:0:0:
109,160,220911,1,2,0:0:0:0:
101,158,221046,1,2,0:0:0:0:
189,95,221181,1,0,0:0:0:0:
96,160,221451,1,2,0:0:0:0:
93,160,221586,1,0,0:0:0:0:
90,163,221721,1,0,0:0:0:0:
78,174,221856,1,2,0:0:0:0:
72,173,221991,1,2,0:0:0:0:
70,174,222126,1,0,0:0:0:0:
67,175,222261,1,0,0:0:0:0:
278,118,222396,1,2,0:0:0:0:
57,187,222666,1,2,0:0:0:0:
203,108,222936,1,0,0:0:0:0:
37,202,223072,1,2,0:0:0:0:
29,202,223477,1,2,0:0:0:0:
204,100,223612,1,0,0:0:0:0:
204,100,223747,1,2,0:0:0:0:
204,100,224017,1,0,0:0:0:0:
204,100,224152,1,2,0:0:0:0:
18,202,224422,1,2,0:0:0:0:
148,83,224557,1,2,0:0:0:0:
148,83,224692,1,0,0:0:0:0:
182,110,224827,1,2,0:0:0:0:
232,116,224962,1,0,0:0:0:0:
223,117,225097,1,2,0:0:0:0:
232,116,225368,1,2,0:0:0:0:
223,117,225503,1,0,0:0:0:0:
148,83,225638,1,0,0:0:0:0:
207,72,225773,1,2,0:0:0:0:
223,117,226043,1,0,0:0:0:0:
148,83,226448,1,2,0:0:0:0:
148,83,226988,1,0,0:0:0:0:
164,124,227123,1,2,0:0:0:0:
148,83,227393,1,2,0:0:0:0:
172,124,227664,1,0,0:0:0:0:
148,83,227934,1,2,0:0:0:0:
148,83,228204,1,2,0:0:0:0:
183,29,228339,1,2,0:0:0:0:
148,83,228474,1,0,0:0:0:0:
148,83,228609,1,2,0:0:0:0:
148,83,228879,1,0,0:0:0:0:
204,32,229014,1,2,0:0:0:0:
239,61,229419,1,2,0:0:0:0:
148,83,229554,1,0,0:0:0:0:
148,83,230500,1,0,0:0:0:0:
187,93,230635,1,0,0:0:0:0:
148,83,230770,1,2,0:0:0:0:
187,93,230905,1,0,0:0:0:0:
148,83,231040,1,2,0:0:0:0:
148,83,231310,1,0,0:0:0:0:
173,44,231445,1,0,0:0:0:0:
173,44,231580,1,0,0:0:0:0:
173,44,231715,1,2,0:0:0:0:
173,44,232121,1,0,0:0:0:0:
173,44,232256,1,0,0:0:0:0:
173,44,232391,1,2,0:0:0:0:
173,44,232526,1,2,0:0:0:0:
173,44,232661,1,0,0:0:0:0:
173,44,232931,1,0,0:0:0:0:
169,47,233066,1,2,0:0:0:0:
173,44,233201,1,0,0:0:0:0:
173,44,233471,1,0,0:0:0:0:
211,52,233741,1,2,0:0:0:0:
195,41,233876,1,0,0:0:0:0:
195,41,234011,1,2,0:0:0:0:
195,41,234146,1,2,0:0:0:0:
195,41,234282,1,0,0:0:0:0:
166,106,234552,1,2,0:0:0:0:
195,41,234822,1,2,0:0:0:0:
195,41,234957,1,0,0:0:0:0:
195,41,235227,1,0,0:0:0:0:
187,29,235362,1,2,0:0:0:0:
191,139,235632,1,2,0:0:0:0:
191,139,235767,1,0,0:0:0:0:
195,41,236037,1,0,0:0:0:0:
191,139,236172,1,2,0:0:0:0:
195,41,236442,1,0,0:0:0:0:
195,41,236578,1,0,0:0:0:0:
195,41,236848,1,2,0:0:0:0:
195,41,237118,1,0,0:0:0:0:
195,41,237253,1,0,0:0:0:0:
144,129,237523,1,2,0:0:0:0:
144,129,237658,1,0,0:0:0:0:
195,41,237928,1,2,0:0:0:0:
305,152,238198,1,2,0:0:0:0:
305,152,238333,1,0,0:0:0:0:
305,152,238603,1,0,0:0:0:0:
305,152,238738,1,0,0:0:0:0:
305,152,239144,1,2,0:0:0:0:
305,152,239414,1,0,0:0:0:0:
305,152,239549,1,0,0:0:0:0:
305,152,239684,1,2,0:0:0:0:
305,152,239819,1,2,0:0:0:0:
305,152,240089,1,0,0:0:0:0:
305,152,240494,1,0,0:0:0:0:
96,142,240629,1,2,0:0:0:0:
305,152,240764,1,0,0:0:0:0:
305,152,240899,1,2,0:0:0:0:
305,152,241170,1,0,0:0:0:0:
193,77,241845,1,0,0:0:0:0:
305,152,241980,1,2,0:0:0:0:
305,152,242250,1,2,0:0:0:0:
305,152,242520,1,0,0:0:0:0:
299,148,242790,1,2,0:0:0:0:
299,148,243060,1,0,0:0:0:0:
297,150,243331,1,0,0:0:0:0:
187,55,243736,1,2,0:0:0:0:
283,150,244006,1,0,0:0:0:0:
273,150,244276,1,0,0:0:0:0:
191,148,244411,1,2,0:0:0:0:
197,147,244546,1,0,0:0:0:0:
191,148,244816,1,2,0:0:0:0:
191,148,244951,1,0,0:0:0:0:
191,148,245221,1,2,0:0:0:0:
187,148,245491,1,0,0:0:0:0:
187,148,245627,1,2,0:0:0:0:
191,148,245762,1,0,0:0:0:0:
191,148,245897,1,2,0:0:0:0:
194,76,246032,1,2,0:0:0:0:
152,103,246302,1,2,0:0:0:0:
212,147,246572,1,2,0:0:0:0:
212,147,246842,1,0,0:0:0:0:
212,147,247247,1,2,0:0:0:0:
212,147,247382,1,0,0:0:0:0:
206,148,247652,1,0,0:0:0:0:
206,148,247923,1,0,0:0:0:0:
74,128,248328,1,0,0:0:0:0:
74,128,248463,1,0,0:0:0:0:
74,128,248598,1,2,0:0:0:0:
74,128,249003,1,0,0:0:0:0:
194,74,249139,1,2,0:0:0:0:
74,128,249409,1,0,0:0:0:0:
74,128,249679,1,0,0:0:0:0:
74,128,250219,1,2,0:0:0:0:
74,128,250489,1,0,0:0:0:0:
74,128,250624,1,2,0:0:0:0:
74,128,250759,1,0,0:0:0:0:
74,128,251164,1,0,0:0:0:0:
74,128,251300,1,2,0:0:0:0:
154,113,251570,1,0,0:0:0:0:
87,162,251840,1,0,0:0:0:0:
154,113,252380,1,2,0:0:0:0:
154,113,252650,1,2,0:0:0:0:
154,113,252920,1,0,0:0:0:0:
218,96,253325,5,0,0:0:0:0:
218,96,253460,1,2,0:0:0:0:
74,128,253731,1,0,0:0:0:0:
74,128,254001,1,2,0:0:0:0:
74,128,254271,1,0,0:0:0:0:
314,119,254406,1,2,0:0:0:0:
74,128,254676,1,0,0:0:0:0:
74,128,254811,1,0,0:0:0:0:
216,75,255081,1,2,0:0:0:0:
74,128,255486,1,2,0:0:0:0:
216,75,255621,1,0,0:0:0:0:
74,128,255892,1,2,0:0:0:0:
74,128,256162,1,0,0:0:0:0:
74,128,256702,1,2,0:0:0:0:
170,94,256972,1,0,0:0:0:0:
170,94,257242,1,0,0:0:0:0:
170,94,257377,1,2,0:0:0:0:
189,162,257512,1,2,0:0:0:0:
153,77,257782,1,2,0:0:0:0:
207,109,258052,1,0,0:0:0:0:
207,109,258187,1,0,0:0:0:0:
207,109,258322,1,2,0:0:0:0:
189,162,258863,1,2,0:0:0:0:
189,162,258997,1,0,0:0:0:0:
189,162,259132,1,0,0:0:0:0:
189,162,259403,1,0,0:0:0:0:
189,162,259808,1,0,0:0:0:0:
189,162,259943,1,2,0:0:0:0:
189,162,260213,1,0,0:0:0:0:
189,162,260484,1,0,0:0:0:0:
189,162,261024,1,2,0:0:0:0:
189,162,261294,1,0,0:0:0:0:
189,162,261564,1,0,0:0:0:0:
40,131,261699,1,2,0:0:0:0:
40,131,261834,1,2,0:0:0:0:
185,71,262104,1,2,0:0:0:0:
189,162,262374,1,0,0:0:0:0:
86,94,262509,1,0,0:0:0:0:
189,162,262645,1,2,0:0:0:0:
189,162,263184,1,2,0:0:0:0:
189,162,263320,1,0,0:0:0:0:
189,162,263455,1,0,0:0:0:0:
189,162,263725,1,0,0:0:0:0:
189,162,264130,1,0,0:0:0:0:
189,162,264400,1,2,0:0:0:0:
140,137,264670,1,2,0:0:0:0:
189,162,264805,1,0,0:0:0:0:
140,137,265210,1,0,0:0:0:0:
175,91,265480,1,2,0:0:0:0:
189,162,265750,1,0,0:0:0:0:
110,139,265885,1,0,0:0:0:0:
110,139,266021,1,2,0:0:0:0:
110,139,266156,1,2,0:0:0:0:
110,139,266426,1,2,0:0:0:0:
110,139,266696,1,0,0:0:0:0:
110,139,266831,1,0,0:0:0:0:
110,139,266966,1,2,0:0:0:0:
110,139,267506,1,2,0:0:0:0:
110,139,267641,1,0,0:0:0:0:
110,139,267776,1,0,0:0:0:0:
110,139,268046,1,0,0:0:0:0:
210,145,268587,1,0,0:0:0:0:
210,145,268722,1,2,0:0:0:0:
210,145,268857,1,0,0:0:0:0:
210,145,268992,1,0,0:0:0:0:
210,145,269127,1,2,0:0:0:0:
210,145,269262,1,2,0:0:0:0:
210,145,269397,1,0,0:0:0:0:
210,145,269667,1,2,0:0:0:0:
210,145,269802,1,0,0:0:0:0:
210,145,269937,1,0,0:0:0:0:
187,142,270207,1,0,0:0:0:0:
187,142,270342,1,2,0:0:0:0:
187,142,270478,1,2,0:0:0:0:
187,142,270748,1,2,0:0:0:0:
187,142,271018,1,0,0:0:0:0:
187,142,271153,1,0,0:0:0:0:
187,142,271288,1,2,0:0:0:0:
191,138,271828,1,2,0:0:0:0:
187,142,271963,1,0,0:0:0:0:
187,142,272098,1,0,0:0:0:0:
187,142,272368,1,0,0:0:0:0:
191,138,272774,1,0,0:0:0:0:
187,142,272909,1,2,0:0:0:0:
187,142,273179,1,0,0:0:0:0:
191,138,273449,1,0,0:0:0:0:
191,138,273584,1,2,0:0:0:0:
187,142,273989,1,2,0:0:0:0:
231,113,274529,1,0,0:0:0:0:
231,113,274664,1,2,0:0:0:0:
231,113,274799,1,2,0:0:0:0:
231,113,275070,1,2,0:0:0:0:
231,113,275340,1,0,0:0:0:0:
231,113,275475,1,0,0:0:0:0:
231,113,275610,1,2,0:0:0:0:
231,113,276150,1,2,0:0:0:0:
231,113,276285,1,0,0:0:0:0:
231,113,276420,1,0,0:0:0:0:
231,113,276690,1,0,0:0:0:0:
214,87,277095,1,0,0:0:0:0:
214,87,277230,1,2,0:0:0:0:
214,87,277501,1,0,0:0:0:0:
214,87,277771,1,0,0:0:0:0:
209,84,278041,1,2,0:0:0:0:
209,84,278176,1,0,0:0:0:0:
209,84,278311,1,2,0:0:0:0:
209,84,278446,1,0,0:0:0:0:
208,83,278581,1,0,0:0:0:0:
208,83,278851,1,0,0:0:0:0:
173,83,279256,1,2,0:0:0:0:
208,83,279662,1,0,0:0:0:0:
173,83,279932,1,2,0:0:0:0:
173,83,280067,1,0,0:0:0:0:
174,72,280337,1,0,0:0:0:0:
174,72,280607,1,2,0:0:0:0:
174,72,281012,1,0,0:0:0:0:
174,72,281282,1,2,0:0:0:0:
174,72,281417,1,0,0:0:0:0:
174,72,281687,1,2,0:0:0:0:
174,72,282093,1,2,0:0:0:0:
174,72,282498,1,0,0:0:0:0:
174,72,282903,1,2,0:0:0:0:
174,72,283173,1,0,0:0:0:0:
174,72,283308,1,2,0:0:0:0:
174,72,283443,1,2,0:0:0:0:
174,72,283713,1,2,0:0:0:0:
174,72,283983,1,0,0:0:0:0:
174,72,284119,1,0,0:0:0:0:
174,72,284254,1,2,0:0:0:0:
174,72,284794,1,2,0:0:0:0:
174,72,284929,1,0,0:0:0:0:
174,72,285064,1,0,0:0:0:0:
174,72,285334,1,0,0:0:0:0:
174,72,285739,1,0,0:0:0:0:
174,72,285874,1,2,0:0:0:0:
250,73,286144,1,0,0:0:0:0:
219,114,286279,1,2,0:0:0:0:
209,32,286415,1,0,0:0:0:0:
209,32,286550,1,0,0:0:0:0:
209,32,286685,1,0,0:0:0:0:
209,32,286955,1,2,0:0:0:0:
209,32,287225,1,0,0:0:0:0:
209,32,287495,1,0,0:0:0:0:
209,32,287630,1,0,0:0:0:0:
209,32,288035,1,2,0:0:0:0:
209,32,288440,1,0,0:0:0:0:
209,32,288711,1,2,0:0:0:0:
209,32,289116,1,2,0:0:0:0:
209,32,289521,1,0,0:0:0:0:
209,32,289656,1,0,0:0:0:0:
209,32,289791,1,2,0:0:0:0:
209,32,290196,1,2,0:0:0:0:
209,32,290466,1,0,0:0:0:0:
209,32,290736,1,2,0:0:0:0:
226,135,291007,1,2,0:0:0:0:
226,146,291142,1,0,0:0:0:0:
224,147,291277,1,2,0:0:0:0:
232,78,291412,1,0,0:0:0:0:
224,147,291682,1,2,0:0:0:0:
256,192,291817,12,0,296139,0:0:0:0:
