osu file format v14

[General]
AudioFilename: Hot Shot.mp3
AudioLeadIn: 0
PreviewTime: 53552
Countdown: 0
SampleSet: Normal
StackLeniency: 0.7
Mode: 0
LetterboxInBreaks: 1
WidescreenStoryboard: 1

[Editor]
Bookmarks: 134394,151920,154447,154605,164710,197236
DistanceSpacing: 1.1
BeatDivisor: 2
GridSize: 4
TimelineZoom: 1

[Metadata]
Title:Hot Shot
TitleUnicode:Hot Shot
Artist:Brown Eyed Girls
ArtistUnicode:브라운 아이드 걸스
Creator:kazumikos
Version:Normal
Source:
Tags:Sixth Sense B.E.G
BeatmapID:880805
BeatmapSetID:237659

[Difficulty]
HPDrainRate:5
CircleSize:3
OverallDifficulty:4
ApproachRate:6
SliderMultiplier:0.9
SliderTickRate:1

[Events]
//Background and Video events
0,0,"Wine.jpg",0,0
//Break Periods
2,84067,92923
2,154805,163660
//Storyboard Layer 0 (Background)
//Storyboard Layer 1 (Fail)
//Storyboard Layer 2 (Pass)
//Storyboard Layer 3 (Foreground)
//Storyboard Sound Samples

[TimingPoints]
499.925117112152,315.789473684211,4,1,1,55,1,0
48105,-100,4,1,1,35,0,0
50947,-100,4,1,1,55,0,0
73605,-125,4,2,1,55,0,0
77315,-166.666666666667,4,2,1,55,0,0
77789,-166.666666666667,4,2,1,25,0,0
77947,-166.666666666667,4,2,1,55,0,0
78657,-125,4,2,1,55,0,0
79052,-125,4,2,1,25,0,0
79210,-125,4,2,1,55,0,0
81596,-100,4,1,1,35,0,0
82605,-100,4,1,1,55,0,0
83710,-100,4,2,1,55,0,0
93657,-100,4,1,1,55,0,0
111815,-100,4,1,1,35,0,0
113394,-100,4,1,1,55,0,0
164710,-125,4,2,1,55,0,0
172289,-100,4,2,1,55,0,0
174736,-100,4,1,1,55,0,0
175131,-100,4,1,1,55,0,0

[Colours]
Combo1 : 0,64,64
Combo2 : 212,212,212
Combo3 : 215,30,30
Combo4 : 121,69,180

[HitObjects]
164,260,3026,6,0,P|200:296|292:280,1,135,4|2,0:0|0:0,0:0:0:0:
360,168,3973,1,8,0:0:0:0:
360,168,4289,2,0,P|424:152|496:192,1,135,0|2,0:0|0:0,0:0:0:0:
256,56,5236,1,8,0:0:0:0:
256,56,5552,2,0,P|304:72|392:20,2,135,0|2|8,0:0|0:0|0:0,0:0:0:0:
168,100,6815,2,0,B|184:136|152:168|152:168|124:196|136:232,2,135,0|2|0,0:0|0:0|0:0,0:0:0:0:
72,116,8078,6,0,P|44:164|44:252,1,135,0|2,0:0|0:0,0:0:0:0:
168,320,9026,1,8,0:0:0:0:
168,320,9342,2,0,L|312:304,1,135,0|2,0:0|0:0,0:0:0:0:
332,160,10289,1,8,0:0:0:0:
332,160,10605,2,0,L|188:176,2,135,0|2|8,0:0|0:0|0:0,0:0:0:0:
428,144,11868,2,0,B|456:184|424:232|424:232|396:276|424:316,1,180,0|4,0:0|0:0,0:0:0:0:
328,348,12815,1,4,0:0:0:0:
272,264,13131,6,0,P|208:248|152:312,2,135,4|2|8,0:0|0:0|0:0,0:0:0:0:
300,168,14394,2,0,L|276:32,2,135,0|2|8,0:0|0:0|0:0,0:0:0:0:
204,140,15657,2,0,P|148:132|68:192,1,135,0|2,0:0|0:0,0:0:0:0:
320,232,16920,2,0,P|376:240|456:180,2,135,0|2|0,0:0|0:0|0:0,0:0:0:0:
256,308,18184,6,0,P|212:292|132:340,1,135,0|2,0:0|0:0,0:0:0:0:
128,180,19131,1,8,0:0:0:0:
36,148,19447,2,0,P|88:88|224:196,1,270,0|8,0:0|0:0,0:0:0:0:
128,180,20710,2,0,P|144:260|224:320,1,180
388,216,21973,2,0,P|372:136|292:76,1,180,0|4,0:0|0:0,0:0:0:0:
256,192,22920,1,0,0:0:0:0:
176,136,23236,6,0,L|32:124,2,135,4|2|8,0:0|0:0|0:0,0:0:0:0:
252,76,24499,2,0,L|396:88,2,135,0|2|8,0:0|0:0|0:0,0:0:0:0:
176,136,25763,2,0,P|164:184|180:232,1,90,0|8,0:0|0:0,0:0:0:0:
264,184,26394,2,0,P|276:232|260:280,1,90,0|8,0:0|0:0,0:0:0:0:
192,336,27026,2,0,P|248:368|328:344,2,135,2|2|0,0:0|0:0|0:0,0:0:0:0:
136,252,28289,6,0,P|208:236|265:270,2,135,0|2|8,0:0|0:0|0:0,0:0:0:0:
68,324,29552,2,0,P|128:353|192:336,2,135,0|2|8,0:0|0:0|0:0,0:0:0:0:
136,252,30815,2,0,L|156:60,1,180,2|0,0:0|0:0,0:0:0:0:
248,276,32078,2,0,L|266:96,1,180,2|2,0:0|0:0,0:0:0:0:
352,44,33026,1,2,0:0:0:0:
266,96,33342,6,0,L|130:84,1,135,0|2,0:0|0:0,0:0:0:0:
40,224,34289,1,8,0:0:0:0:
126,172,34605,2,0,L|262:184,1,135,0|2,0:0|0:0,0:0:0:0:
408,196,35552,2,0,P|392:244|392:292,1,90,8|0,0:0|0:0,0:0:0:0:
292,268,36184,2,0,P|294:223|309:180,1,90,8|0,0:0|0:0,0:0:0:0:
336,84,36815,1,8,0:0:0:0:
309,180,37131,2,0,P|249:216|189:180,2,135,2|2|0,0:0|0:0|0:0,0:0:0:0:
336,84,38394,6,0,P|396:48|456:84,2,135,0|2|8,0:0|0:0|0:0,0:0:0:0:
400,160,39657,2,0,L|411:300,1,135,0|2,0:0|0:0,0:0:0:0:
276,232,40605,1,0,0:0:0:0:
236,144,40920,1,2,0:0:0:0:
184,224,41236,1,8,0:0:0:0:
144,132,41552,1,2,0:0:0:0:
88,216,41868,2,0,L|104:312,1,90,8|2,0:0|0:0,0:0:0:0:
198,312,42499,2,0,L|182:216,1,90,8|2,0:0|0:0,0:0:0:0:
144,132,43131,1,0,0:0:0:0:
184,40,43447,6,0,L|324:52,1,135,2|2,0:0|0:0,0:0:0:0:
468,68,44394,1,8,0:0:0:0:
428,160,44710,2,0,L|288:148,1,135,2|2,0:0|0:0,0:0:0:0:
144,132,45657,1,8,0:0:0:0:
56,88,45973,2,0,P|44:140|56:180,1,90,0|8,0:0|0:0,0:0:0:0:
144,132,46605,2,0,P|156:184|144:224,1,90,0|8,0:0|0:0,0:0:0:0:
72,284,47236,2,0,P|128:316|216:284,2,135,2|2|8,0:0|0:0|0:0,0:0:0:0:
146,218,48499,6,0,P|94:182|8:212,2,135,2|2|0,0:0|0:0|0:0,0:0:0:0:
248,92,49763,1,2,0:0:0:0:
248,92,50236,1,2,0:0:0:0:
480,180,51026,2,0,L|472:296,2,90,2|0|0,0:0|0:0|0:0,0:0:0:0:
408,112,51973,2,0,L|416:-4,2,90,2|2|2,0:0|0:0|0:0,0:0:0:0:
328,172,52920,2,0,L|324:236,2,45,2|2|2,0:0|0:0|0:0,0:0:0:0:
252,108,53552,6,0,P|192:128|132:80,2,135,6|2|8,0:0|0:0|0:0,0:0:0:0:
328,172,54815,2,0,P|304:240|368:328,1,180
164,344,56078,2,0,L|16:344,2,135,2|2|8,0:0|0:0|0:0,0:0:0:0:
248,296,57342,2,0,P|264:228|180:152,1,180
368,56,58605,6,0,L|508:84,1,135,2|2,0:0|0:0,0:0:0:0:
452,324,59868,2,0,L|319:297,1,135,2|2,0:0|0:0,0:0:0:0:
368,56,61131,2,0,L|508:84,2,135,0|2|8,0:0|0:0|0:0,0:0:0:0:
300,128,62394,1,2,0:0:0:0:
208,92,62710,1,8,0:0:0:0:
112,112,63026,1,4,0:0:0:0:
40,180,63342,1,0,0:0:0:0:
136,208,63657,6,0,P|152:256|124:332,2,135,6|2|8,0:0|0:0|0:0,0:0:0:0:
236,208,64920,1,2,0:0:0:0:
312,336,65394,1,2,0:0:0:0:
440,264,65868,1,8,0:0:0:0:
352,220,66184,2,0,P|336:180|376:88,2,135,2|2|8,0:0|0:0|0:0,0:0:0:0:
440,264,67447,5,2,0:0:0:0:
312,336,67920,1,2,0:0:0:0:
236,208,68394,1,0,0:0:0:0:
176,288,68710,1,0,0:0:0:0:
84,252,69026,2,0,B|68:208|108:172|108:172|148:136|128:88,1,180,8|8,0:0|0:0,0:0:0:0:
224,64,69973,2,0,P|300:80|344:40,2,135,0|2|8,0:0|0:0|0:0,0:0:0:0:
232,164,71236,6,0,P|312:168|408:104,1,180
452,200,72184,2,0,L|436:316,1,90,8|0,0:0|0:0,0:0:0:0:
340,292,72815,2,0,L|280:284,2,45,8|0|8,0:0|0:0|0:0,0:0:0:0:
268,364,73447,2,0,L|172:352,1,90,0|4,0:0|0:0,0:0:0:0:
76,232,74394,5,0,0:0:0:0:
128,84,75026,2,0,L|244:92,2,108
192,312,76920,1,0,0:0:0:0:
228,200,77552,1,2,0:0:0:0:
340,236,78184,1,0,0:0:0:0:
308,344,78815,5,2,0:0:0:0:
192,312,79447,1,0,0:0:0:0:
40,264,80078,2,0,L|24:156,2,108
92,72,81657,2,0,L|188:80,1,90
184,180,82289,2,0,L|276:160,1,90,2|2,0:0|0:0,0:0:0:0:
292,260,82920,2,0,L|372:200,3,90,2|2|2|4,0:0|0:0|0:0|0:0,0:0:0:0:
24,236,93973,6,0,P|96:336|216:280,1,270,4|8,0:0|0:0,0:0:0:0:
239,190,95236,2,0,P|172:194|123:239,1,135,0|2,0:0|0:0,0:0:0:0:
280,48,96499,2,0,L|384:80,1,90,0|8,0:0|0:0,0:0:0:0:
372,172,97131,2,0,L|268:140,1,90,0|8,0:0|0:0,0:0:0:0:
296,244,97763,2,0,L|436:288,1,135,2|2,0:0|0:0,0:0:0:0:
180,332,99026,6,0,P|200:276|128:192,2,180
328,332,100763,1,2,0:0:0:0:
400,96,101552,1,4,0:0:0:0:
208,44,102184,1,0,0:0:0:0:
152,232,102815,1,4,0:0:0:0:
340,292,103447,1,0,0:0:0:0:
412,224,103763,1,0,0:0:0:0:
316,196,104078,6,0,P|288:160|308:68,1,135,2|2,0:0|0:0,0:0:0:0:
172,156,105026,1,8,0:0:0:0:
236,232,105342,2,0,P|264:304|228:360,1,135,2|2,0:0|0:0,0:0:0:0:
428,192,106605,2,0,L|452:284,2,90,0|8|0,0:0|0:0|0:0,0:0:0:0:
304,40,107868,1,0,0:0:0:0:
168,104,108342,1,2,0:0:0:0:
292,320,109131,6,0,P|340:292|428:336,1,135,2|2,0:0|0:0,0:0:0:0:
336,184,110078,1,8,0:0:0:0:
256,240,110394,2,0,P|208:256|136:204,1,135,2|2,0:0|0:0,0:0:0:0:
324,48,111657,2,0,L|332:152,1,90
420,96,112289,2,0,L|428:200,1,90
504,248,112920,2,0,P|436:292|352:252,1,180,0|2,0:0|0:0,0:0:0:0:
256,80,114184,6,0,L|96:64,2,135,6|2|8,0:0|0:0|0:0,0:0:0:0:
356,92,115447,2,0,P|344:136|344:188,2,90,0|8|0,0:0|0:0|0:0,0:0:0:0:
256,264,116710,2,0,L|416:280,2,135,2|2|8,0:0|0:0|0:0,0:0:0:0:
156,252,117973,2,0,P|168:208|168:156,2,90,0|8|0,0:0|0:0|0:0,0:0:0:0:
104,60,119236,6,0,P|168:40|240:64,2,135,2|2|8,0:0|0:0|0:0,0:0:0:0:
168,136,120499,2,0,P|104:156|32:132,2,135,2|2|8,0:0|0:0|0:0,0:0:0:0:
104,60,121763,2,0,P|176:40|152:232,1,360
72,236,123342,1,8,0:0:0:0:
124,320,123657,1,4,0:0:0:0:
172,232,123973,1,4,0:0:0:0:
224,316,124289,6,0,L|368:308,2,135,6|2|8,0:0|0:0|0:0,0:0:0:0:
172,232,125552,2,0,L|28:240,2,135,2|2|8,0:0|0:0|0:0,0:0:0:0:
272,224,126815,2,0,P|256:156|280:80,2,135,2|2|8,0:0|0:0|0:0,0:0:0:0:
372,224,128078,2,0,P|388:292|364:368,2,135,2|2|0,0:0|0:0|0:0,0:0:0:0:
372,124,129342,1,0,0:0:0:0:
312,36,129657,5,8,0:0:0:0:
256,120,129973,1,0,0:0:0:0:
200,36,130289,1,8,0:0:0:0:
160,128,130605,2,0,P|184:184|156:272,2,135,2|2|8,0:0|0:0|0:0,0:0:0:0:
60,156,131868,2,0,P|68:88|264:152,1,360
256,244,133447,2,0,P|244:292|248:340,2,90,8|0|0,0:0|0:0|0:0,0:0:0:0:
348,204,134394,6,0,P|396:216|444:212,2,90,4|8|0,0:0|0:0|0:0,0:0:0:0:
268,144,135342,2,0,P|280:96|276:48,2,90,8|0|8,0:0|0:0|0:0,0:0:0:0:
180,188,136289,2,0,P|132:176|84:180,2,90,0|8|0,0:0|0:0|0:0,0:0:0:0:
256,244,137236,5,8,0:0:0:0:
164,284,137552,1,0,0:0:0:0:
244,340,137868,1,8,0:0:0:0:
336,304,138184,1,0,0:0:0:0:
256,244,138499,1,8,0:0:0:0:
176,184,138815,1,0,0:0:0:0:
268,148,139131,1,8,0:0:0:0:
352,204,139447,6,0,P|368:136|340:76,2,135,2|2|8,0:0|0:0|0:0,0:0:0:0:
268,148,140710,2,0,P|242:86|258:22,2,135,2|2|8,0:0|0:0|0:0,0:0:0:0:
196,216,141973,1,2,0:0:0:0:
120,276,142289,1,0,0:0:0:0:
104,180,142605,1,0,0:0:0:0:
180,120,142920,1,0,0:0:0:0:
272,156,143236,1,0,0:0:0:0:
288,252,143552,1,0,0:0:0:0:
202,294,143868,2,0,P|202:207|272:156,1,180,2|4,0:0|0:0,0:0:0:0:
364,192,144815,6,0,P|384:236|372:296,1,90,8|0,0:0|0:0,0:0:0:0:
304,336,145447,2,0,P|284:292|296:232,1,90,8|0,0:0|0:0,0:0:0:0:
364,192,146078,2,0,P|366:147|347:107,1,90,8|0,0:0|0:0,0:0:0:0:
256,64,146710,2,0,P|316:12|420:40,1,180,0|8,0:0|0:0,0:0:0:0:
456,116,147657,6,0,L|436:224,1,90,0|8,0:0|0:0,0:0:0:0:
344,180,148289,2,0,L|324:288,1,90,0|8,0:0|0:0,0:0:0:0:
232,244,148920,2,0,L|212:352,1,90,0|8,0:0|0:0,0:0:0:0:
120,356,149552,2,0,P|80:308|96:216,2,135,2|2|8,0:0|0:0|0:0,0:0:0:0:
215,332,150815,2,0,P|272:304|352:320,2,135,2|2|8,0:0|0:0|0:0,0:0:0:0:
188,236,152078,5,0,0:0:0:0:
216,140,152394,1,8,0:0:0:0:
312,168,152710,1,0,0:0:0:0:
288,264,153026,1,8,0:0:0:0:
188,236,153342,2,0,B|144:220|108:264|108:264|72:308|20:284,2,180,2|0|4,0:0|0:0|0:0,0:0:0:0:
92,88,164710,6,0,L|216:96,1,108,4|0,0:0|0:0,0:0:0:0:
384,168,165973,1,0,0:0:0:0:
456,76,166447,1,0,0:0:0:0:
264,124,167236,2,0,L|144:136,2,108,0|2|8,0:0|0:0|0:0,0:0:0:0:
236,280,168815,1,8,0:0:0:0:
376,88,169763,6,0,P|372:160|328:200,1,108,0|2,0:0|0:0,0:0:0:0:
160,136,171026,2,0,P|164:64|208:24,1,108,0|2,0:0|0:0,0:0:0:0:
156,284,172289,2,0,L|256:292,2,90,2|0|0,0:0|0:0|0:0,0:0:0:0:
104,200,173236,1,2,0:0:0:0:
204,196,173552,2,2,P|232:160|196:36,1,180
140,120,174499,1,0,0:0:0:0:
44,104,174815,5,4,0:0:0:0:
4,252,175289,1,0,0:0:0:0:
156,220,175763,1,0,0:0:0:0:
236,152,176078,1,0,0:0:0:0:
332,136,176394,1,8,0:0:0:0:
300,228,176710,2,0,P|368:228|428:128,1,180,0|2,0:0|0:0,0:0:0:0:
460,51,177657,2,0,P|392:51|332:151,1,180,0|8,0:0|0:0,0:0:0:0:
232,136,178605,2,0,P|176:88|104:112,2,135,0|2|0,0:0|0:0|0:0,0:0:0:0:
212,232,179868,5,6,0:0:0:0:
212,232,180342,1,2,0:0:0:0:
452,292,181131,1,6,0:0:0:0:
452,292,181605,1,2,0:0:0:0:
468,44,182394,2,0,L|376:76,1,90,4|8,0:0|0:0,0:0:0:0:
400,172,183026,2,0,L|304:164,1,90,0|8,0:0|0:0,0:0:0:0:
288,260,183657,2,0,L|180:168,2,135,4|2|0,0:0|0:0|0:0,0:0:0:0:
200,308,184920,6,0,P|136:300|80:364,2,135,6|2|8,0:0|0:0|0:0,0:0:0:0:
288,260,186184,2,0,P|352:276|416:240,2,135,2|2|8,0:0|0:0|0:0,0:0:0:0:
340,176,187447,2,0,B|268:140|212:196|212:196|160:248|84:208,1,270
28,288,188710,2,0,L|156:356,2,135
92,212,189973,1,4,0:0:0:0:
48,124,190289,6,0,P|96:112|156:136,1,90,8|0,0:0|0:0,0:0:0:0:
204,192,190920,2,0,P|252:192|296:160,1,90,8|4,0:0|0:0,0:0:0:0:
384,160,191552,2,0,L|372:264,2,90,8|0|8,0:0|0:0|0:0,0:0:0:0:
396,60,192499,5,4,0:0:0:0:
200,32,193131,1,2,0:0:0:0:
168,228,193763,1,4,0:0:0:0:
364,264,194394,1,2,0:0:0:0:
364,264,195026,1,0,0:0:0:0:
364,264,195657,1,0,0:0:0:0:
256,100,196289,6,0,P|212:72|160:216,1,270
196,148,197552,1,4,0:0:0:0:
