osu file format v14

[General]
AudioFilename: audio.mp3
AudioLeadIn: 0
PreviewTime: 146500
Countdown: 0
SampleSet: Soft
StackLeniency: 0.3
Mode: 0
LetterboxInBreaks: 0
WidescreenStoryboard: 0

[Editor]
DistanceSpacing: 0.7
BeatDivisor: 8
GridSize: 16
TimelineZoom: 1.3

[Metadata]
Title:Brave New World
TitleUnicode:신세계
Artist:Brown Eyed Girls
ArtistUnicode:브라운아이드걸스
Creator:-jordan-
Version:Extra
Source:
Tags:
BeatmapID:1830631
BeatmapSetID:875975

[Difficulty]
HPDrainRate:6
CircleSize:3.2
OverallDifficulty:8.6
ApproachRate:9.4
SliderMultiplier:1.8
SliderTickRate:0.5

[Events]
//Background and Video events
0,0,"bg.png",0,0
//Break Periods
//Storyboard Layer 0 (Background)
//Storyboard Layer 1 (Fail)
//Storyboard Layer 2 (Pass)
//Storyboard Layer 3 (Foreground)
//Storyboard Sound Samples

[TimingPoints]
250,500,4,2,13,20,1,0
250,-100,4,2,13,20,0,0
4250,-100,4,2,13,20,0,0
8250,-100,4,2,6,80,0,0
8375,-100,4,2,6,5,0,0
8500,500,4,2,6,70,1,0
8500,-83.3333333333333,4,2,6,70,0,0
9000,-83.3333333333333,4,2,13,70,0,0
12500,-83.3333333333333,4,2,6,70,0,0
13000,-83.3333333333333,4,2,13,70,0,0
15500,-166.666666666667,4,2,3,50,0,0
16250,-62.5,4,2,13,70,0,0
24000,-57.1428571428571,4,2,13,70,0,0
24500,-83.3333333333333,4,2,13,60,0,0
30500,-83.3333333333333,4,2,3,60,0,0
32500,-83.3333333333333,4,2,13,60,0,0
38500,-333.333333333333,4,2,13,60,0,0
39500,-71.4285714285714,4,2,13,70,0,0
39875,-71.4285714285714,4,2,13,5,0,0
40000,-71.4285714285714,4,2,13,70,0,0
40375,-71.4285714285714,4,2,13,5,0,0
40500,-71.4285714285714,4,2,6,70,0,0
40750,-71.4285714285714,4,2,13,70,0,0
46250,-71.4285714285714,4,2,69,70,0,0
47500,-71.4285714285714,4,2,13,70,0,0
48000,-71.4285714285714,4,2,3,70,0,0
48250,-71.4285714285714,4,2,13,70,0,0
51500,-71.4285714285714,4,2,3,70,0,0
51750,-71.4285714285714,4,2,13,70,0,0
54250,-71.4285714285714,4,2,69,70,0,0
55125,-71.4285714285714,4,2,13,70,0,0
55750,-58.8235294117647,4,2,13,70,0,0
56000,-50,4,2,13,70,0,0
56500,-250,4,2,13,50,0,0
58500,-250,4,2,13,60,0,0
58750,-62.5,4,2,13,60,0,0
60000,-100,4,2,13,60,0,0
60500,-250,4,2,13,59,0,0
62500,-62.5,4,2,13,60,0,0
63500,-62.5,4,2,3,60,0,0
64000,-100,4,2,13,60,0,0
64500,-250,4,2,3,59,0,0
66500,-62.5,4,2,13,60,0,0
68000,-100,4,2,13,60,0,0
68500,-100,4,2,13,60,0,0
68750,-83.3333333333333,4,2,13,60,0,0
69000,-76.9230769230769,4,2,13,60,0,0
69250,-71.4285714285714,4,2,13,60,0,0
69625,-66.6666666666667,4,2,13,60,0,0
70000,-62.5,4,2,13,60,0,0
70500,-62.5,4,2,13,70,0,0
70875,-55.5555555555556,4,2,13,70,0,0
71250,-55.5555555555556,4,2,13,75,0,0
72000,-55.5555555555556,4,2,13,80,0,0
72500,-62.5,4,2,13,80,0,1
76000,-100,4,2,13,80,0,1
77500,-62.5,4,2,13,80,0,1
79500,-62.5,4,2,13,45,0,1
79625,-62.5,4,2,13,50,0,1
79750,-62.5,4,2,13,55,0,1
79875,-62.5,4,2,13,60,0,1
80000,-62.5,4,2,13,65,0,1
80125,-62.5,4,2,13,70,0,1
80250,-62.5,4,2,13,75,0,1
80375,-62.5,4,2,4,80,0,1
80500,-62.5,4,2,4,100,0,1
81000,-100,4,2,13,80,0,1
81500,-62.5,4,2,13,80,0,1
84000,-100,4,2,13,80,0,1
87000,-71.4285714285714,4,2,13,80,0,1
87500,-83.3333333333333,4,2,13,80,0,1
88500,-83.3333333333333,4,2,13,70,0,1
89375,-83.3333333333333,4,2,4,80,0,1
89500,-62.5,4,2,13,60,0,1
90500,-100,4,2,4,50,0,0
97250,-62.5,4,2,4,50,0,0
97500,-100,4,2,4,50,0,0
98000,-62.5,4,2,4,50,0,0
98250,-50,4,2,4,50,0,0
98500,-83.3333333333333,4,2,13,70,0,0
101500,-83.3333333333333,4,2,13,60,0,0
103250,-62.5,4,2,13,60,0,0
104500,-62.5,4,2,3,80,0,0
106250,-83.3333333333333,4,2,3,80,0,0
106500,-83.3333333333333,4,2,13,70,0,0
111250,-62.5,4,2,13,70,0,0
112250,-50,4,2,13,70,0,0
112500,-250,4,2,13,70,0,0
113375,-250,4,2,13,5,0,0
113500,-250,4,2,13,60,0,0
114000,-125,4,2,13,60,0,0
114500,-71.4285714285714,4,2,13,70,0,0
120250,-71.4285714285714,4,2,69,70,0,0
121500,-71.4285714285714,4,2,3,70,0,0
122500,-71.4285714285714,4,2,13,70,0,0
128250,-71.4285714285714,4,2,69,70,0,0
129125,-71.4285714285714,4,2,13,70,0,0
129750,-58.8235294117647,4,2,13,70,0,0
130000,-50,4,2,13,59,0,0
130500,-250,4,2,13,59,0,0
132500,-250,4,2,13,60,0,0
132750,-62.5,4,2,13,60,0,0
134000,-100,4,2,13,60,0,0
134500,-250,4,2,13,59,0,0
136500,-62.5,4,2,13,60,0,0
137500,-62.5,4,2,3,60,0,0
138000,-100,4,2,13,60,0,0
138500,-250,4,2,13,59,0,0
140500,-62.5,4,2,13,60,0,0
142000,-100,4,2,13,60,0,0
142500,-100,4,2,13,60,0,0
142750,-83.3333333333333,4,2,13,60,0,0
143000,-76.9230769230769,4,2,13,60,0,0
143250,-71.4285714285714,4,2,13,60,0,0
143625,-66.6666666666667,4,2,13,60,0,0
144000,-62.5,4,2,13,60,0,0
144500,-76.9230769230769,4,2,13,60,0,0
144875,-71.4285714285714,4,2,13,60,0,0
145250,-71.4285714285714,4,2,13,60,0,0
145500,-71.4285714285714,4,2,13,40,0,0
145750,-55.5555555555556,4,2,13,50,0,0
146000,-55.5555555555556,4,2,13,60,0,0
146500,-62.5,4,2,13,80,0,1
149500,-100,4,2,13,80,0,1
151500,-62.5,4,2,13,80,0,1
153500,-62.5,4,2,13,45,0,1
153625,-62.5,4,2,13,50,0,1
153750,-62.5,4,2,13,55,0,1
153875,-62.5,4,2,13,60,0,1
154000,-62.5,4,2,13,65,0,1
154125,-62.5,4,2,13,75,0,1
154250,-62.5,4,2,13,80,0,1
154375,-62.5,4,2,4,85,0,1
154500,-62.5,4,2,4,100,0,1
155000,-100,4,2,13,80,0,1
155500,-62.5,4,2,13,80,0,1
157500,-100,4,2,13,80,0,1
161000,-71.4285714285714,4,2,13,80,0,1
161500,-83.3333333333333,4,2,13,80,0,1
162500,-71.4285714285714,4,2,13,70,0,1
163500,-71.4285714285714,4,2,13,56,0,0
164250,-71.4285714285714,4,2,13,80,0,0
164437,-71.4285714285714,4,2,13,5,0,0
164500,-71.4285714285714,4,2,12,80,0,0
179000,-71.4285714285714,4,2,6,54,0,0
179250,-71.4285714285714,4,2,13,54,0,0
179500,-71.4285714285714,4,2,12,70,0,0
179687,-71.4285714285714,4,2,13,5,0,0
179750,-71.4285714285714,4,2,12,70,0,0
179937,-71.4285714285714,4,2,13,5,0,0
180000,-71.4285714285714,4,2,6,70,0,0
180187,-71.4285714285714,4,2,13,5,0,0
180250,-71.4285714285714,4,2,13,70,0,0
180437,-71.4285714285714,4,2,13,5,0,0
180500,-166.666666666667,4,2,13,69,0,0
182500,-100,4,2,13,69,0,0
184500,-166.666666666667,4,2,13,69,0,0
187875,-71.4285714285714,4,2,13,69,0,0
196500,-71.4285714285714,4,2,6,89,0,0
198500,-71.4285714285714,4,2,13,60,0,0
199187,-71.4285714285714,4,2,13,5,0,0
199250,-71.4285714285714,4,2,13,60,0,0
200500,-62.5,4,2,13,80,0,1
204000,-100,4,2,13,80,0,1
205500,-62.5,4,2,13,80,0,1
207500,-62.5,4,2,13,45,0,1
207625,-62.5,4,2,13,50,0,1
207750,-62.5,4,2,13,55,0,1
207875,-62.5,4,2,13,60,0,1
208000,-62.5,4,2,13,65,0,1
208125,-62.5,4,2,13,70,0,1
208250,-62.5,4,2,13,75,0,1
208375,-62.5,4,2,13,80,0,1
208500,-62.5,4,2,4,100,0,1
209000,-100,4,2,13,80,0,1
209500,-62.5,4,2,13,80,0,1
212000,-100,4,2,13,80,0,1
214750,-71.4285714285714,4,2,13,70,0,1
215500,-71.4285714285714,4,2,13,70,0,0
216500,-62.5,4,2,13,84,0,1
220000,-100,4,2,13,84,0,1
221500,-62.5,4,2,13,84,0,1
222750,-62.5,4,2,13,70,0,1
223500,-62.5,4,2,13,71,0,1
225000,-100,4,2,13,61,0,1
225500,-62.5,4,2,13,84,0,1
228000,-100,4,2,13,84,0,1
229500,-100,4,2,13,74,0,1
231000,-71.4285714285714,4,2,13,74,0,1
231500,-83.3333333333333,4,2,13,74,0,1
232500,-83.3333333333333,4,2,13,64,0,1
233500,-71.4285714285714,4,2,13,67,0,1
234500,-71.4285714285714,4,2,6,80,0,0
238500,-500,4,2,6,80,0,0

[Colours]
Combo1 : 35,169,149
Combo2 : 187,136,249
Combo3 : 82,90,201
Combo4 : 230,89,152

[HitObjects]
118,218,250,6,0,B|446:289|412:-128|74:24,1,630
202,314,2250,6,0,B|187:395|321:470|407:303|361:206|216:69|-18:261,1,630,0|0,0:0|0:0,0:0:0:0:
389,100,4250,6,0,B|507:171|639:116|572:-54|449:-11|363:39|271:160|378:317,1,630
0,107,6250,6,0,B|11:51|77:38|77:38|126:239|-10:142|-136:370|73:561|195:309|61:204,1,720,0|4,0:0|0:1,0:0:0:0:
0,107,8500,5,4,0:2:0:0:
0,107,9000,5,6,0:2:0:0:
53,91,9125,1,0,0:0:0:0:
106,100,9250,1,2,0:0:0:0:
148,134,9375,1,0,0:0:0:0:
195,156,9500,6,0,P|232:164|282:154,1,53.9999983520508,6|0,0:2|0:0,0:0:0:0:
274,0,9750,2,0,P|251:23|237:52,1,53.9999983520508,2|2,0:2|0:2,0:0:0:0:
341,86,10000,1,10,0:2:0:0:
124,0,10250,5,2,0:2:0:0:
449,11,10500,5,6,0:0:0:0:
444,66,10625,1,0,0:0:0:0:
439,118,10750,1,2,0:0:0:0:
435,170,10875,1,0,0:0:0:0:
429,224,11000,2,0,L|421:319,1,53.9999983520508,8|0,0:0|0:0,0:0:0:0:
413,373,11250,5,0,1:0:0:0:
413,373,11375,1,0,1:0:0:0:
413,373,11500,2,0,P|377:335|364:330,1,53.9999983520508,6|2,1:2|0:2,0:0:0:0:
263,379,11750,5,2,0:2:0:0:
231,373,11875,1,2,0:2:0:0:
202,358,12000,1,10,0:2:0:0:
181,334,12125,1,0,0:0:0:0:
168,304,12250,6,0,P|155:349|140:371,1,53.9999983520508,6|0,0:2|0:0,0:0:0:0:
267,272,12500,5,6,0:2:0:0:
267,272,13000,5,6,0:2:0:0:
251,220,13125,1,0,0:0:0:0:
279,173,13250,1,2,0:2:0:0:
257,124,13375,1,0,0:0:0:0:
280,75,13500,6,0,L|206:81,1,53.9999983520508,6|0,0:2|0:0,0:0:0:0:
127,164,13750,2,0,L|202:170,1,53.9999983520508,2|2,0:2|0:2,0:0:0:0:
261,34,14000,1,10,0:2:0:0:
261,34,14250,1,0,0:0:0:0:
347,123,14500,5,4,0:2:0:0:
414,167,15000,5,12,0:0:0:0:
427,247,15500,6,0,L|466:243,3,26.9999991760254,4|0|0|0,1:1|1:2|1:2|1:2,0:0:0:0:
382,313,16000,5,0,1:2:0:0:
382,313,16250,2,0,P|342:326|292:316,1,72,8|0,0:0|0:0,0:0:0:0:
424,383,16500,5,4,0:2:0:0:
336,243,16625,1,0,0:0:0:0:
382,313,20250,6,0,P|422:300|472:310,1,72,4|0,0:3|0:0,0:0:0:0:
428,383,20500,5,4,0:3:0:0:
336,243,20625,1,0,3:2:0:0:
313,324,24000,6,0,B|395:343|386:270|492:317,1,157.500001502037,6|4,0:1|0:2,0:0:0:0:
465,306,24500,5,4,0:2:0:0:
336,243,24750,5,2,0:2:0:0:
336,243,24875,1,2,0:2:0:0:
336,243,25000,2,0,P|384:281|408:287,1,53.9999983520508,10|0,0:2|0:0,0:0:0:0:
419,144,25250,2,0,P|410:205|416:229,1,53.9999983520508,0|0,0:0|0:0,0:0:0:0:
465,306,25500,5,6,0:2:0:0:
436,118,25750,1,0,0:2:0:0:
410,376,26000,1,8,0:2:0:0:
383,52,26250,1,0,0:0:0:0:
253,62,26500,2,0,L|330:56,1,53.9999983520508,0|0,0:0|0:0,0:0:0:0:
461,42,26750,5,0,0:2:0:0:
164,75,27000,1,10,0:2:0:0:
512,105,27250,1,0,0:2:0:0:
114,6,27500,6,0,P|133:44|95:161,1,161.999995056153,6|0,0:2|0:0,0:0:0:0:
83,176,28000,1,10,0:2:0:0:
146,0,28250,1,2,0:2:0:0:
190,192,28500,6,0,L|61:205,2,107.999996704102,0|0|8,0:0|0:2|0:2,0:0:0:0:
275,366,29250,5,2,0:2:0:0:
265,328,29375,1,2,0:2:0:0:
239,296,29500,2,0,P|192:291|150:305,1,53.9999983520508,6|0,0:2|0:0,0:0:0:0:
73,330,29750,2,0,P|145:289|182:174,1,161.999995056153,2|0,0:2|0:0,0:0:0:0:
190,192,30250,2,0,P|224:183|254:185,1,53.9999983520508,2|0,0:2|0:0,0:0:0:0:
364,204,30500,6,0,B|369:262|369:262|341:304|341:304|346:360,1,161.999995056153,2|0,0:1|0:0,0:0:0:0:
386,211,31000,6,0,B|391:269|391:269|363:311|363:311|368:367,1,161.999995056153,10|0,0:1|0:0,0:0:0:0:
408,218,31500,6,0,B|413:276|413:276|385:318|385:318|390:374,1,161.999995056153,6|0,1:1|1:0,0:0:0:0:
433,224,32000,5,8,1:1:0:0:
512,365,32250,2,0,L|507:304,1,53.9999983520508,4|0,0:1|0:0,0:0:0:0:
445,113,32500,5,4,0:2:0:0:
445,113,32750,6,0,P|422:57|404:39,1,53.9999983520508,0|0,0:0|0:2,0:0:0:0:
323,149,33000,2,0,P|361:101|367:77,1,53.9999983520508,8|0,0:2|0:0,0:0:0:0:
224,66,33250,2,0,P|284:75|308:69,1,53.9999983520508,0|0,0:0|0:0,0:0:0:0:
386,21,33500,5,6,0:2:0:0:
198,49,33750,1,0,0:2:0:0:
456,75,34000,2,0,P|421:105|397:113,1,53.9999983520508,10|0,0:2|0:0,0:0:0:0:
337,89,34250,1,2,0:0:0:0:
145,113,34500,5,0,0:0:0:0:
44,0,34750,5,2,0:0:0:0:
79,347,35000,1,10,0:2:0:0:
1,144,35250,1,0,0:2:0:0:
146,211,35500,6,0,P|151:248|258:334,1,161.999995056153,6|0,0:2|0:0,0:0:0:0:
270,333,36000,2,0,P|308:319|334:294,1,53.9999983520508,10|0,0:2|0:0,0:0:0:0:
359,245,36250,1,6,0:2:0:0:
506,376,36500,6,0,L|398:385,2,107.999996704102,0|0|8,0:0|0:0|0:2,0:0:0:0:
310,97,37250,5,2,0:2:0:0:
320,135,37375,1,0,0:2:0:0:
346,167,37500,2,0,P|393:172|435:158,1,53.9999983520508,6|0,0:2|0:0,0:0:0:0:
512,133,37750,2,0,P|440:174|403:289,1,161.999995056153,2|0,0:2|0:0,0:0:0:0:
395,271,38250,2,0,P|361:280|331:278,1,53.9999983520508,2|0,0:2|0:0,0:0:0:0:
245,278,38500,6,0,L|236:179,1,94.4999971160889,4|0,1:2|0:0,0:0:0:0:
167,150,39500,6,0,P|252:150|336:68,1,188.999994232178,2|0,0:2|0:0,0:0:0:0:
274,0,40000,6,0,P|270:29|253:57,1,62.9999980773926,10|0,0:2|0:0,0:0:0:0:
196,3,40250,1,0,0:0:0:0:
196,3,40500,5,4,1:1:0:0:
328,86,40750,5,2,0:2:0:0:
351,130,40875,1,2,0:2:0:0:
358,179,41000,2,0,P|346:243|330:262,1,62.9999980773926,8|0,0:2|0:0,0:0:0:0:
400,306,41250,2,0,P|339:326|314:323,1,62.9999980773926,2|0,0:2|0:0,0:0:0:0:
430,228,41500,6,0,P|492:206|517:209,1,62.9999980773926,4|0,0:2|0:0,0:0:0:0:
231,330,41750,2,0,P|321:356|410:329,1,188.999994232178,2|0,0:2|0:0,0:0:0:0:
439,314,42250,1,0,0:0:0:0:
439,314,42500,5,4,0:2:0:0:
344,143,42750,5,2,0:2:0:0:
333,191,42875,1,0,0:0:0:0:
318,239,43000,1,10,0:2:0:0:
368,230,43125,1,0,0:0:0:0:
419,221,43250,2,0,L|490:209,1,62.9999980773926,2|0,0:2|0:0,0:0:0:0:
468,76,43500,6,0,P|450:136|458:170,1,62.9999980773926,6|0,0:2|0:0,0:0:0:0:
322,62,43750,2,0,P|339:88|365:107,1,62.9999980773926,0|0,0:2|0:0,0:0:0:0:
238,183,44000,2,0,P|270:181|299:170,1,62.9999980773926,10|0,0:2|0:0,0:0:0:0:
151,39,44250,5,4,0:2:0:0:
75,22,44375,1,0,0:0:0:0:
0,40,44500,1,6,0:1:0:0:
0,40,45000,5,10,0:2:0:0:
55,99,45125,1,2,0:0:0:0:
80,175,45250,1,2,0:0:0:0:
73,255,45375,1,2,0:0:0:0:
27,327,45500,5,6,0:2:0:0:
7,210,45625,1,0,0:0:0:0:
5,310,45750,5,2,0:2:0:0:
107,329,45875,1,2,0:2:0:0:
135,308,46000,5,6,0:1:0:0:
190,372,46250,5,2,0:0:0:0:
209,362,46375,1,2,0:0:0:0:
231,360,46500,1,6,0:0:0:0:
289,294,46750,5,2,0:0:0:0:
308,284,46875,1,2,0:0:0:0:
330,282,47000,1,10,0:2:0:0:
379,209,47250,5,2,0:0:0:0:
398,199,47375,1,2,0:0:0:0:
420,196,47500,6,0,L|403:398,1,188.999994232178,6|0,0:1|0:0,0:0:0:0:
499,208,48000,6,0,L|507:118,1,62.9999980773926,10|0,0:1|0:0,0:0:0:0:
398,199,48250,1,4,0:2:0:0:
398,199,48500,5,4,1:1:0:0:
417,90,48750,5,2,0:0:0:0:
367,90,48875,1,2,0:0:0:0:
322,111,49000,2,0,P|298:145|288:177,1,62.9999980773926,10|0,0:0|0:0,0:0:0:0:
319,298,49250,2,0,P|344:263|354:231,1,62.9999980773926,0|0,0:0|0:0,0:0:0:0:
175,237,49500,6,0,P|210:261|242:271,1,62.9999980773926,6|0,0:2|0:0,0:0:0:0:
0,368,49750,2,0,B|105:269|237:300|237:300|198:291|154:293,1,314.999990386963,2|0,0:0|0:0,0:0:0:0:
0,368,50750,5,2,0:0:0:0:
3,317,50875,1,0,0:0:0:0:
9,266,51000,2,0,L|17:177,1,62.9999980773926,10|0,0:2|0:0,0:0:0:0:
174,70,51250,2,0,L|167:158,1,62.9999980773926,2|0,0:0|0:0,0:0:0:0:
35,278,51500,6,0,L|43:189,1,62.9999980773926,6|0,0:2|0:0,0:0:0:0:
198,92,51750,2,0,L|191:180,1,62.9999980773926
44,56,52000,2,0,P|88:-17|90:-19,1,62.9999980773926,10|0,0:2|0:0,0:0:0:0:
229,112,52250,5,6,0:2:0:0:
234,189,52375,1,0,0:0:0:0:
205,260,52500,1,6,0:1:0:0:
205,260,53000,5,10,0:2:0:0:
264,205,53125,1,2,0:0:0:0:
340,180,53250,1,2,0:0:0:0:
420,187,53375,1,2,0:0:0:0:
492,233,53500,5,6,0:2:0:0:
375,253,53625,1,0,0:0:0:0:
475,255,53750,5,2,0:2:0:0:
494,153,53875,1,2,0:2:0:0:
473,125,54000,5,6,0:1:0:0:
411,61,54250,5,2,0:2:0:0:
409,43,54375,1,2,0:2:0:0:
408,24,54500,1,6,0:2:0:0:
352,121,54750,5,2,0:2:0:0:
353,140,54875,1,2,0:2:0:0:
355,158,55000,1,10,0:2:0:0:
280,75,55250,5,2,0:2:0:0:
278,57,55375,1,2,0:2:0:0:
278,39,55500,6,0,P|241:34|211:40,1,62.9999980773926
156,126,55750,2,0,P|185:80|185:29,1,76.5000014591217
14,29,56000,2,0,P|61:55|103:58,1,90
278,39,56250,5,0,0:0:0:0:
278,39,56500,6,0,B|273:-39|160:-33|147:73|222:149,1,270,6|0,1:1|0:0,0:0:0:0:
244,163,58500,1,4,0:0:0:0:
381,216,58750,6,0,L|371:321,1,72,4|0,0:0|0:0,0:0:0:0:
214,379,59000,1,8,0:2:0:0:
290,375,59125,1,0,0:0:0:0:
367,368,59250,1,0,0:0:0:0:
285,288,59375,6,0,P|243:266|205:265,2,72,0|0|8,0:0|1:0|0:2,0:0:0:0:
214,379,59750,1,0,0:0:0:0:
153,160,60000,6,0,B|157:208|157:208|134:242|134:242|138:288,1,135,10|0,0:2|0:0,0:0:0:0:
0,111,60500,6,0,B|100:136|94:56|187:81,1,198,6|0,1:1|0:0,0:0:0:0:
220,95,62000,1,0,0:0:0:0:
432,37,62500,6,0,P|394:31|354:-1,1,72,4|0,0:0|0:0,0:0:0:0:
326,196,62750,2,0,P|312:161|319:110,1,72,4|0,0:0|0:0,0:0:0:0:
421,145,63000,5,8,0:2:0:0:
427,222,63125,1,0,0:0:0:0:
380,280,63250,1,0,0:0:0:0:
346,349,63375,1,0,0:0:0:0:
456,297,63500,6,0,P|355:316|257:242,1,216,4|0,3:0|0:0,0:0:0:0:
216,384,64000,6,0,B|211:337|211:337|234:303|234:303|230:257,1,135,10|0,0:2|0:0,0:0:0:0:
421,145,64500,6,0,P|356:217|336:160,1,198,6|0,1:2|0:0,0:0:0:0:
341,135,66000,1,0,0:0:0:0:
285,21,66500,6,0,P|242:46|202:50,1,72,4|0,0:0|0:0,0:0:0:0:
104,34,66750,1,4,0:0:0:0:
104,34,66875,2,0,P|69:44|39:64,1,72,0|0,0:0|0:0,0:0:0:0:
121,202,67125,6,0,P|130:168|128:132,1,72,0|0,0:0|0:0,0:0:0:0:
8,243,67375,2,0,L|222:225,1,216,0|0,0:0|0:0,0:0:0:0:
20,272,68000,6,0,B|67:268|67:268|101:291|101:291|147:287,1,135,6|0,0:2|0:0,0:0:0:0:
258,266,68500,6,0,P|238:296|234:319,1,45,6|0,2:2|0:0,0:0:0:0:
323,323,68750,2,0,P|338:356|360:375,1,53.9999983520508,2|0,0:0|0:0,0:0:0:0:
490,207,69000,6,0,P|473:173|454:158,1,58.4999973220826,10|0,0:2|0:0,0:0:0:0:
403,237,69250,2,0,P|364:235|335:244,1,62.9999980773926,2|0,0:0|0:0,0:0:0:0:
423,159,69500,5,6,0:2:0:0:
479,288,69625,2,0,P|471:321|452:348,1,67.5000025749208,2|0,0:2|0:0,0:0:0:0:
302,333,69875,5,0,0:0:0:0:
512,208,70000,2,0,P|517:278|491:344,1,144,10|0,0:2|0:0,0:0:0:0:
449,60,70500,6,0,P|406:87|359:90,1,72,6|0,0:1|0:0,0:0:0:0:
253,176,70750,1,2,0:2:0:0:
253,13,70875,2,0,P|289:64|295:98,1,80.9999975280763,2|0,0:2|0:0,0:0:0:0:
215,266,71125,5,0,0:0:0:0:
37,77,71250,2,0,L|200:90,1,161.999995056153,2|0,0:1|0:0,0:0:0:0:
343,244,71750,6,0,L|337:312,2,40.4999987640381,0|0|0,1:0|1:0|1:0,0:0:0:0:
289,112,72000,6,0,P|259:160|218:180,1,80.9999975280763,0|0,1:0|1:0,0:0:0:0:
240,15,72250,2,0,P|297:3|340:17,1,80.9999975280763,4|0,1:2|1:0,0:0:0:0:
486,196,72500,5,6,1:2:0:0:
411,73,72625,1,2,0:2:0:0:
420,265,72750,5,2,0:2:0:0:
478,5,72875,1,2,0:2:0:0:
499,219,73000,5,10,0:2:0:0:
400,47,73125,1,2,0:2:0:0:
341,311,73250,5,2,0:2:0:0:
341,311,73500,6,0,P|294:318|241:299,1,72,6|0,0:2|0:0,0:0:0:0:
121,272,73750,1,2,0:2:0:0:
121,272,73875,2,0,P|151:310|161:364,1,72,2|0,0:2|0:0,0:0:0:0:
184,110,74125,5,2,0:2:0:0:
184,110,74250,2,0,B|149:256|265:247|228:383,2,288,2|0|0,0:2|0:0|0:0,0:0:0:0:
184,110,75500,5,6,0:2:0:0:
77,88,75625,1,2,0:2:0:0:
10,167,75750,1,2,0:2:0:0:
70,59,75875,1,0,0:2:0:0:
184,110,76000,6,0,L|179:174,1,45,10|0,0:2|0:0,0:0:0:0:
172,247,76250,1,6,0:2:0:0:
172,247,76375,2,0,L|193:13,1,225,2|8,0:2|0:2,0:0:0:0:
193,23,77250,1,0,0:0:0:0:
321,17,77500,6,0,P|357:22|388:39,1,72,6|0,0:2|0:0,0:0:0:0:
487,124,77750,1,2,0:2:0:0:
487,124,77875,2,0,P|452:126|420:143,1,72,2|0,0:2|0:0,0:0:0:0:
429,255,78125,1,2,0:2:0:0:
429,255,78250,2,0,P|394:119|468:0,2,288,2|0|0,0:2|0:0|0:0,0:0:0:0:
429,255,79500,5,6,1:2:0:0:
297,232,79625,1,2,1:2:0:0:
487,124,79750,5,2,1:2:0:0:
274,91,79875,1,2,1:2:0:0:
443,280,80000,5,10,1:2:0:0:
275,250,80125,1,2,1:2:0:0:
512,111,80250,5,6,1:2:0:0:
252,70,80375,1,2,1:2:0:0:
459,307,80500,5,6,1:2:0:0:
459,307,81000,2,0,B|414:311|414:311|384:339|384:339|326:343,1,135,10|0,0:2|0:0,0:0:0:0:
219,384,81500,6,0,P|236:320|229:291,1,72,4|0,0:1|0:0,0:0:0:0:
148,248,81750,1,0,0:2:0:0:
148,248,81875,2,0,P|131:312|138:341,1,72,2|0,0:2|0:0,0:0:0:0:
8,123,82125,5,2,0:2:0:0:
8,123,82250,2,0,B|90:104|142:201|75:361,2,288,2|0|0,0:2|0:0|0:0,0:0:0:0:
8,123,83500,5,6,0:2:0:0:
119,68,83625,1,0,0:0:0:0:
1,93,83750,1,0,0:2:0:0:
186,116,83875,1,2,0:2:0:0:
27,0,84000,6,0,L|109:7,1,45,10|0,0:2|0:0,0:0:0:0:
314,25,84250,1,6,0:2:0:0:
314,25,84375,2,0,L|150:10,1,135,2|0,0:2|0:2,0:0:0:0:
180,13,85000,5,14,0:2:0:0:
487,44,85250,1,2,0:2:0:0:
338,293,85500,5,6,0:2:0:0:
445,315,85625,1,0,0:0:0:0:
512,236,85750,1,0,0:2:0:0:
452,344,85875,1,2,0:2:0:0:
338,293,86000,6,0,L|272:298,1,45,8|0,0:2|0:0,0:0:0:0:
209,365,86250,5,2,0:2:0:0:
209,365,86375,2,0,P|190:298|204:228,1,135,2|0,0:2|0:1,0:0:0:0:
104,231,87000,6,0,P|136:144|212:82,1,188.999994232178,2|0,0:1|0:0,0:0:0:0:
379,99,87500,5,6,0:2:0:0:
286,163,87625,1,2,0:2:0:0:
231,61,87750,1,2,0:2:0:0:
281,189,87875,1,2,0:2:0:0:
379,99,88000,6,0,L|304:105,1,53.9999983520508,10|2,0:2|0:2,0:0:0:0:
275,215,88250,2,0,L|351:208,1,53.9999983520508,6|2,0:2|0:2,0:0:0:0:
348,14,88500,5,2,0:2:0:0:
403,107,88625,1,2,0:2:0:0:
211,79,88750,1,2,0:2:0:0:
428,113,88875,1,2,0:2:0:0:
348,14,89000,5,2,0:2:0:0:
451,122,89125,1,2,0:2:0:0:
275,215,89250,2,0,P|316:210|339:215,1,53.9999983520508,2|0,0:2|0:0,0:0:0:0:
440,305,89500,6,0,B|526:310|533:206|473:164|352:172|369:320|177:260,1,432,2|6,0:0|0:0,0:0:0:0:
194,264,90500,5,4,1:2:0:0:
165,248,90625,1,0,0:0:0:0:
137,241,90750,2,0,P|107:239|86:243,1,45,0|0,0:0|0:0,0:0:0:0:
9,268,91000,6,0,L|17:365,1,90,0|0,0:0|0:0,0:0:0:0:
128,159,91500,2,0,L|120:69,1,90,0|0,0:0|0:0,0:0:0:0:
106,352,92000,5,0,0:0:0:0:
149,147,92250,1,0,0:0:0:0:
122,376,92500,5,0,0:0:0:0:
206,323,93000,5,0,0:0:0:0:
300,355,93500,5,0,0:0:0:0:
348,328,93750,1,0,0:0:0:0:
397,337,94000,1,0,0:0:0:0:
492,315,94250,6,0,L|486:376,1,45,0|0,0:0|0:0,0:0:0:0:
424,253,94500,6,0,P|416:227|415:203,1,45,0|0,0:0|0:0,0:0:0:0:
427,135,94750,1,0,0:0:0:0:
427,135,94875,2,0,P|447:116|468:105,1,45,0|0,0:0|0:0,0:0:0:0:
221,101,95250,6,0,L|216:150,1,45,0|0,0:0|0:0,0:0:0:0:
203,225,95500,1,0,0:0:0:0:
203,225,95625,2,0,L|198:274,1,45,0|0,0:0|0:0,0:0:0:0:
261,384,96000,5,0,0:0:0:0:
191,200,96250,1,0,0:0:0:0:
237,368,96500,5,0,0:0:0:0:
396,347,96625,1,0,0:0:0:0:
312,286,96750,1,0,0:0:0:0:
421,352,96875,1,0,0:0:0:0:
406,261,97000,1,0,0:0:0:0:
447,357,97125,1,0,0:0:0:0:
494,281,97250,6,0,L|490:206,1,72,0|0,0:0|0:0,0:0:0:0:
389,124,97500,6,0,P|397:156|403:164,3,45,0|0|0|0,0:0|0:0|0:0|0:0,0:0:0:0:
336,204,98000,2,0,P|354:173|361:137,1,72,0|0,0:0|0:0,0:0:0:0:
176,141,98250,6,0,L|265:132,1,90,0|0,0:0|0:0,0:0:0:0:
485,117,98500,5,4,0:2:0:0:
176,141,98750,5,2,0:2:0:0:
176,141,98875,1,2,0:2:0:0:
176,141,99000,2,0,P|128:103|104:97,1,53.9999983520508,8|0,0:2|0:0,0:0:0:0:
93,240,99250,2,0,P|102:179|96:155,1,53.9999983520508,0|0,0:2|0:0,0:0:0:0:
48,78,99500,5,6,0:2:0:0:
76,266,99750,1,0,0:0:0:0:
102,8,100000,1,10,0:2:0:0:
129,332,100250,1,0,0:2:0:0:
259,322,100500,2,0,L|182:328,1,53.9999983520508,0|0,0:0|0:0,0:0:0:0:
51,340,100750,5,2,0:2:0:0:
335,315,101000,1,8,0:2:0:0:
0,279,101250,1,0,0:2:0:0:
398,378,101500,6,0,P|379:340|417:223,1,161.999995056153,2|0,0:2|0:0,0:0:0:0:
429,208,102000,1,8,0:2:0:0:
366,384,102250,1,4,0:2:0:0:
322,192,102500,6,0,L|451:179,2,107.999996704102,4|0|8,0:2|0:0|0:2,0:0:0:0:
497,0,103250,5,2,0:2:0:0:
459,10,103375,1,2,0:2:0:0:
427,36,103500,2,0,P|422:83|441:131,1,72,6|0,0:2|0:0,0:0:0:0:
512,172,103750,2,0,P|471:100|326:62,1,216,2|0,0:2|0:0,0:0:0:0:
326,77,104250,2,0,P|293:112|261:124,1,72,2|0,0:2|0:0,0:0:0:0:
119,132,104500,6,0,B|107:-12|107:-12|145:48,1,216,2|0,0:1|0:0,0:0:0:0:
102,141,105000,6,0,B|90:-3|90:-3|128:57,1,216,10|0,0:1|0:0,0:0:0:0:
84,151,105500,6,0,B|72:6|72:6|110:67,1,216,2|0,1:1|1:0,0:0:0:0:
66,161,106000,5,8,1:1:0:0:
45,0,106250,2,0,L|50:61,1,53.9999983520508,4|0,0:1|0:0,0:0:0:0:
67,271,106500,5,4,0:2:0:0:
67,271,106750,6,0,P|90:327|108:345,1,53.9999983520508,0|0,0:0|0:2,0:0:0:0:
189,235,107000,2,0,P|151:283|145:307,1,53.9999983520508,10|0,0:2|0:0,0:0:0:0:
288,318,107250,2,0,P|228:309|204:315,1,53.9999983520508,0|0,0:0|0:0,0:0:0:0:
126,363,107500,5,6,0:2:0:0:
314,335,107750,1,0,0:0:0:0:
56,309,108000,1,10,0:0:0:0:
380,282,108250,2,0,P|408:239|412:213,1,53.9999983520508,0|0,0:2|0:0,0:0:0:0:
410,159,108500,5,4,0:2:0:0:
436,366,108750,5,0,0:0:0:0:
403,53,109000,1,10,0:2:0:0:
512,240,109250,2,0,L|457:237,1,53.9999983520508,0|0,0:2|0:0,0:0:0:0:
327,220,109500,6,0,P|330:182|244:76,1,161.999995056153,6|0,0:2|0:2,0:0:0:0:
233,81,110000,2,0,P|208:102|173:108,1,53.9999983520508,10|0,0:2|0:0,0:0:0:0:
110,91,110250,1,4,0:2:0:0:
226,190,110500,6,0,L|118:199,2,107.999996704102,4|0|8,0:2|0:0|0:2,0:0:0:0:
15,384,111250,5,2,0:2:0:0:
53,374,111375,1,2,0:2:0:0:
85,348,111500,2,0,P|90:301|71:253,1,72,6|0,0:2|0:0,0:0:0:0:
0,212,111750,2,0,P|41:284|186:322,1,216,2|0,0:2|0:0,0:0:0:0:
237,306,112250,6,0,P|208:336|199:387,1,90,0|0,0:2|0:0,0:0:0:0:
278,374,112500,6,0,L|267:241,1,126,6|0,0:2|0:2,0:0:0:0:
262,217,113500,5,4,1:2:0:0:
512,248,113625,1,6,0:2:0:0:
512,248,114000,6,0,L|508:283,2,24,8|0|0,0:3|0:0|0:0,0:0:0:0:
458,189,114250,2,0,L|461:155,2,24,4|0|0,0:2|0:0|0:0,0:0:0:0:
392,230,114500,5,4,1:1:0:0:
328,160,114750,5,2,0:2:0:0:
284,137,114875,1,2,0:2:0:0:
235,130,115000,2,0,P|170:143|151:159,1,62.9999980773926,10|0,0:2|0:0,0:0:0:0:
108,88,115250,2,0,P|87:150|90:175,1,62.9999980773926,0|0,0:0|0:0,0:0:0:0:
186,58,115500,6,0,P|207:-3|204:-29,1,62.9999980773926,6|0,0:2|0:0,0:0:0:0:
84,257,115750,2,0,P|57:168|84:79,1,188.999994232178,2|0,0:2|0:0,0:0:0:0:
100,49,116250,1,0,0:0:0:0:
100,49,116500,5,4,0:2:0:0:
235,130,116750,5,2,0:2:0:0:
231,177,116875,2,0,L|225:255,1,62.9999980773926,2|10,0:2|0:2,0:0:0:0:
293,381,117125,1,2,0:2:0:0:
297,334,117250,2,0,L|304:255,1,62.9999980773926,2|0,0:2|0:0,0:0:0:0:
50,335,117500,6,0,P|69:275|60:241,1,62.9999980773926,6|0,0:2|0:0,0:0:0:0:
197,348,117750,2,0,P|180:321|155:302,1,62.9999980773926,2|0,0:2|0:0,0:0:0:0:
303,241,118000,2,0,P|272:243|243:254,1,62.9999980773926,8|0,0:2|0:0,0:0:0:0:
489,304,118250,5,0,0:0:0:0:
499,224,118375,1,0,0:0:0:0:
507,147,118500,1,0,0:0:0:0:
507,147,119000,5,0,0:0:0:0:
429,140,119125,1,0,0:0:0:0:
351,132,119250,1,0,0:0:0:0:
274,123,119375,1,0,0:0:0:0:
195,121,119500,5,6,0:2:0:0:
305,196,119625,1,0,0:0:0:0:
205,146,119750,5,2,0:2:0:0:
241,34,119875,1,2,0:2:0:0:
221,16,120000,5,6,0:1:0:0:
132,15,120250,5,2,0:2:0:0:
122,34,120375,1,2,0:2:0:0:
120,56,120500,1,6,0:2:0:0:
63,124,120750,5,2,0:2:0:0:
73,143,120875,1,2,0:2:0:0:
75,165,121000,1,10,0:2:0:0:
115,243,121250,5,2,0:0:0:0:
105,262,121375,1,2,0:0:0:0:
102,284,121500,6,0,L|304:267,1,188.999994232178,6|0,0:1|0:0,0:0:0:0:
118,364,122000,6,0,L|28:372,1,62.9999980773926,10|0,0:1|0:0,0:0:0:0:
105,262,122250,1,4,0:1:0:0:
105,262,122500,5,4,1:1:0:0:
280,356,122750,5,2,0:2:0:0:
280,306,122875,1,2,0:2:0:0:
301,261,123000,2,0,P|335:237|367:227,1,62.9999980773926,10|0,0:2|0:0,0:0:0:0:
470,283,123250,2,0,P|435:308|403:318,1,62.9999980773926,2|0,0:2|0:0,0:0:0:0:
409,139,123500,6,0,P|433:174|443:206,1,62.9999980773926,6|0,0:2|0:0,0:0:0:0:
512,0,123750,2,0,B|440:69|471:201,1,188.999994232178,2|0,0:2|0:0,0:0:0:0:
471,206,124250,1,0,0:0:0:0:
471,206,124500,5,4,0:2:0:0:
277,30,124750,6,0,L|354:36,1,62.9999980773926,2|0,0:2|0:2,0:0:0:0:
233,149,125000,1,10,0:2:0:0:
186,144,125125,1,0,0:2:0:0:
135,138,125250,2,0,L|46:130,1,62.9999980773926,2|0,0:2|0:0,0:0:0:0:
297,60,125500,6,0,P|324:92|337:130,1,62.9999980773926,6|0,0:2|0:0,0:0:0:0:
275,251,125750,2,0,P|290:211|316:181,1,62.9999980773926,6|0,0:2|0:0,0:0:0:0:
381,343,126000,2,0,L|302:336,1,62.9999980773926,10|0,0:2|0:0,0:0:0:0:
99,357,126250,5,0,0:0:0:0:
85,278,126375,1,0,0:0:0:0:
73,202,126500,1,0,0:0:0:0:
73,202,127000,5,0,0:0:0:0:
151,195,127125,1,0,0:0:0:0:
229,187,127250,1,0,0:0:0:0:
306,178,127375,1,0,0:0:0:0:
385,176,127500,5,6,0:2:0:0:
275,251,127625,1,0,0:0:0:0:
375,201,127750,5,2,0:2:0:0:
339,89,127875,1,2,0:2:0:0:
359,71,128000,5,6,0:1:0:0:
290,25,128250,5,2,0:2:0:0:
272,27,128375,1,2,0:2:0:0:
255,30,128500,1,6,0:2:0:0:
166,100,128750,5,2,0:2:0:0:
183,97,128875,1,2,0:2:0:0:
201,95,129000,1,10,0:2:0:0:
107,162,129250,5,2,0:2:0:0:
89,164,129375,1,2,0:2:0:0:
72,167,129500,6,0,L|5:162,1,62.9999980773926,6|2,0:2|0:2,0:0:0:0:
157,262,129750,2,0,L|95:257,1,62.9999980773926,6|2,0:2|0:2,0:0:0:0:
82,376,130000,2,0,L|76:286,1,90,6|2,0:2|0:2,0:0:0:0:
72,167,130250,5,0,0:0:0:0:
72,167,130500,6,0,B|212:202|115:83|303:104|279:206,1,270,4|0,1:1|0:0,0:0:0:0:
273,234,132500,1,4,0:2:0:0:
316,352,132750,6,0,L|421:342,1,72,4|0,0:2|0:0,0:0:0:0:
479,185,133000,1,10,0:2:0:0:
475,261,133125,1,0,0:0:0:0:
468,338,133250,1,0,0:2:0:0:
388,256,133375,6,0,P|366:214|365:176,2,72,0|4|0,0:0|0:2|1:2,0:0:0:0:
479,185,133750,1,0,0:0:0:0:
406,36,134000,6,0,B|432:14|432:14|421:143,1,135,10|0,0:2|0:0,0:0:0:0:
226,35,134500,6,0,P|270:67|297:202,1,198,4|0,1:1|0:0,0:0:0:0:
287,232,136000,1,0,0:0:0:0:
23,242,136500,6,0,P|17:280|-15:320,1,72,4|0,0:2|0:0,0:0:0:0:
189,364,136750,2,0,P|154:378|103:371,1,72,4|0,0:2|0:0,0:0:0:0:
138,269,137000,5,10,0:2:0:0:
215,263,137125,1,0,0:0:0:0:
273,310,137250,1,0,0:2:0:0:
342,344,137375,1,0,0:0:0:0:
287,232,137500,6,0,P|203:290|82:263,1,216,4|0,3:0|0:0,0:0:0:0:
0,353,138000,6,0,B|26:374|26:374|15:245,1,135,10|0,0:2|0:0,0:0:0:0:
219,142,138500,6,0,P|158:199|130:120,1,198,6|0,1:1|0:0,0:0:0:0:
145,96,140000,1,0,0:0:0:0:
443,243,140500,6,0,P|422:272|393:293,1,72,6|0,0:2|0:0,0:0:0:0:
436,143,140750,1,4,0:2:0:0:
436,143,140875,2,0,P|473:146|506:161,1,72,0|0,0:2|0:0,0:0:0:0:
354,198,141125,6,0,P|340:164|336:128,1,72,4|0,0:2|0:0,0:0:0:0:
465,32,141375,2,0,L|252:51,1,216,0|0,0:2|0:0,0:0:0:0:
445,79,142000,6,0,B|467:53|467:53|338:64,1,135,10|0,0:2|0:0,0:0:0:0:
249,52,142500,6,0,P|219:32|196:28,1,45,6|0,0:2|0:0,0:0:0:0:
192,117,142750,2,0,P|159:132|140:154,1,53.9999983520508,0|0,0:2|0:0,0:0:0:0:
118,359,143000,6,0,P|152:342|167:323,1,58.4999973220826,10|0,0:2|0:0,0:0:0:0:
88,272,143250,2,0,P|90:233|81:204,1,62.9999980773926,0|0,0:2|0:0,0:0:0:0:
29,343,143500,5,6,0:2:0:0:
235,253,143625,2,0,P|202:245|175:226,1,67.5000025749208,2|0,0:2|0:0,0:0:0:0:
4,255,143875,5,0,0:2:0:0:
289,372,144000,2,0,L|146:359,1,144,10|0,0:2|0:0,0:0:0:0:
469,194,144500,6,0,P|497:208|538:211,1,58.4999973220826,2|0,0:2|0:0,0:0:0:0:
371,148,144750,1,0,0:0:0:0:
386,249,144875,2,0,P|430:230|456:198,1,62.9999980773926,2|0,0:2|0:0,0:0:0:0:
355,48,145125,5,0,0:0:0:0:
187,196,145250,2,0,L|320:208,1,125.999996154785,2|4,0:1|0:2,0:0:0:0:
1,344,145750,6,0,L|7:412,2,40.4999987640381,2|0|2,0:2|0:0|0:2,0:0:0:0:
67,291,146000,6,0,P|123:272|154:239,1,80.9999975280763,6|2,1:2|1:2,0:0:0:0:
80,125,146250,2,0,P|68:182|82:225,1,80.9999975280763,6|2,1:2|1:2,0:0:0:0:
249,299,146500,5,2,1:2:0:0:
363,280,146625,1,2,0:2:0:0:
220,190,146750,5,2,0:2:0:0:
367,310,146875,1,2,0:2:0:0:
338,72,147000,5,10,0:2:0:0:
369,333,147125,1,2,0:2:0:0:
457,169,147250,5,2,0:2:0:0:
177,99,147500,6,0,P|141:127|120:180,1,72,6|0,0:2|0:0,0:0:0:0:
296,224,147750,1,2,0:0:0:0:
296,224,147875,2,0,P|257:196|203:188,1,72,2|0,0:2|0:0,0:0:0:0:
457,169,148125,5,2,0:2:0:0:
457,169,148250,2,0,B|311:204|320:88|184:125,2,288,2|0|0,0:2|0:0|0:0,0:0:0:0:
457,169,149500,5,2,0:2:0:0:
350,126,149625,1,2,0:2:0:0:
353,7,149750,1,2,0:2:0:0:
375,112,149875,1,2,0:2:0:0:
250,176,150000,6,0,L|245:240,1,45,10|0,0:2|0:0,0:0:0:0:
239,304,150250,1,6,0:2:0:0:
239,304,150375,2,0,L|261:69,1,225,2|12,0:2|0:2,0:0:0:0:
260,79,151250,1,0,0:0:0:0:
94,3,151500,6,0,P|64:23|44:52,1,72,6|0,0:2|0:0,0:0:0:0:
115,166,151750,1,2,0:0:0:0:
115,166,151875,2,0,P|83:152|47:154,1,72,2|0,0:2|0:0,0:0:0:0:
70,287,152125,1,2,0:2:0:0:
70,287,152250,2,0,P|146:168|112:32,2,288,2|0|0,0:2|0:0|0:0,0:0:0:0:
70,287,153500,5,6,1:2:0:0:
184,164,153625,1,2,1:2:0:0:
201,345,153750,5,2,1:2:0:0:
33,162,153875,1,2,1:2:0:0:
45,303,154000,5,10,1:2:0:0:
195,138,154125,1,2,1:2:0:0:
214,370,154250,5,6,1:2:0:0:
8,144,154375,1,2,1:2:0:0:
338,263,154500,5,6,1:2:0:0:
338,263,155000,2,0,B|360:289|360:289|372:160,1,135,10|0,0:2|0:0,0:0:0:0:
417,106,155500,6,0,P|351:94|323:104,1,72,6|0,0:1|0:0,0:0:0:0:
469,198,155750,1,2,0:2:0:0:
469,198,155875,2,0,P|511:146|516:117,1,72,2|0,0:2|0:0,0:0:0:0:
212,170,156125,5,0,0:1:0:0:
212,170,156250,2,0,B|185:90|276:29|442:78,2,288,2|0|0,0:2|0:0|0:0,0:0:0:0:
212,170,157500,5,6,0:2:0:0:
157,281,157625,1,0,0:0:0:0:
182,163,157750,1,2,0:2:0:0:
205,348,157875,1,2,0:2:0:0:
91,329,158000,6,0,L|97:405,1,45,10|0,0:2|0:0,0:0:0:0:
72,113,158250,1,6,0:2:0:0:
72,113,158375,2,0,L|86:277,1,135,2|0,0:2|0:0,0:0:0:0:
84,247,159000,5,10,0:2:0:0:
475,295,159250,1,2,0:2:0:0:
431,0,159500,5,6,0:2:0:0:
388,107,159625,1,0,0:0:0:0:
269,104,159750,1,0,0:2:0:0:
374,82,159875,1,2,0:2:0:0:
438,207,160000,6,0,L|502:212,1,45,10|0,0:2|0:0,0:0:0:0:
363,299,160250,5,2,0:2:0:0:
363,299,160375,2,0,P|317:250|310:168,1,135,2|0,0:2|0:0,0:0:0:0:
300,0,161000,6,0,P|312:93|270:177,1,188.999994232178,10|0,0:2|0:0,0:0:0:0:
162,216,161500,5,2,0:2:0:0:
226,309,161625,1,2,0:2:0:0:
124,364,161750,1,2,0:2:0:0:
252,314,161875,1,2,0:2:0:0:
162,216,162000,6,0,L|169:291,1,53.9999983520508,10|0,0:2|0:0,0:0:0:0:
278,320,162250,2,0,L|272:244,1,53.9999983520508,6|0,0:2|0:0,0:0:0:0:
77,247,162500,5,2,0:2:0:0:
170,192,162625,1,2,0:2:0:0:
142,384,162750,1,2,0:2:0:0:
176,167,162875,1,2,0:2:0:0:
77,247,163000,5,2,0:2:0:0:
185,144,163125,1,2,0:2:0:0:
278,320,163250,2,0,P|270:276|258:253,1,62.9999980773926,2|0,0:2|0:0,0:0:0:0:
87,139,163500,5,2,0:2:0:0:
92,116,163625,1,2,0:2:0:0:
100,95,163750,1,2,0:2:0:0:
110,77,163875,1,2,0:2:0:0:
120,58,164000,1,2,0:2:0:0:
127,37,164125,1,2,0:2:0:0:
132,15,164250,1,4,0:2:0:0:
87,139,164500,5,4,0:2:0:0:
87,139,165250,1,4,0:2:0:0:
87,139,166500,1,4,0:2:0:0:
87,139,167250,1,4,0:2:0:0:
87,139,168500,1,4,0:2:0:0:
87,139,169250,1,4,0:2:0:0:
87,139,170500,1,4,0:2:0:0:
87,139,171750,1,4,0:2:0:0:
87,139,172125,1,4,0:2:0:0:
87,139,172500,1,4,0:2:0:0:
87,139,173250,1,4,0:2:0:0:
87,139,174500,1,4,0:2:0:0:
87,139,175250,1,4,0:2:0:0:
87,139,176500,1,4,0:2:0:0:
87,139,176875,1,4,0:2:0:0:
87,139,177250,1,4,1:2:0:0:
87,139,178500,1,4,0:2:0:0:
87,139,178875,1,4,0:2:0:0:
87,139,179250,1,4,0:2:0:0:
169,166,179500,6,0,P|143:211|59:228,1,125.999996154785,6|6,0:2|0:2,0:0:0:0:
0,119,180000,2,0,P|26:74|110:57,1,125.999996154785,10|2,0:2|0:2,0:0:0:0:
296,106,180500,6,0,P|339:86|363:56,1,80.9999975280763,6|0,1:2|0:0,0:0:0:0:
372,105,181000,2,0,P|396:63|397:25,1,80.9999975280763,8|0,0:2|0:0,0:0:0:0:
432,52,181500,5,2,0:0:0:0:
404,124,181625,1,0,0:0:0:0:
412,199,181750,1,0,0:0:0:0:
451,58,182000,5,8,0:0:0:0:
423,130,182125,1,0,0:0:0:0:
431,205,182250,1,4,0:0:0:0:
512,332,182500,6,0,P|440:239|255:225,1,315,4|0,1:2|0:0,0:0:0:0:
195,286,183500,5,2,0:0:0:0:
123,258,183625,1,0,0:0:0:0:
48,266,183750,1,0,0:0:0:0:
189,305,184000,5,8,0:0:0:0:
117,277,184125,1,0,0:0:0:0:
42,285,184250,1,4,0:0:0:0:
243,360,184500,6,0,P|233:313|209:284,1,80.9999975280763,6|0,1:2|0:0,0:0:0:0:
258,285,185000,2,0,P|223:253|186:244,1,80.9999975280763,10|0,0:2|0:0,0:0:0:0:
212,220,185500,5,6,1:2:0:0:
206,141,185625,1,0,0:0:0:0:
198,61,185750,1,0,0:0:0:0:
193,217,186000,5,0,0:0:0:0:
187,138,186125,1,2,0:2:0:0:
179,58,186250,1,0,0:0:0:0:
290,68,186500,5,6,0:2:0:0:
323,169,186625,1,0,0:0:0:0:
322,72,186750,1,2,0:2:0:0:
373,0,186875,1,0,0:0:0:0:
351,74,187000,1,10,0:2:0:0:
415,124,187125,1,0,0:0:0:0:
384,76,187250,1,2,0:2:0:0:
402,39,187375,1,0,0:0:0:0:
290,68,187500,5,4,0:0:0:0:
507,90,187750,5,2,0:0:0:0:
507,90,187875,2,0,P|507:143|462:223,1,125.999996154785,2|0,0:0|0:0,0:0:0:0:
454,231,188250,1,0,0:0:0:0:
49,222,188500,5,6,0:2:0:0:
52,199,188625,1,2,0:2:0:0:
55,178,188750,1,2,0:2:0:0:
115,305,189000,5,2,0:2:0:0:
118,282,189125,1,2,0:2:0:0:
121,261,189250,1,2,0:2:0:0:
121,261,189500,5,4,0:2:0:0:
121,261,190000,1,0,0:0:0:0:
209,216,190500,5,2,0:2:0:0:
206,239,190625,1,2,0:2:0:0:
203,260,190750,1,2,0:2:0:0:
143,133,191000,5,2,0:2:0:0:
140,156,191125,1,2,0:2:0:0:
137,177,191250,1,2,0:2:0:0:
137,177,191500,5,4,0:2:0:0:
137,177,192000,1,0,0:0:0:0:
209,216,192250,1,0,0:0:0:0:
49,222,192500,5,6,0:2:0:0:
52,199,192625,1,2,0:2:0:0:
55,178,192750,1,2,0:2:0:0:
115,305,193000,5,10,0:2:0:0:
118,282,193125,1,2,0:2:0:0:
121,261,193250,1,2,0:2:0:0:
121,261,193500,5,4,0:2:0:0:
121,261,194000,1,10,0:2:0:0:
208,315,194500,5,6,0:2:0:0:
241,214,194625,1,0,0:0:0:0:
240,311,194750,1,2,0:2:0:0:
291,383,194875,1,0,0:0:0:0:
269,309,195000,1,10,0:2:0:0:
333,259,195125,1,0,0:0:0:0:
302,307,195250,1,2,0:2:0:0:
320,344,195375,1,0,0:0:0:0:
208,315,195500,5,6,0:2:0:0:
425,293,195750,5,2,0:2:0:0:
425,293,195875,2,0,P|425:239|380:159,1,125.999996154785,2|2,0:2|0:2,0:0:0:0:
372,152,196250,1,4,0:2:0:0:
256,192,196500,12,0,199375,0:0:0:0:
263,85,200000,5,2,0:0:0:0:
263,85,200500,5,6,1:2:0:0:
149,104,200625,1,2,0:2:0:0:
292,194,200750,5,2,0:2:0:0:
145,74,200875,1,2,0:2:0:0:
174,312,201000,5,10,0:2:0:0:
143,51,201125,1,2,0:2:0:0:
55,215,201250,5,2,0:2:0:0:
335,285,201500,6,0,P|372:256|393:203,1,72,6|0,0:2|0:0,0:0:0:0:
216,160,201750,1,2,0:2:0:0:
216,160,201875,2,0,P|255:188|309:196,1,72,2|0,0:2|0:0,0:0:0:0:
55,215,202125,5,2,0:2:0:0:
55,215,202250,2,0,B|201:180|192:296|328:259,2,288,2|0|0,0:2|0:0|0:0,0:0:0:0:
55,215,203500,5,6,0:2:0:0:
162,258,203625,1,0,0:0:0:0:
159,377,203750,1,2,0:0:0:0:
137,272,203875,1,2,0:0:0:0:
262,208,204000,6,0,L|267:144,1,45,10|0,0:2|0:0,0:0:0:0:
273,80,204250,1,6,0:2:0:0:
273,80,204375,2,0,L|251:315,1,225,2|8,0:2|0:2,0:0:0:0:
252,305,205250,1,0,0:0:0:0:
418,381,205500,6,0,P|448:361|468:332,1,72,6|0,0:2|0:0,0:0:0:0:
397,218,205750,1,2,0:2:0:0:
397,218,205875,2,0,P|429:232|465:230,1,72,2|0,0:2|0:0,0:0:0:0:
442,97,206125,1,2,0:2:0:0:
442,97,206250,2,0,P|366:216|400:352,2,288,2|0|0,0:2|0:0|0:0,0:0:0:0:
442,97,207500,5,6,1:2:0:0:
328,220,207625,1,2,1:2:0:0:
311,39,207750,5,2,1:2:0:0:
479,222,207875,1,2,1:2:0:0:
467,81,208000,5,10,1:2:0:0:
317,246,208125,1,2,1:2:0:0:
298,14,208250,5,6,1:2:0:0:
504,240,208375,1,2,1:2:0:0:
174,121,208500,5,6,1:2:0:0:
174,121,209000,2,0,B|153:94|153:94|141:223,1,135,10|0,0:2|0:0,0:0:0:0:
95,278,209500,6,0,P|161:290|189:280,1,72,6|0,0:1|0:0,0:0:0:0:
43,186,209750,1,0,0:0:0:0:
43,186,209875,2,0,P|1:238|-4:267,1,72,2|0,0:2|0:0,0:0:0:0:
300,214,210125,5,2,0:2:0:0:
300,214,210250,2,0,B|327:294|236:355|70:306,2,288,2|0|0,0:2|0:0|0:0,0:0:0:0:
300,214,211500,5,6,0:2:0:0:
355,103,211625,1,0,0:0:0:0:
330,221,211750,1,2,0:2:0:0:
307,36,211875,1,2,0:2:0:0:
421,55,212000,6,0,L|415:-21,1,45,10|0,0:2|0:0,0:0:0:0:
440,271,212250,1,6,0:2:0:0:
440,271,212375,2,0,L|426:107,1,135,2|0,0:2|0:0,0:0:0:0:
428,137,213000,5,10,0:2:0:0:
37,89,213250,1,2,0:2:0:0:
81,384,213500,5,6,0:2:0:0:
124,277,213625,1,0,0:0:0:0:
243,280,213750,1,2,0:2:0:0:
138,302,213875,1,2,0:2:0:0:
74,177,214000,6,0,L|10:172,1,45,10|0,0:2|0:0,0:0:0:0:
179,190,214250,5,2,0:2:0:0:
179,190,214375,2,0,P|167:124|145:99,1,90,2|0,0:2|0:0,0:0:0:0:
130,87,214750,6,0,L|74:91,2,31.4999990386963,0|0|0,1:0|1:0|1:0,0:0:0:0:
224,56,215000,6,0,P|276:40|310:49,1,62.9999980773926,8|0,1:2|3:0,0:0:0:0:
224,267,215250,2,0,P|198:249|181:223,1,62.9999980773926,0|0,1:0|1:0,0:0:0:0:
395,99,215500,5,0,0:0:0:0:
288,173,215625,1,0,0:0:0:0:
224,56,215750,1,0,0:0:0:0:
282,203,215875,1,0,0:0:0:0:
395,99,216000,6,0,L|308:106,1,62.9999980773926,0|0,0:0|0:0,0:0:0:0:
275,233,216250,2,0,L|362:226,1,62.9999980773926,8|0,0:0|0:0,0:0:0:0:
37,161,216500,5,6,1:2:0:0:
97,270,216625,1,2,0:2:0:0:
103,92,216750,5,2,0:2:0:0:
27,341,216875,1,2,0:2:0:0:
24,138,217000,5,10,0:2:0:0:
108,296,217125,1,2,0:2:0:0:
182,46,217250,5,2,0:2:0:0:
101,381,217375,1,2,0:2:0:0:
193,19,217500,6,0,P|240:12|293:31,1,72,6|0,0:2|0:0,0:0:0:0:
391,112,217750,1,2,0:2:0:0:
391,112,217875,2,0,P|361:74|351:20,1,72,2|0,0:2|0:0,0:0:0:0:
328,274,218125,5,2,0:2:0:0:
328,274,218250,2,0,B|363:128|247:137|284:1,2,288,2|0|0,0:2|0:0|0:0,0:0:0:0:
328,274,219500,5,6,0:2:0:0:
435,296,219625,1,0,0:0:0:0:
502,217,219750,1,2,0:2:0:0:
442,325,219875,1,2,0:2:0:0:
404,209,220000,6,0,L|409:145,1,45,10|0,0:2|0:0,0:0:0:0:
297,363,220250,1,2,0:2:0:0:
297,363,220375,2,0,L|318:129,1,225,2|10,0:2|0:2,0:0:0:0:
318,138,221250,1,0,0:0:0:0:
191,367,221500,6,0,P|155:362|124:345,1,72,6|0,0:2|0:0,0:0:0:0:
25,260,221750,1,2,0:2:0:0:
25,260,221875,2,0,P|60:258|92:241,1,72,2|0,0:2|0:0,0:0:0:0:
83,129,222125,1,2,0:2:0:0:
83,129,222250,2,0,P|118:265|78:360,1,216,2|0,0:2|0:0,0:0:0:0:
82,359,222750,6,0,L|41:361,2,36,0|0|0,1:0|1:0|1:0,0:0:0:0:
174,356,223000,6,0,P|208:318|217:269,1,72,8|0,1:2|1:0,0:0:0:0:
100,221,223250,2,0,P|116:269|154:301,1,72,0|0,1:0|1:0,0:0:0:0:
83,129,223500,5,2,0:2:0:0:
215,152,223625,1,2,0:2:0:0:
25,260,223750,5,2,0:2:0:0:
238,293,223875,1,2,0:2:0:0:
69,104,224000,5,2,0:2:0:0:
237,134,224125,1,2,0:2:0:0:
0,273,224250,5,2,1:2:0:0:
260,314,224375,1,2,0:2:0:0:
53,77,224500,5,4,1:2:0:0:
15,176,224625,1,2,0:2:0:0:
37,49,224750,1,2,0:2:0:0:
161,92,224875,1,2,0:2:0:0:
21,21,225000,6,0,B|67:25|67:25|101:3|101:3|159:9,1,135,2|2,3:2|3:2,0:0:0:0:
293,0,225500,6,0,P|276:64|283:93,1,72,6|0,0:2|0:0,0:0:0:0:
364,136,225750,1,2,0:2:0:0:
364,136,225875,2,0,P|381:72|374:43,1,72,2|0,0:2|0:0,0:0:0:0:
504,261,226125,5,2,0:2:0:0:
504,261,226250,2,0,B|422:280|370:183|437:23,2,288,2|0|2,0:2|0:0|0:2,0:0:0:0:
504,261,227500,5,6,0:2:0:0:
393,316,227625,1,0,0:0:0:0:
511,291,227750,1,2,0:2:0:0:
326,268,227875,1,2,0:2:0:0:
485,384,228000,6,0,L|403:377,1,45,8|0,0:2|0:0,0:0:0:0:
198,359,228250,1,0,0:0:0:0:
198,359,228375,2,0,L|362:374,1,135,2|0,0:2|0:0,0:0:0:0:
332,371,229000,5,10,0:2:0:0:
25,340,229250,1,2,0:2:0:0:
174,91,229500,5,6,0:2:0:0:
67,69,229625,1,0,0:0:0:0:
0,148,229750,1,2,0:2:0:0:
60,40,229875,1,2,0:2:0:0:
105,180,230000,6,0,L|110:246,1,45,10|0,0:2|0:0,0:0:0:0:
303,19,230250,5,0,0:0:0:0:
303,19,230375,2,0,P|322:86|308:156,1,135,2|0,0:2|0:0,0:0:0:0:
408,153,231000,6,0,P|376:240|300:302,1,188.999994232178,10|0,0:2|0:0,0:0:0:0:
133,285,231500,5,6,1:2:0:0:
226,221,231625,1,2,0:2:0:0:
281,323,231750,1,2,0:2:0:0:
231,195,231875,1,2,0:2:0:0:
133,285,232000,6,0,L|208:279,1,53.9999983520508,10|0,0:2|0:0,0:0:0:0:
237,169,232250,2,0,L|161:176,1,53.9999983520508,2|0,0:2|0:0,0:0:0:0:
164,370,232500,5,2,0:2:0:0:
109,277,232625,1,2,0:2:0:0:
301,305,232750,1,2,0:2:0:0:
84,271,232875,1,2,0:2:0:0:
164,370,233000,5,2,0:2:0:0:
61,262,233125,1,2,0:2:0:0:
237,169,233250,2,0,P|196:174|173:169,1,53.9999983520508,2|0,0:2|0:0,0:0:0:0:
61,262,233500,5,2,0:0:0:0:
164,370,233625,1,0,0:0:0:0:
84,271,233750,1,2,0:0:0:0:
301,305,233875,1,0,0:0:0:0:
109,277,234000,5,2,0:0:0:0:
164,370,234125,1,0,0:0:0:0:
237,169,234250,1,2,0:0:0:0:
279,325,234375,1,0,0:0:0:0:
133,285,234500,5,4,1:0:0:0:
