osu file format v14

[General]
AudioFilename: audio.mp3
AudioLeadIn: 0
PreviewTime: 32608
Countdown: 0
SampleSet: Soft
StackLeniency: 0.5
Mode: 0
LetterboxInBreaks: 0
WidescreenStoryboard: 1

[Editor]
Bookmarks: 10625,27177,32694,54763,76832,82349,98901,104418,126487,148556
DistanceSpacing: 1
BeatDivisor: 4
GridSize: 32
TimelineZoom: 1.2

[Metadata]
Title:New Wave
TitleUnicode:New Wave
Artist:Brookes Brothers feat. Georgie Allen
ArtistUnicode:Brookes Brothers feat. Georgie Allen
Creator:Mir
Version:Normal
Source:
Tags:yearmix liquicity 2018 dnb drum and bass yusomi zetera
BeatmapID:2043275
BeatmapSetID:961042

[Difficulty]
HPDrainRate:2
CircleSize:3
OverallDifficulty:3
ApproachRate:5
SliderMultiplier:0.999999999999999
SliderTickRate:1

[Events]
//Background and Video events
0,0,"fairytale.jpg",0,0
//Break Periods
2,76860,78391
2,148584,150115
//Storyboard Layer 0 (Background)
//Storyboard Layer 1 (Fail)
//Storyboard Layer 2 (Pass)
//Storyboard Layer 3 (Foreground)
//Storyboard Sound Samples

[TimingPoints]
7867,344.827586206897,4,2,1,20,1,0
8556,-100,4,2,1,30,0,0
9246,-100,4,2,1,40,0,0
9935,-100,4,2,1,50,0,0
32694,-83.3333333333333,4,2,1,80,0,1
34117,-83.3333333333333,4,2,1,5,0,1
34160,-83.3333333333333,4,2,1,80,0,1
34461,-83.3333333333333,4,2,1,5,0,1
34504,-83.3333333333333,4,2,1,80,0,1
34806,-83.3333333333333,4,2,1,5,0,1
34849,-83.3333333333333,4,2,1,80,0,1
39634,-83.3333333333333,4,2,1,5,0,1
39677,-83.3333333333333,4,2,1,80,0,1
39979,-83.3333333333333,4,2,1,5,0,1
40022,-83.3333333333333,4,2,1,80,0,1
40323,-83.3333333333333,4,2,1,5,0,1
40366,-83.3333333333333,4,2,1,80,0,1
43642,-83.3333333333333,4,2,1,60,0,0
43729,-83.3333333333333,4,2,1,80,0,1
45151,-83.3333333333333,4,2,1,5,0,1
45194,-83.3333333333333,4,2,1,80,0,1
45496,-83.3333333333333,4,2,1,5,0,1
45539,-83.3333333333333,4,2,1,80,0,1
45841,-83.3333333333333,4,2,1,5,0,1
45884,-83.3333333333333,4,2,1,80,0,1
50668,-83.3333333333333,4,2,1,5,0,1
50711,-83.3333333333333,4,2,1,80,0,1
51013,-83.3333333333333,4,2,1,5,0,1
51056,-83.3333333333333,4,2,1,80,0,1
51358,-83.3333333333333,4,2,1,5,0,1
51401,-83.3333333333333,4,2,1,80,0,1
54677,-83.3333333333333,4,2,1,80,0,0
54763,-83.3333333333333,4,2,1,80,0,1
56185,-83.3333333333333,4,2,1,5,0,1
56229,-83.3333333333333,4,2,1,80,0,1
56875,-83.3333333333333,4,2,1,5,0,1
56919,-83.3333333333333,4,2,1,80,0,1
61703,-83.3333333333333,4,2,1,5,0,1
61747,-83.3333333333333,4,2,1,80,0,1
62392,-83.3333333333333,4,2,1,5,0,1
62436,-83.3333333333333,4,2,1,80,0,1
65711,-83.3333333333333,4,2,1,80,0,0
65798,-83.3333333333333,4,2,1,80,0,1
67220,-83.3333333333333,4,2,1,5,0,1
67264,-83.3333333333333,4,2,1,80,0,1
67910,-83.3333333333333,4,2,1,5,0,1
67954,-83.3333333333333,4,2,1,80,0,1
72737,-83.3333333333333,4,2,1,5,0,1
72781,-83.3333333333333,4,2,1,80,0,1
73427,-83.3333333333333,4,2,1,5,0,1
73471,-83.3333333333333,4,2,1,80,0,1
76660,-83.3333333333333,4,2,1,80,0,0
79591,-83.3333333333333,4,2,1,20,0,0
80280,-83.3333333333333,4,2,1,30,0,0
80970,-83.3333333333333,4,2,1,40,0,0
81659,-83.3333333333333,4,2,1,50,0,0
83039,-100,4,2,1,50,0,0
100280,-100,4,2,1,60,0,0
104418,-83.3333333333333,4,2,1,80,0,1
105841,-83.3333333333333,4,2,1,5,0,1
105884,-83.3333333333333,4,2,1,80,0,1
106185,-83.3333333333333,4,2,1,5,0,1
106228,-83.3333333333333,4,2,1,80,0,1
106530,-83.3333333333333,4,2,1,5,0,1
106573,-83.3333333333333,4,2,1,80,0,1
111358,-83.3333333333333,4,2,1,5,0,1
111401,-83.3333333333333,4,2,1,80,0,1
111703,-83.3333333333333,4,2,1,5,0,1
111746,-83.3333333333333,4,2,1,80,0,1
112047,-83.3333333333333,4,2,1,5,0,1
112090,-83.3333333333333,4,2,1,80,0,1
115280,-83.3333333333333,4,2,1,80,0,1
115367,-83.3333333333333,4,2,1,60,0,0
115453,-83.3333333333333,4,2,1,80,0,1
116875,-83.3333333333333,4,2,1,5,0,1
116918,-83.3333333333333,4,2,1,80,0,1
117220,-83.3333333333333,4,2,1,5,0,1
117263,-83.3333333333333,4,2,1,80,0,1
117565,-83.3333333333333,4,2,1,5,0,1
117608,-83.3333333333333,4,2,1,80,0,1
122392,-83.3333333333333,4,2,1,5,0,1
122435,-83.3333333333333,4,2,1,80,0,1
122737,-83.3333333333333,4,2,1,5,0,1
122780,-83.3333333333333,4,2,1,80,0,1
123082,-83.3333333333333,4,2,1,5,0,1
123125,-83.3333333333333,4,2,1,80,0,1
126142,-83.3333333333333,4,2,1,60,0,0
151315,-83.3333333333333,4,2,1,20,0,0
152004,-83.3333333333333,4,2,1,30,0,0
152694,-83.3333333333333,4,2,1,40,0,0
153383,-83.3333333333333,4,2,1,50,0,0

[Colours]
Combo1 : 139,102,148
Combo2 : 255,173,95
Combo3 : 244,134,123
Combo4 : 200,112,146

[HitObjects]
256,192,7867,12,2,10625,0:2:0:0:
459,98,11315,6,0,P|399:121|317:163,1,150,8|0,0:2|3:2,0:0:0:0:
283,190,12004,2,0,P|223:167|187:150,1,99.9999999999999,0|0,0:2|3:2,0:0:0:0:
174,52,12694,1,8,0:2:0:0:
78,82,13039,2,0,P|53:65|34:45,2,50,0|0|0,0:2|1:2|3:2,0:0:0:0:
90,181,13729,6,0,P|57:209|21:258,2,99.9999999999999,0|8|0,0:2|0:2|0:2,0:0:0:0:
188,197,14763,1,0,1:2:0:0:
263,262,15108,1,0,3:2:0:0:
361,242,15453,2,0,L|376:301,2,50,8|0|0,0:2|1:2|1:2,0:0:0:0:
450,197,16142,6,0,P|465:154|476:85,1,99.9999999999999,4|0,3:2|3:2,0:0:0:0:
422,18,16832,2,0,L|255:30,1,150,12|0,0:2|3:2,0:0:0:0:
223,18,17522,2,0,P|209:62|190:136,1,99.9999999999999,0|0,0:2|3:2,0:0:0:0:
205,213,18211,1,8,0:2:0:0:
300,183,18556,2,0,P|343:170|365:167,2,50,0|8|0,0:2|0:3|3:2,0:0:0:0:
205,213,19246,5,0,3:2:0:0:
161,302,19591,1,8,0:2:0:0:
161,302,19763,2,0,P|116:333|70:327,1,99.9999999999999,0|0,0:2|3:2,0:0:0:0:
43,287,20280,2,0,L|37:174,1,99.9999999999999,0|4,0:2|0:3,0:0:0:0:
47,87,20970,2,0,L|-7:73,2,50,8|4|4,0:2|0:3|0:3,0:0:0:0:
94,69,21487,1,8,0:2:0:0:
94,69,21660,5,4,3:2:0:0:
178,122,22004,1,0,0:2:0:0:
253,56,22349,2,0,B|309:44|309:44|348:59|348:59|409:47,1,150,12|0,0:2|3:2,0:0:0:0:
448,53,23039,2,0,P|454:96|443:172,1,99.9999999999999,0|0,0:2|3:2,0:0:0:0:
371,216,23729,1,8,0:2:0:0:
296,150,24073,2,0,P|265:153|236:161,2,50,0|0|0,0:2|1:2|3:2,0:0:0:0:
371,216,24763,5,0,3:2:0:0:
459,262,25108,2,0,B|473:300|473:300|449:362,1,99.9999999999999,8|0,0:2|0:2,0:0:0:0:
402,366,25625,1,0,3:2:0:0:
402,366,25798,2,0,L|297:348,1,99.9999999999999,8|8,0:2|0:3,0:0:0:0:
217,297,26487,2,0,L|200:357,2,50,8|4|4,0:2|0:3|0:3,0:0:0:0:
192,253,27004,1,4,0:3:0:0:
192,253,27177,6,0,P|128:237|83:229,1,99.9999999999999,0|0,3:2|3:2,0:0:0:0:
35,149,27867,2,0,P|83:136|132:126,1,99.9999999999999,0|0,3:2|3:2,0:0:0:0:
227,157,28556,2,0,P|241:94|242:42,1,99.9999999999999,0|0,3:2|3:2,0:0:0:0:
336,22,29246,2,0,P|339:71|351:120,1,99.9999999999999,0|0,3:2|3:2,0:0:0:0:
394,210,29935,5,0,3:2:0:0:
450,292,30280,1,0,3:2:0:0:
386,367,30625,1,0,3:2:0:0:
291,332,30970,1,0,3:2:0:0:
294,231,31315,5,0,3:2:0:0:
391,180,31660,1,0,3:2:0:0:
372,71,32005,1,0,3:2:0:0:
262,57,32350,1,0,3:2:0:0:
210,152,32694,6,0,B|158:156|158:156|152:165|152:165|82:168,1,119.999996337891,6|10,3:2|0:2,0:0:0:0:
46,302,33384,2,0,L|114:314,1,59.9999981689453,2|2,0:2|3:2,0:0:0:0:
152,349,33729,2,0,L|211:338,1,59.9999981689453,10|2,0:2|0:2,0:0:0:0:
260,304,34073,5,2,3:2:0:0:
368,356,34418,1,10,0:2:0:0:
453,271,34763,1,2,0:2:0:0:
397,164,35108,1,10,0:2:0:0:
278,182,35453,6,0,L|136:161,2,119.999996337891,2|10|2,3:2|0:2|0:2,0:0:0:0:
308,130,36315,1,0,3:2:0:0:
308,130,36487,2,0,P|311:83|309:53,1,59.9999981689453,10|0,0:2|0:2,0:0:0:0:
311,9,36832,1,2,3:2:0:0:
191,20,37177,1,10,0:2:0:0:
71,31,37522,2,0,L|-13:38,2,59.9999981689453,2|0|10,0:2|3:2|0:2,0:0:0:0:
156,115,38211,6,0,P|152:160|141:247,1,119.999996337891,6|8,3:2|0:2,0:0:0:0:
202,338,38901,2,0,P|244:321|268:314,1,59.9999981689453,2|2,0:2|3:2,0:0:0:0:
281,261,39246,2,0,P|309:270|337:282,1,59.9999981689453,10|2,0:2|0:2,0:0:0:0:
364,335,39591,5,2,3:2:0:0:
472,285,39935,1,10,0:2:0:0:
501,168,40280,1,2,0:2:0:0:
442,63,40625,1,10,0:2:0:0:
323,84,40970,6,0,P|250:44|225:-6,2,119.999996337891,2|10|2,3:2|0:2|0:2,0:0:0:0:
352,136,41832,1,0,3:2:0:0:
352,136,42004,2,0,P|364:182|361:207,1,59.9999981689453,10|0,0:2|0:2,0:0:0:0:
334,247,42349,1,2,3:2:0:0:
221,288,42694,2,0,P|193:339|180:388,2,89.999997253418,10|2|0,0:2|3:2|3:2,0:0:0:0:
236,229,43384,2,0,P|191:209|164:208,1,59.9999981689453,10|0,0:2|0:0,0:0:0:0:
130,241,43729,6,0,B|111:199|111:199|131:105,1,119.999996337891,6|10,3:2|0:2,0:0:0:0:
167,13,44418,2,0,L|251:28,1,59.9999981689453,2|2,0:2|3:2,0:0:0:0:
256,75,44763,2,0,L|315:64,1,59.9999981689453,10|2,0:2|0:2,0:0:0:0:
370,41,45108,5,2,3:2:0:0:
464,115,45453,1,10,0:2:0:0:
475,234,45798,1,2,0:2:0:0:
417,338,46142,1,10,0:2:0:0:
299,315,46487,6,0,P|206:298|164:295,2,119.999996337891,2|10|2,3:2|0:2|0:2,0:0:0:0:
342,273,47349,1,0,3:2:0:0:
342,273,47522,2,0,P|350:223|352:199,1,59.9999981689453,10|0,0:2|0:2,0:0:0:0:
327,158,47867,1,2,3:2:0:0:
232,84,48211,1,10,0:2:0:0:
122,132,48556,2,0,L|105:201,2,59.9999981689453,2|0|10,0:2|3:2|0:2,0:0:0:0:
110,72,49073,1,0,0:2:0:0:
110,72,49246,6,0,B|73:49|73:49|-21:70,2,119.999996337891,2|8|2,3:2|0:2|0:2,0:0:0:0:
232,84,50280,2,0,P|276:67|309:53,1,59.9999981689453,10|2,0:2|0:2,0:0:0:0:
347,52,50625,5,2,3:2:0:0:
459,92,50970,1,10,0:2:0:0:
458,212,51315,1,2,0:2:0:0:
343,249,51660,6,0,L|218:224,1,119.999996337891,10|2,0:2|3:2,0:0:0:0:
143,137,52349,2,0,P|104:186|111:250,1,119.999996337891,10|2,0:2|0:2,0:0:0:0:
150,282,52867,1,2,3:2:0:0:
150,282,53039,1,10,0:2:0:0:
235,366,53384,2,0,P|272:335|354:332,1,119.999996337891,2|10,3:2|0:2,0:0:0:0:
391,361,53901,1,2,0:2:0:0:
391,361,54073,1,2,0:2:0:0:
494,299,54418,1,10,0:2:0:0:
448,187,54763,6,0,B|396:159|396:159|328:174,1,119.999996337891,6|10,3:2|0:2,0:0:0:0:
277,181,55280,1,0,0:0:0:0:
277,181,55453,2,0,P|267:131|236:47,1,119.999996337891,2|10,0:2|0:2,0:0:0:0:
187,45,55970,1,2,0:2:0:0:
187,45,56142,5,2,3:2:0:0:
71,73,56487,1,10,0:2:0:0:
69,193,56832,1,2,0:2:0:0:
181,221,57177,1,8,0:2:0:0:
203,338,57522,6,0,P|260:328|327:297,1,119.999996337891,2|8,3:2|0:2,0:0:0:0:
334,245,58039,2,0,P|373:250|461:275,1,119.999996337891,2|0,0:2|3:2,0:0:0:0:
498,234,58556,2,0,P|510:182|510:161,1,59.9999981689453,10|0,0:2|0:2,0:0:0:0:
474,127,58901,1,0,3:2:0:0:
376,56,59246,2,0,L|384:-5,2,59.9999981689453,8|0|2,0:2|0:2|0:2,0:0:0:0:
319,77,59763,2,0,L|327:138,2,59.9999981689453,0|8|2,3:2|0:2|0:2,0:0:0:0:
264,51,60280,6,0,P|200:38|144:75,1,119.999996337891,2|8,3:2|0:2,0:0:0:0:
127,180,60970,2,0,L|145:252,1,59.9999981689453,2|2,0:2|3:2,0:0:0:0:
101,283,61315,2,0,L|83:355,1,59.9999981689453,10|2,0:2|0:2,0:0:0:0:
139,369,61660,5,2,3:2:0:0:
254,338,62004,1,10,0:2:0:0:
370,307,62349,1,2,0:2:0:0:
486,277,62694,6,0,B|493:236|493:236|461:152,1,119.999996337891,8|2,0:2|3:2,0:0:0:0:
364,97,63384,2,0,L|241:125,1,119.999996337891,8|0,0:2|0:2,0:0:0:0:
192,98,63901,1,0,3:2:0:0:
192,98,64073,1,10,0:2:0:0:
55,215,64590,1,2,3:2:0:0:
55,215,64763,1,8,0:2:0:0:
135,303,65108,2,0,B|171:294|171:294|215:309,1,59.9999981689453,2|0,3:2|3:2,0:0:0:0:
234,344,65453,2,0,B|270:353|270:353|314:338,1,59.9999981689453,10|0,0:2|3:2,0:0:0:0:
335,304,65798,6,0,B|359:256|359:256|337:175,1,119.999996337891,6|10,3:2|0:2,0:0:0:0:
278,89,66487,2,0,P|324:71|351:73,1,59.9999981689453,2|2,0:2|3:2,0:0:0:0:
371,23,66832,2,0,P|400:27|426:41,1,59.9999981689453,10|2,0:2|0:2,0:0:0:0:
465,87,67177,5,2,3:2:0:0:
491,203,67522,1,10,0:2:0:0:
396,276,67867,1,2,0:2:0:0:
370,160,68212,1,8,0:2:0:0:
278,89,68556,6,0,L|143:70,1,119.999996337891,2|8,3:2|0:2,0:0:0:0:
125,122,69073,2,0,L|6:138,1,119.999996337891,2|0,0:2|3:2,0:0:0:0:
5,199,69591,2,0,P|22:234|41:261,1,59.9999981689453,10|0,0:2|0:2,0:0:0:0:
85,281,69935,1,0,3:2:0:0:
199,316,70280,2,0,L|187:390,2,59.9999981689453,8|0|2,0:2|0:2|0:2,0:0:0:0:
249,282,70798,2,0,L|237:208,2,59.9999981689453,0|8|2,3:2|0:2|0:2,0:0:0:0:
302,310,71315,6,0,B|346:321|346:321|428:286,1,119.999996337891,2|8,3:2|0:2,0:0:0:0:
504,212,72004,2,0,L|485:144,1,59.9999981689453,2|2,0:2|3:2,0:0:0:0:
427,149,72349,2,0,L|446:81,1,59.9999981689453,10|2,0:2|0:2,0:0:0:0:
471,38,72694,5,2,3:2:0:0:
351,33,73039,1,10,0:2:0:0:
231,29,73384,1,2,0:2:0:0:
111,25,73729,6,0,B|96:62|96:62|130:157,1,119.999996337891,10|2,0:2|3:2,0:0:0:0:
230,191,74418,1,8,0:2:0:0:
316,107,74763,2,0,P|391:108|421:158,1,119.999996337891,0|10,0:2|0:2,0:0:0:0:
412,199,75280,1,0,0:2:0:0:
412,199,75453,2,0,L|433:321,1,119.999996337891,0|8,0:2|0:2,0:0:0:0:
352,358,76056,2,0,P|289:344|244:336,1,89.999997253418,0|0,3:2|3:2,0:0:0:0:
207,358,76487,1,10,0:2:0:0:
207,358,76660,1,2,0:2:0:0:
256,192,79591,12,2,82349,0:2:0:0:
405,203,83039,6,0,B|353:191|353:191|308:198|308:198|242:181,1,150,4|0,0:2|3:2,0:0:0:0:
217,214,83729,2,0,P|206:163|206:106,1,99.9999999999999,0|0,0:2|3:2,0:0:0:0:
264,34,84418,1,8,0:2:0:0:
352,80,84763,2,0,P|386:79|420:85,2,50,0|0|0,0:2|1:2|3:2,0:0:0:0:
353,178,85453,6,0,P|386:206|422:255,2,99.9999999999999,0|8|0,3:2|0:2|0:2,0:0:0:0:
254,194,86487,1,0,1:2:0:0:
173,134,86832,1,0,3:2:0:0:
92,193,87177,2,0,L|107:252,2,50,8|8|4,0:2|0:2|0:3,0:0:0:0:
26,117,87866,6,0,P|34:67|50:20,1,99.9999999999999,4|0,3:2|3:2,0:0:0:0:
150,32,88556,2,0,B|208:33|208:33|242:52|242:52|317:44,1,150,12|0,0:2|3:2,0:0:0:0:
345,46,89246,2,0,B|375:92|375:92|359:151,1,99.9999999999999,0|0,0:2|3:2,0:0:0:0:
330,229,89935,1,8,0:2:0:0:
390,308,90280,2,0,P|433:295|455:292,2,50,0|8|0,0:2|0:3|3:2,0:0:0:0:
297,347,90970,5,0,3:2:0:0:
233,269,91315,1,8,0:2:0:0:
233,269,91487,2,0,P|193:239|145:242,1,99.9999999999999,0|0,0:2|3:2,0:0:0:0:
106,274,92004,2,0,P|95:227|100:161,1,99.9999999999999,0|4,0:2|0:3,0:0:0:0:
81,76,92694,2,0,L|27:62,2,50,8|4|4,0:2|0:3|0:3,0:0:0:0:
131,74,93211,1,8,0:0:0:0:
131,74,93384,5,4,3:2:0:0:
215,20,93728,1,0,3:2:0:0:
298,75,94073,2,0,B|286:131|286:131|301:170|301:170|289:231,1,150,12|0,0:2|3:2,0:0:0:0:
285,269,94763,2,0,B|210:257|210:257|179:282,1,99.9999999999999,0|0,0:2|3:2,0:0:0:0:
128,350,95453,1,8,0:2:0:0:
62,274,95797,2,0,P|31:277|2:285,2,50,0|0|0,0:2|1:2|3:2,0:0:0:0:
122,194,96487,5,0,3:2:0:0:
205,139,96832,2,0,B|210:39,1,99.9999999999999,8|0,0:2|0:2,0:0:0:0:
257,23,97349,1,0,3:2:0:0:
257,23,97522,2,0,L|362:5,1,99.9999999999999,0|4,1:2|0:3,0:0:0:0:
446,47,98211,2,0,L|459:-1,2,50,8|4|4,0:2|0:3|0:3,0:0:0:0:
469,91,98728,1,0,1:2:0:0:
469,91,98901,6,0,P|453:155|445:200,1,99.9999999999999,0|0,3:2|3:2,0:0:0:0:
421,285,99591,2,0,P|373:272|324:262,1,99.9999999999999,0|0,3:2|3:2,0:0:0:0:
223,256,100280,2,0,P|232:304|246:353,1,99.9999999999999,0|0,3:2|3:2,0:0:0:0:
145,359,100970,2,0,P|135:310|121:261,1,99.9999999999999,0|0,3:2|3:2,0:0:0:0:
52,190,101659,5,0,3:2:0:0:
116,113,102004,1,0,3:2:0:0:
219,95,102349,1,0,3:2:0:0:
301,151,102694,1,0,3:2:0:0:
236,239,103039,5,0,3:2:0:0:
300,328,103384,1,0,3:2:0:0:
408,347,103729,1,0,3:2:0:0:
498,284,104074,1,0,3:2:0:0:
496,164,104418,6,0,P|455:153|368:146,1,119.999996337891,6|10,3:2|0:2,0:0:0:0:
328,36,105108,2,0,L|268:46,1,59.9999981689453,2|2,0:2|3:2,0:0:0:0:
222,83,105453,2,0,L|163:72,1,59.9999981689453,10|2,0:2|0:2,0:0:0:0:
114,38,105797,5,2,3:2:0:0:
44,135,106142,1,10,0:2:0:0:
112,233,106487,1,2,0:2:0:0:
53,338,106832,1,10,0:2:0:0:
166,377,107177,6,0,L|284:359,2,119.999996337891,2|10|2,3:2|0:2|0:2,0:0:0:0:
154,317,108039,1,0,3:2:0:0:
154,317,108211,2,0,P|156:287|156:257,1,59.9999981689453,10|0,0:2|0:2,0:0:0:0:
131,202,108556,1,2,3:2:0:0:
236,143,108901,1,10,0:2:0:0:
340,202,109246,2,0,L|399:206,2,59.9999981689453,2|0|10,0:2|3:2|0:2,0:0:0:0:
236,143,109935,6,0,P|230:83|222:23,1,119.999996337891,6|10,3:2|0:2,0:0:0:0:
102,28,110625,2,0,P|90:55|80:84,1,59.9999981689453,2|2,0:2|3:2,0:0:0:0:
27,111,110970,2,0,P|36:139|48:167,1,59.9999981689453,10|2,0:2|0:2,0:0:0:0:
72,222,111315,5,2,3:2:0:0:
95,339,111659,1,10,0:2:0:0:
215,341,112004,1,2,0:2:0:0:
250,226,112349,1,10,0:2:0:0:
356,170,112694,6,0,B|406:182|406:182|423:201|423:201|483:219,2,119.999996337891,2|10|2,3:2|0:2|0:2,0:0:0:0:
319,122,113556,1,0,3:2:0:0:
319,122,113728,2,0,P|308:93|307:64,1,59.9999981689453,10|0,0:2|0:2,0:0:0:0:
341,13,114073,1,2,3:2:0:0:
431,91,114418,2,0,P|473:76|512:53,2,89.999997253418,10|2|0,0:2|3:2|3:2,0:0:0:0:
433,151,115108,2,0,P|439:180|454:206,1,59.9999981689453,10|0,0:2|0:0,0:0:0:0:
460,266,115453,6,0,B|418:285|418:285|395:276|395:276|346:289,1,119.999996337891,6|10,3:2|0:2,0:0:0:0:
249,219,116142,2,0,L|189:229,1,59.9999981689453,2|2,0:2|3:2,0:0:0:0:
160,281,116487,2,0,L|101:270,1,59.9999981689453,10|2,0:2|0:2,0:0:0:0:
46,247,116832,5,2,3:2:0:0:
126,157,117177,1,10,0:2:0:0:
21,98,117522,1,2,0:2:0:0:
106,14,117866,1,10,0:2:0:0:
210,73,118211,6,0,L|328:53,2,119.999996337891,2|10|2,3:2|0:2|0:2,0:0:0:0:
237,126,119073,1,0,3:2:0:0:
237,126,119246,2,0,P|242:155|245:185,1,59.9999981689453,10|0,0:2|0:2,0:0:0:0:
222,241,119591,1,2,3:2:0:0:
325,301,119935,1,10,0:2:0:0:
435,253,120280,2,0,L|449:311,2,59.9999981689453,2|0|10,0:2|3:2|0:2,0:0:0:0:
476,209,120797,1,0,0:2:0:0:
476,209,120970,6,0,B|499:172|499:172|482:97,2,119.999996337891,2|8|2,3:2|0:2|0:2,0:0:0:0:
363,166,122004,2,0,P|334:155|307:144,1,59.9999981689453,10|2,0:2|0:2,0:0:0:0:
248,134,122349,5,2,3:2:0:0:
182,33,122694,1,10,0:2:0:0:
82,100,123039,1,2,0:2:0:0:
150,198,123384,6,0,L|173:315,1,119.999996337891,10|2,0:2|3:2,0:0:0:0:
285,358,124073,2,0,P|343:359|388:321,1,119.999996337891,10|2,0:2|0:2,0:0:0:0:
400,262,124591,1,0,3:2:0:0:
400,262,124763,1,10,0:2:0:0:
480,173,125108,2,0,P|421:174|376:136,1,119.999996337891,2|10,3:2|0:2,0:0:0:0:
365,77,125626,1,0,0:2:0:0:
365,77,125798,2,0,P|372:50|385:13,2,59.9999981689453,2|2|10,3:2|3:2|0:2,0:0:0:0:
255,127,126487,6,0,P|184:103|143:72,1,119.999996337891,4|10,3:2|0:2,0:0:0:0:
89,90,127004,1,0,0:2:0:0:
89,90,127177,2,0,P|46:119|28:143,2,59.9999981689453,2|0|8,0:2|3:2|0:2,0:0:0:0:
98,210,127867,2,0,L|220:223,1,119.999996337891,2|8,3:2|0:2,0:0:0:0:
257,267,128384,1,2,0:2:0:0:
257,267,128556,2,0,L|334:257,2,59.9999981689453,2|0|8,0:2|3:2|0:2,0:0:0:0:
185,364,129246,6,0,B|121:343|127:386|53:353,2,119.999996337891,2|8|2,3:2|0:2|0:2,0:0:0:0:
243,347,130108,1,0,3:2:0:0:
243,347,130280,1,8,0:2:0:0:
324,259,130625,2,0,B|388:238|382:281|456:248,1,119.999996337891,0|8,3:2|0:2,0:0:0:0:
478,198,131142,1,2,0:2:0:0:
478,198,131315,2,0,P|497:151|499:136,1,59.9999981689453,2|0,0:2|3:2,0:0:0:0:
498,75,131660,1,8,0:2:0:0:
385,110,132004,6,0,P|307:116|251:89,1,119.999996337891,6|8,3:2|0:2,0:0:0:0:
220,64,132522,1,2,0:2:0:0:
220,64,132694,2,0,L|196:-4,2,59.9999981689453,2|0|8,0:2|3:2|0:2,0:0:0:0:
220,184,133384,2,0,P|142:178|86:205,1,119.999996337891,2|8,3:2|0:2,0:0:0:0:
55,230,133902,1,2,0:2:0:0:
55,230,134074,2,0,L|31:298,2,59.9999981689453,2|0|8,0:2|3:2|0:2,0:0:0:0:
158,291,134763,6,0,B|222:326|222:326|279:294,2,119.999996337891,2|8|2,3:2|0:2|0:2,0:0:0:0:
118,336,135625,1,0,3:2:0:0:
118,336,135798,1,8,0:2:0:0:
55,230,136142,2,0,P|70:151|78:94,1,119.999996337891,2|8,0:2|0:2,0:0:0:0:
178,49,136832,2,0,P|228:68|249:68,1,59.9999981689453,2|2,0:2|3:2,0:0:0:0:
267,118,137177,2,0,P|296:112|322:98,1,59.9999981689453,10|2,0:2|3:2,0:0:0:0:
363,53,137522,6,0,P|427:27|509:151,1,239.999992675781,6|0,3:2|0:2,0:0:0:0:
466,185,138384,1,0,3:0:0:0:
466,185,138556,1,10,0:0:0:0:
458,286,138901,2,0,P|394:312|338:276,1,119.999996337891,2|8,3:2|0:2,0:0:0:0:
310,247,139418,1,2,0:2:0:0:
310,247,139591,2,0,P|301:198|302:177,2,59.9999981689453,2|0|8,0:2|3:2|0:2,0:0:0:0:
201,298,140280,6,0,P|140:340|96:375,2,119.999996337891,2|8|2,3:2|0:2|0:2,0:0:0:0:
204,237,141142,1,0,3:2:0:0:
204,237,141315,1,8,0:2:0:0:
85,215,141660,2,0,P|75:152|121:104,1,119.999996337891,2|8,3:2|0:2,0:0:0:0:
165,92,142177,1,2,0:2:0:0:
165,92,142349,2,0,P|171:45|177:22,1,59.9999981689453,2|0,0:2|3:2,0:0:0:0:
239,20,142694,1,10,0:2:0:0:
265,149,143039,6,0,P|338:130|394:117,1,119.999996337891,6|8,3:2|0:2,0:0:0:0:
437,106,143556,1,2,0:2:0:0:
437,106,143729,2,0,P|432:41|431:31,2,59.9999981689453,2|0|8,0:2|3:2|0:2,0:0:0:0:
498,208,144418,2,0,P|425:227|369:240,1,119.999996337891,2|8,3:2|0:2,0:0:0:0:
326,259,144935,1,2,0:2:0:0:
326,259,145108,2,0,P|331:324|332:334,2,59.9999981689453,2|0|8,0:2|3:2|0:2,0:0:0:0:
265,157,145798,5,2,3:2:0:0:
163,93,146142,2,0,P|97:78|36:66,2,119.999996337891,8|2|10,0:2|0:2|0:2,0:0:0:0:
212,58,147004,1,2,0:2:0:0:
212,58,147177,2,0,P|250:36|334:47,1,119.999996337891,2|10,0:2|0:2,0:0:0:0:
382,109,147780,2,0,L|363:217,1,89.999997253418,0|2,3:2|3:2,0:0:0:0:
357,257,148211,1,2,0:2:0:0:
357,257,148384,1,2,0:2:0:0:
256,192,151315,12,2,153039,0:0:0:0:
