osu file format v14

[General]
AudioFilename: audio.mp3
AudioLeadIn: 0
PreviewTime: 32608
Countdown: 0
SampleSet: Soft
StackLeniency: 0.5
Mode: 0
LetterboxInBreaks: 0
WidescreenStoryboard: 1

[Editor]
Bookmarks: 10625,27177,32694,54763,76832,82349,98901,104418,126487,148556
DistanceSpacing: 0.8
BeatDivisor: 4
GridSize: 32
TimelineZoom: 1.8

[Metadata]
Title:New Wave
TitleUnicode:New Wave
Artist:Brookes Brothers feat. Georgie Allen
ArtistUnicode:Brookes Brothers feat. Georgie Allen
Creator:Mir
Version:Hard
Source:
Tags:yearmix liquicity 2018 dnb drum and bass yusomi zetera
BeatmapID:2043597
BeatmapSetID:961042

[Difficulty]
HPDrainRate:4
CircleSize:4
OverallDifficulty:6
ApproachRate:8
SliderMultiplier:1.4
SliderTickRate:1

[Events]
//Background and Video events
0,0,"fairytale.jpg",0,0
//Break Periods
2,76945,78841
2,148669,150565
//Storyboard Layer 0 (Background)
//Storyboard Layer 1 (Fail)
//Storyboard Layer 2 (Pass)
//Storyboard Layer 3 (Foreground)
//Storyboard Sound Samples

[TimingPoints]
7867,344.827586206897,4,2,1,20,1,0
7867,-200,4,2,1,20,0,0
8556,-200,4,2,1,30,0,0
9246,-133.333333333333,4,2,1,40,0,0
9935,-133.333333333333,4,2,1,50,0,0
10625,-100,4,2,1,50,0,0
32694,-83.3333333333333,4,2,1,80,0,1
34117,-83.3333333333333,4,2,1,5,0,1
34160,-83.3333333333333,4,2,1,80,0,1
34461,-83.3333333333333,4,2,1,5,0,1
34504,-83.3333333333333,4,2,1,80,0,1
34806,-83.3333333333333,4,2,1,5,0,1
34849,-83.3333333333333,4,2,1,80,0,1
37867,-125,4,2,1,80,0,1
38211,-83.3333333333333,4,2,1,80,0,1
39634,-83.3333333333333,4,2,1,5,0,1
39677,-83.3333333333333,4,2,1,80,0,1
39979,-83.3333333333333,4,2,1,5,0,1
40022,-83.3333333333333,4,2,1,80,0,1
40323,-83.3333333333333,4,2,1,5,0,1
40366,-83.3333333333333,4,2,1,80,0,1
43384,-125,4,2,1,80,0,1
43642,-83.3333333333333,4,2,1,60,0,0
43729,-83.3333333333333,4,2,1,80,0,1
45151,-83.3333333333333,4,2,1,5,0,1
45194,-83.3333333333333,4,2,1,80,0,1
45496,-83.3333333333333,4,2,1,5,0,1
45539,-83.3333333333333,4,2,1,80,0,1
45841,-83.3333333333333,4,2,1,5,0,1
45884,-83.3333333333333,4,2,1,80,0,1
49246,-133.333333333333,4,2,1,80,0,1
49935,-83.3333333333333,4,2,1,80,0,1
50668,-83.3333333333333,4,2,1,5,0,1
50711,-83.3333333333333,4,2,1,80,0,1
51013,-83.3333333333333,4,2,1,5,0,1
51056,-83.3333333333333,4,2,1,80,0,1
51358,-83.3333333333333,4,2,1,5,0,1
51401,-83.3333333333333,4,2,1,80,0,1
54677,-83.3333333333333,4,2,1,80,0,0
54763,-83.3333333333333,4,2,1,80,0,1
56185,-83.3333333333333,4,2,1,5,0,1
56229,-83.3333333333333,4,2,1,80,0,1
56875,-83.3333333333333,4,2,1,5,0,1
56919,-83.3333333333333,4,2,1,80,0,1
60280,-133.333333333333,4,2,1,80,0,1
60969,-83.3333333333333,4,2,1,80,0,1
61703,-83.3333333333333,4,2,1,5,0,1
61747,-83.3333333333333,4,2,1,80,0,1
62392,-83.3333333333333,4,2,1,5,0,1
62436,-83.3333333333333,4,2,1,80,0,1
65711,-83.3333333333333,4,2,1,80,0,0
65798,-83.3333333333333,4,2,1,80,0,1
67220,-83.3333333333333,4,2,1,5,0,1
67264,-83.3333333333333,4,2,1,80,0,1
67910,-83.3333333333333,4,2,1,5,0,1
67954,-83.3333333333333,4,2,1,80,0,1
71315,-133.333333333333,4,2,1,80,0,1
72004,-83.3333333333333,4,2,1,80,0,1
72737,-83.3333333333333,4,2,1,5,0,1
72781,-83.3333333333333,4,2,1,80,0,1
73427,-83.3333333333333,4,2,1,5,0,1
73471,-83.3333333333333,4,2,1,80,0,1
76746,-83.3333333333333,4,2,1,80,0,0
79591,-200,4,2,1,20,0,0
80280,-200,4,2,1,30,0,0
80970,-133.333333333333,4,2,1,40,0,0
81659,-133.333333333333,4,2,1,50,0,0
82349,-100,4,2,1,50,0,0
100280,-100,4,2,1,60,0,0
104418,-83.3333333333333,4,2,1,80,0,1
105841,-83.3333333333333,4,2,1,5,0,1
105884,-83.3333333333333,4,2,1,80,0,1
106185,-83.3333333333333,4,2,1,5,0,1
106228,-83.3333333333333,4,2,1,80,0,1
106530,-83.3333333333333,4,2,1,5,0,1
106573,-83.3333333333333,4,2,1,80,0,1
109591,-125,4,2,1,80,0,1
109935,-83.3333333333333,4,2,1,80,0,1
111358,-83.3333333333333,4,2,1,5,0,1
111401,-83.3333333333333,4,2,1,80,0,1
111703,-83.3333333333333,4,2,1,5,0,1
111746,-83.3333333333333,4,2,1,80,0,1
112047,-83.3333333333333,4,2,1,5,0,1
112090,-83.3333333333333,4,2,1,80,0,1
115108,-125,4,2,1,80,0,1
115367,-83.3333333333333,4,2,1,60,0,0
115453,-83.3333333333333,4,2,1,80,0,1
116875,-83.3333333333333,4,2,1,5,0,1
116918,-83.3333333333333,4,2,1,80,0,1
117220,-83.3333333333333,4,2,1,5,0,1
117263,-83.3333333333333,4,2,1,80,0,1
117565,-83.3333333333333,4,2,1,5,0,1
117608,-83.3333333333333,4,2,1,80,0,1
120970,-133.333333333333,4,2,1,80,0,1
121659,-83.3333333333333,4,2,1,80,0,1
122392,-83.3333333333333,4,2,1,5,0,1
122435,-83.3333333333333,4,2,1,80,0,1
122737,-83.3333333333333,4,2,1,5,0,1
122780,-83.3333333333333,4,2,1,80,0,1
123082,-83.3333333333333,4,2,1,5,0,1
123125,-83.3333333333333,4,2,1,80,0,1
126142,-83.3333333333333,4,2,1,60,0,0
126487,-100,4,2,1,60,0,0
151315,-200,4,2,1,20,0,0
151746,-133.333333333333,4,2,1,20,0,0
152004,-133.333333333333,4,2,1,30,0,0
152694,-100,4,2,1,40,0,0
153383,-100,4,2,1,50,0,0

[Colours]
Combo1 : 139,102,148
Combo2 : 255,173,95
Combo3 : 244,134,123
Combo4 : 200,112,146

[HitObjects]
116,103,7867,6,0,P|130:142|140:184,1,70,2|2,0:2|0:2,0:0:0:0:
189,127,8556,2,0,P|171:164|148:201,1,70,2|2,0:2|0:2,0:0:0:0:
222,332,9246,6,0,P|239:281|252:227,1,105.000004005432,2|2,0:2|0:2,0:0:0:0:
315,301,9935,2,0,P|291:252|262:204,1,105.000004005432,2|2,0:2|0:2,0:0:0:0:
307,126,10625,5,6,3:2:0:0:
307,126,10970,1,0,3:2:0:0:
401,187,11315,2,0,P|414:133|428:37,1,140,8|0,0:2|0:2,0:0:0:0:
348,16,11832,1,0,3:2:0:0:
348,16,12004,6,0,P|273:35|197:37,1,140,0|0,0:2|3:2,0:0:0:0:
121,12,12522,1,0,0:2:0:0:
121,12,12694,2,0,P|104:54|97:107,1,70,8|0,0:2|0:0,0:0:0:0:
15,113,13039,2,0,P|23:147|37:179,1,70,0|0,0:2|1:2,0:0:0:0:
114,225,13384,5,0,3:2:0:0:
114,225,13729,1,0,0:2:0:0:
39,324,14073,2,0,P|108:320|175:367,1,140,8|0,0:2|0:2,0:0:0:0:
260,343,14591,1,0,3:2:0:0:
260,343,14763,6,0,P|260:305|242:267,1,70,0|0,1:2|1:2,0:0:0:0:
325,223,15108,2,0,P|298:196|258:181,1,70,0|0,3:2|1:2,0:0:0:0:
182,193,15453,1,8,0:2:0:0:
182,193,15625,1,0,1:2:0:0:
116,137,15798,2,0,P|108:98|108:60,1,70,0|0,1:2|1:2,0:0:0:0:
235,9,16142,5,4,3:2:0:0:
235,9,16487,1,0,3:2:0:0:
320,70,16832,2,0,P|396:57|470:49,1,140,12|0,0:2|0:2,0:0:0:0:
507,128,17349,1,0,3:2:0:0:
507,128,17522,6,0,P|494:175|472:270,1,140,0|0,0:2|3:2,0:0:0:0:
449,357,18039,1,0,0:2:0:0:
449,357,18211,2,0,P|387:338|357:327,1,70,8|0,0:2|0:0,0:0:0:0:
372,242,18556,2,0,P|310:261|280:272,1,70,0|8,0:2|0:3,0:0:0:0:
209,353,18901,5,0,3:2:0:0:
209,353,19246,1,0,3:2:0:0:
134,319,19418,1,0,0:2:0:0:
156,234,19591,2,0,P|164:186|167:153,2,70,8|0|0,0:2|0:2|0:0,0:0:0:0:
69,256,20108,1,0,3:2:0:0:
69,256,20280,6,0,P|60:200|71:102,1,140,0|4,0:2|0:3,0:0:0:0:
126,56,20798,1,4,0:3:0:0:
207,88,20970,2,0,P|255:68|281:54,1,70,8|4,0:2|0:3,0:0:0:0:
348,13,21315,2,0,P|396:33|422:47,1,70,4|8,0:3|0:2,0:0:0:0:
488,167,21660,5,4,3:2:0:0:
488,167,22004,1,0,0:2:0:0:
397,132,22349,2,0,P|392:176|375:281,1,140,12|0,0:2|0:2,0:0:0:0:
320,346,22867,1,0,3:2:0:0:
320,346,23039,6,0,P|291:312|200:260,1,140,0|0,0:2|3:2,0:0:0:0:
157,196,23556,1,0,0:2:0:0:
157,196,23729,2,0,P|126:234|123:270,1,70,8|0,0:2|0:0,0:0:0:0:
34,272,24073,2,0,P|44:305|68:329,1,70,0|0,0:2|1:2,0:0:0:0:
172,375,24418,5,0,3:2:0:0:
172,375,24763,1,0,3:2:0:0:
255,308,25108,2,0,P|276:257|299:158,1,140,8|0,0:2|0:2,0:0:0:0:
295,85,25625,1,0,3:2:0:0:
295,85,25798,6,0,P|334:67|374:68,1,70,8|8,0:2|0:2,0:0:0:0:
417,0,26142,2,0,P|451:3|482:19,1,70,8|8,0:3|0:3,0:0:0:0:
506,116,26487,1,8,0:2:0:0:
506,116,26660,1,4,0:3:0:0:
440,209,26832,2,0,P|421:171|413:133,1,70,4|4,0:3|0:3,0:0:0:0:
360,65,27177,5,0,3:2:0:0:
231,37,27522,1,0,3:2:0:0:
46,151,27867,5,0,3:2:0:0:
175,123,28212,1,0,3:2:0:0:
352,234,28556,5,0,3:2:0:0:
223,206,28901,1,0,3:2:0:0:
35,312,29246,5,0,3:2:0:0:
164,284,29591,1,0,3:2:0:0:
261,365,29935,6,0,L|303:351,3,35,0|0|0|0,3:2|0:2|0:2|0:2,0:0:0:0:
305,320,30280,2,0,L|338:331,3,35,0|0|0|0,3:2|0:2|0:2|0:2,0:0:0:0:
366,344,30625,2,0,L|408:330,3,35,0|0|0|0,3:2|0:2|0:2|0:2,0:0:0:0:
410,299,30970,2,0,L|443:310,3,35,0|0|0|0,3:2|0:2|0:2|0:2,0:0:0:0:
472,285,31315,6,0,L|483:239,3,35,0|0|0|0,3:2|0:2|0:2|0:2,0:0:0:0:
460,226,31660,2,0,L|449:180,3,35,0|0|0|0,3:2|0:2|0:2|0:2,0:0:0:0:
478,166,32004,2,0,L|489:120,3,35,0|0|0|0,3:2|0:2|0:2|0:2,0:0:0:0:
466,107,32349,2,0,L|455:61,3,35,0|0|0|0,3:2|0:2|0:2|0:2,0:0:0:0:
485,47,32694,6,0,P|411:34|344:89,1,125.999996154785,6|0,3:2|0:2,0:0:0:0:
363,72,33039,2,0,P|332:118|290:72,1,125.999996154785,10|0,0:2|0:2,0:0:0:0:
291,64,33384,5,2,0:2:0:0:
212,21,33556,1,2,3:2:0:0:
146,79,33729,1,10,0:2:0:0:
180,160,33901,1,2,0:2:0:0:
145,242,34073,6,0,P|90:248|72:250,1,41.9999987182617,2|0,3:2|0:0,0:0:0:0:
212,378,34418,2,0,P|157:372|139:370,1,41.9999987182617,10|0,0:2|0:0,0:0:0:0:
333,250,34763,2,0,P|278:256|260:258,2,41.9999987182617,2|0|0,0:2|0:0|3:2,0:0:0:0:
402,303,35108,2,0,P|417:355|425:396,1,83.9999974365235,10|0,0:2|0:2,0:0:0:0:
478,257,35453,6,0,P|486:207|515:86,1,167.999994873047,2|10,3:2|0:2,0:0:0:0:
447,34,35970,1,0,0:2:0:0:
447,34,36056,1,0,0:2:0:0:
447,34,36142,2,0,P|401:48|359:55,1,83.9999974365235,2|0,0:2|3:2,0:0:0:0:
288,5,36487,2,0,P|265:49|246:100,1,83.9999974365235,10|0,0:2|0:2,0:0:0:0:
252,192,36832,6,0,P|304:175|344:203,1,83.9999974365235,2|0,3:2|0:2,0:0:0:0:
345,339,37177,2,0,P|304:302|308:253,1,83.9999974365235,10|0,0:2|0:2,0:0:0:0:
430,188,37522,2,0,P|418:241|374:262,1,83.9999974365235,2|0,0:2|3:2,0:0:0:0:
328,185,37867,2,0,P|328:137|340:88,1,84,10|0,0:2|0:2,0:0:0:0:
345,80,38211,6,0,B|304:72|304:72|269:87|269:87|185:66,1,125.999996154785,6|0,3:2|0:2,0:0:0:0:
217,63,38556,2,0,P|159:70|176:125,1,125.999996154785,8|0,0:2|0:2,0:0:0:0:
193,141,38901,5,2,0:2:0:0:
247,215,39073,1,2,3:2:0:0:
153,250,39246,1,10,0:2:0:0:
200,328,39418,1,2,0:2:0:0:
121,379,39591,6,0,L|71:367,1,41.9999987182617,2|0,3:2|0:0,0:0:0:0:
153,250,39935,2,0,L|203:238,1,41.9999987182617,10|0,0:2|0:0,0:0:0:0:
177,105,40280,2,0,L|127:93,2,41.9999987182617,2|0|0,0:2|0:0|3:2,0:0:0:0:
259,167,40625,6,0,L|426:129,1,167.999994873047,10|2,0:2|3:2,0:0:0:0:
462,50,41142,1,0,0:2:0:0:
462,50,41315,2,0,P|413:31|382:15,1,83.9999974365235,10|0,0:2|0:2,0:0:0:0:
299,39,41660,1,2,0:2:0:0:
299,39,41746,1,0,0:0:0:0:
299,39,41832,1,0,3:2:0:0:
187,5,42004,2,0,P|197:45|213:85,1,83.9999974365235,10|0,0:2|0:2,0:0:0:0:
257,164,42349,1,2,3:2:0:0:
101,338,42694,6,0,P|153:326|215:319,1,83.9999974365235,10|10,0:2|0:2,0:0:0:0:
188,293,42953,2,0,P|229:299|270:309,1,83.9999974365235,2|2,3:2|3:2,0:0:0:0:
284,321,43211,1,0,3:2:0:0:
297,330,43298,1,0,3:2:0:0:
312,336,43384,2,0,P|362:319|391:332,1,84,10|0,0:2|0:2,0:0:0:0:
403,349,43729,6,0,P|392:266|404:189,1,125.999996154785,6|0,3:2|0:2,0:0:0:0:
397,207,44073,2,0,B|361:203|336:224|336:224|361:203|370:156,1,125.999996154785,10|0,0:2|0:2,0:0:0:0:
367,154,44418,5,2,0:2:0:0:
428,84,44591,1,2,3:2:0:0:
384,2,44763,1,10,0:2:0:0:
294,22,44935,1,2,0:2:0:0:
283,114,45108,6,0,P|262:124|226:134,1,41.9999987182617,2|0,3:2|0:0,0:0:0:0:
67,163,45453,2,0,P|88:173|124:183,1,41.9999987182617,10|0,0:2|0:0,0:0:0:0:
280,252,45798,2,0,P|259:262|223:272,2,41.9999987182617,2|0|0,0:2|0:0|3:2,0:0:0:0:
348,191,46142,2,0,P|389:181|446:214,1,83.9999974365235,10|0,0:2|0:2,0:0:0:0:
479,294,46487,6,0,B|389:273|427:356|299:341,1,167.999994873047,2|10,3:2|0:2,0:0:0:0:
253,285,47004,1,0,0:2:0:0:
253,285,47091,1,0,0:2:0:0:
253,285,47177,2,0,P|203:263|162:260,1,83.9999974365235,2|0,0:2|3:2,0:0:0:0:
86,299,47522,2,0,P|76:244|88:201,1,83.9999974365235,10|0,0:2|0:2,0:0:0:0:
55,100,47867,6,0,L|156:124,1,83.9999974365235,2|0,3:2|0:2,0:0:0:0:
178,0,48211,2,0,L|233:73,1,83.9999974365235,10|0,0:2|0:2,0:0:0:0:
348,0,48556,2,0,L|324:92,1,83.9999974365235,2|0,0:2|3:2,0:0:0:0:
210,198,48901,2,0,P|244:153|314:177,1,125.999996154785,10|0,0:2|0:0,0:0:0:0:
339,197,49246,6,0,L|329:258,3,52.5000020027161,2|0|8|0,3:2|0:2|0:2|0:2,0:0:0:0:
321,328,49935,5,2,0:2:0:0:
228,321,50108,1,2,3:2:0:0:
136,314,50280,1,10,0:2:0:0:
43,307,50453,1,2,0:2:0:0:
10,220,50625,6,0,L|32:150,1,41.9999987182617,2|0,3:2|0:0,0:0:0:0:
186,189,50970,2,0,L|164:119,1,41.9999987182617,10|0,0:2|0:0,0:0:0:0:
346,223,51315,2,0,L|368:153,2,41.9999987182617,2|0|0,0:2|0:0|3:2,0:0:0:0:
362,315,51660,2,0,P|411:343|471:328,1,83.9999974365235,10|0,0:2|0:2,0:0:0:0:
484,267,52004,6,0,P|489:211|505:168,1,83.9999974365235,2|0,3:2|0:2,0:0:0:0:
424,124,52349,2,0,P|419:68|403:25,1,83.9999974365235,10|0,0:2|0:2,0:0:0:0:
395,34,52608,1,0,0:2:0:0:
380,26,52694,1,2,0:2:0:0:
305,85,52867,1,2,3:2:0:0:
235,32,53039,6,0,P|174:20|129:7,1,83.9999974365235,10|0,0:2|0:2,0:0:0:0:
36,113,53384,2,0,P|97:101|142:88,1,83.9999974365235,2|0,3:2|0:2,0:0:0:0:
132,103,53642,1,0,0:2:0:0:
147,110,53729,1,10,0:2:0:0:
230,161,53901,1,2,0:2:0:0:
147,214,54073,2,0,L|141:265,3,41.9999987182617,2|0|2|0,0:2|0:2|3:2|0:2,0:0:0:0:
141,272,54418,1,10,0:2:0:0:
224,350,54763,6,0,P|271:318|366:313,1,125.999996154785,6|0,3:2|0:2,0:0:0:0:
344,323,55108,2,0,P|381:291|336:236,1,125.999996154785,10|0,0:2|0:2,0:0:0:0:
329,228,55453,5,2,0:2:0:0:
259,167,55625,1,2,3:2:0:0:
170,195,55798,1,10,0:2:0:0:
117,118,55970,1,2,0:2:0:0:
33,156,56142,6,0,L|-3:206,1,41.9999987182617,2|0,3:2|0:0,0:0:0:0:
234,252,56487,2,0,L|243:312,1,41.9999987182617,10|0,0:2|0:2,0:0:0:0:
365,115,56832,2,0,L|415:151,2,41.9999987182617,2|0|2,0:2|0:0|3:2,0:0:0:0:
346,32,57177,2,0,P|273:27|251:50,1,83.9999974365235,8|0,0:2|0:2,0:0:0:0:
138,37,57522,6,0,P|188:61|186:171,1,167.999994873047,2|8,3:2|0:2,0:0:0:0:
111,201,58039,2,0,P|61:225|63:335,1,167.999994873047,2|0,0:2|3:2,0:0:0:0:
138,358,58556,1,10,0:2:0:0:
138,358,58729,1,0,0:2:0:0:
220,321,58901,6,0,P|231:269|221:230,1,83.9999974365235,0|2,3:2|0:2,0:0:0:0:
256,152,59246,1,8,0:2:0:0:
256,152,59418,1,0,0:2:0:0:
315,220,59591,1,2,0:2:0:0:
353,132,59763,1,0,3:2:0:0:
353,132,59935,1,8,0:2:0:0:
416,202,60108,1,2,0:2:0:0:
416,202,60194,1,2,0:2:0:0:
416,202,60280,6,0,L|402:271,3,52.5000020027161,2|0|8|0,3:2|0:2|0:2|0:2,0:0:0:0:
386,332,60970,5,2,0:2:0:0:
386,332,61142,1,2,3:2:0:0:
294,313,61315,1,10,0:2:0:0:
212,290,61487,1,2,0:2:0:0:
212,290,61660,6,0,L|150:312,1,41.9999987182617,2|0,3:2|0:0,0:0:0:0:
252,177,62004,2,0,L|291:191,1,41.9999987182617,10|0,0:2|0:2,0:0:0:0:
188,91,62349,2,0,L|250:69,2,41.9999987182617,2|0|2,0:2|0:0|3:2,0:0:0:0:
110,151,62694,2,0,B|98:196|95:245,1,83.9999974365235,8|0,0:2|0:2,0:0:0:0:
118,328,63039,6,0,B|201:293|194:373|288:338,1,167.999994873047,2|8,3:2|0:2,0:0:0:0:
374,375,63556,2,0,B|409:292|329:299|364:205,1,167.999994873047,2|0,0:2|3:2,0:0:0:0:
350,224,63987,1,0,3:2:0:0:
337,235,64073,2,0,P|277:236|232:215,1,83.9999974365235,10|0,0:2|0:2,0:0:0:0:
173,163,64418,5,0,0:2:0:0:
208,76,64591,1,2,3:2:0:0:
208,76,64677,1,0,3:2:0:0:
208,76,64763,2,0,P|262:73|347:98,1,125.999996154785,8|0,0:2|1:2,0:0:0:0:
348,92,65108,6,0,L|407:77,3,41.9999987182617,2|0|0|0,3:2|3:2|3:2|3:2,0:0:0:0:
397,66,65453,2,0,L|456:81,3,41.9999987182617,8|0|0|0,0:2|3:2|3:2|3:2,0:0:0:0:
450,87,65798,6,0,B|483:138|483:138|456:226,1,125.999996154785,6|0,3:2|0:2,0:0:0:0:
466,216,66142,2,0,B|474:247|491:277|491:277|458:264|413:268,1,125.999996154785,10|0,0:2|0:2,0:0:0:0:
419,277,66487,5,2,0:2:0:0:
419,277,66660,1,2,3:2:0:0:
322,312,66832,1,10,0:2:0:0:
239,270,67005,1,2,0:2:0:0:
239,270,67177,6,0,P|193:283|171:291,1,41.9999987182617,2|0,3:2|0:0,0:0:0:0:
330,149,67522,2,0,P|376:162|398:170,1,41.9999987182617,10|0,0:2|0:2,0:0:0:0:
146,127,67867,2,0,P|100:140|78:148,2,41.9999987182617,2|0|2,0:2|0:0|3:2,0:0:0:0:
254,56,68211,2,0,P|242:128|234:163,1,83.9999974365235,8|0,0:2|0:2,0:0:0:0:
247,237,68556,6,0,P|315:208|422:200,1,167.999994873047,2|8,3:2|0:2,0:0:0:0:
426,301,69073,2,0,P|358:330|251:338,1,167.999994873047,2|0,0:2|3:2,0:0:0:0:
174,320,69591,1,10,0:2:0:0:
174,320,69763,1,0,0:2:0:0:
115,240,69935,6,0,P|132:202|163:174,1,83.9999974365235,0|2,3:2|0:2,0:0:0:0:
260,152,70280,1,8,0:2:0:0:
260,152,70453,1,0,0:2:0:0:
316,78,70625,1,2,0:2:0:0:
366,159,70798,1,0,3:2:0:0:
366,159,70971,1,8,0:2:0:0:
422,233,71143,1,2,0:2:0:0:
422,233,71229,1,2,0:2:0:0:
422,233,71315,6,0,L|406:295,3,52.5000020027161,2|0|8|0,3:2|0:2|0:2|0:2,0:0:0:0:
329,321,72004,5,2,0:2:0:0:
329,321,72177,1,2,3:2:0:0:
274,244,72349,1,10,0:2:0:0:
344,178,72522,1,2,0:2:0:0:
344,178,72694,6,0,L|358:125,1,41.9999987182618,2|0,3:2|0:0,0:0:0:0:
197,183,73039,2,0,L|169:135,1,41.9999987182618,10|0,0:2|0:2,0:0:0:0:
217,332,73384,2,0,L|163:317,2,41.9999987182618,2|0|2,0:2|0:0|3:2,0:0:0:0:
304,376,73729,2,0,B|334:345|334:345|392:351,1,83.9999974365235,10|0,0:2|0:2,0:0:0:0:
463,363,74073,5,2,3:2:0:0:
490,140,74418,2,0,P|442:160|419:203,1,83.9999974365235,8|2,0:2|0:2,0:0:0:0:
369,258,74763,2,0,P|309:241|280:193,1,83.9999974365235,0|0,0:2|3:2,0:0:0:0:
292,209,75022,1,0,3:2:0:0:
295,192,75108,1,10,0:2:0:0:
343,116,75280,1,0,0:2:0:0:
297,31,75453,6,0,P|246:23|187:18,1,83.9999974365235,0|2,0:2|3:2,0:0:0:0:
204,33,75711,1,0,3:2:0:0:
194,47,75798,1,8,0:2:0:0:
98,62,75970,1,0,0:2:0:0:
83,70,76056,2,0,P|57:143|70:176,1,83.9999974365235,0|0,3:2|0:2,0:0:0:0:
64,161,76315,1,0,3:2:0:0:
118,233,76487,2,0,L|178:224,3,41.9999987182618,10|2|2|2,0:2|0:2|0:2|0:2,0:0:0:0:
88,111,79591,6,0,P|156:128|165:136,1,70,2|2,0:2|0:2,0:0:0:0:
149,61,80280,2,0,P|185:121|185:133,1,70,2|2,0:2|0:2,0:0:0:0:
166,233,80970,6,0,P|254:210|266:200,1,105.000004005432,2|2,0:2|0:2,0:0:0:0:
247,296,81659,2,0,P|293:217|294:202,1,105.000004005432,2|2,0:2|0:2,0:0:0:0:
268,103,82349,5,4,3:2:0:0:
268,103,82694,1,0,3:2:0:0:
371,46,83039,2,0,P|404:115|421:198,1,140,4|0,0:2|0:2,0:0:0:0:
480,250,83556,1,0,3:2:0:0:
480,250,83729,6,0,P|477:297|376:315,1,140,0|0,0:2|3:2,0:0:0:0:
326,283,84246,1,0,0:2:0:0:
326,283,84418,2,0,P|271:263|236:262,1,70,8|0,0:2|0:0,0:0:0:0:
194,197,84763,2,0,P|159:203|127:218,1,70,0|0,0:2|1:2,0:0:0:0:
65,335,85108,5,0,3:2:0:0:
65,335,85453,1,0,3:2:0:0:
133,258,85798,2,0,P|142:197|150:115,1,140,8|0,0:2|0:2,0:0:0:0:
107,42,86315,1,0,3:2:0:0:
107,42,86487,6,0,P|144:28|185:35,1,70,0|0,1:2|1:2,0:0:0:0:
261,0,86832,2,0,P|293:13|316:39,1,70,0|0,3:2|3:2,0:0:0:0:
373,115,87177,1,8,0:2:0:0:
373,115,87349,1,8,0:2:0:0:
314,184,87522,2,0,P|290:209|258:223,1,70,4|4,0:3|0:3,0:0:0:0:
155,176,87867,5,4,3:2:0:0:
155,176,88211,1,0,3:2:0:0:
258,222,88556,2,0,P|264:280|269:364,1,140,12|0,0:2|0:2,0:0:0:0:
365,339,89073,1,0,3:2:0:0:
365,339,89246,6,0,P|420:355|485:291,1,140,0|0,0:2|3:2,0:0:0:0:
495,218,89763,1,0,0:2:0:0:
495,218,89935,2,0,P|480:174|458:156,1,70,8|0,0:2|0:0,0:0:0:0:
497,76,90280,2,0,P|455:55|426:58,1,70,0|8,0:2|0:3,0:0:0:0:
364,158,90625,5,0,3:2:0:0:
364,158,90970,1,0,3:2:0:0:
338,28,91315,2,0,P|308:74|213:100,1,140,8|0,0:2|0:0,0:0:0:0:
156,65,91832,1,0,3:2:0:0:
156,65,92004,6,0,P|114:50|86:43,1,70,0|8,0:2|0:3,0:0:0:0:
36,115,92349,1,4,0:3:0:0:
36,115,92522,1,4,0:3:0:0:
71,199,92695,2,0,P|103:186|137:177,1,70,8|4,0:2|0:3,0:0:0:0:
85,281,93039,2,0,P|118:290|151:302,1,70,4|8,0:3|0:0,0:0:0:0:
237,379,93384,5,4,3:2:0:0:
237,379,93729,1,0,3:2:0:0:
334,319,94073,2,0,P|349:269|356:172,1,140,12|0,0:2|0:2,0:0:0:0:
441,112,94591,1,0,3:2:0:0:
441,112,94763,6,0,P|394:77|297:93,1,140,0|0,0:2|3:2,0:0:0:0:
268,160,95280,1,0,0:2:0:0:
268,160,95453,2,0,P|218:153|195:129,1,70,8|0,0:2|0:0,0:0:0:0:
138,74,95798,2,0,P|88:81|65:105,1,70,0|0,0:2|1:2,0:0:0:0:
47,186,96142,5,0,3:2:0:0:
47,186,96487,1,0,3:2:0:0:
24,291,96832,2,0,P|82:308|161:326,1,140,8|0,0:2|0:2,0:0:0:0:
248,291,97349,1,0,3:2:0:0:
248,291,97522,6,0,P|264:249|274:217,1,70,0|0,1:2|1:2,0:0:0:0:
335,133,97867,2,0,P|345:166|358:198,1,70,4|4,0:3|0:3,0:0:0:0:
438,252,98211,1,8,0:2:0:0:
438,252,98384,1,4,0:3:0:0:
485,174,98556,2,0,P|497:141|508:108,1,70,4|0,0:3|1:2,0:0:0:0:
490,20,98901,5,0,3:2:0:0:
368,54,99246,1,0,3:2:0:0:
438,252,99591,5,0,3:2:0:0:
316,218,99936,1,0,3:2:0:0:
263,117,100280,5,0,3:2:0:0:
141,151,100625,1,0,3:2:0:0:
202,298,100970,5,0,3:2:0:0:
80,264,101315,1,0,3:2:0:0:
37,162,101660,6,0,L|84:146,3,35,0|0|0|0,3:2|0:2|0:2|0:2,0:0:0:0:
91,140,102004,2,0,L|138:156,3,35,0|0|0|0,3:2|0:2|0:2|0:2,0:0:0:0:
144,169,102349,2,0,L|191:153,3,35,0|0|0|0,3:2|0:2|0:2|0:2,0:0:0:0:
198,147,102694,2,0,L|245:163,3,35,0|0|0|0,3:2|0:2|0:2|0:2,0:0:0:0:
267,170,103039,6,0,L|286:121,3,35,0|0|0|0,3:2|0:2|0:2|0:2,0:0:0:0:
313,134,103384,2,0,L|332:183,3,35,0|0|0|0,3:2|0:2|0:2|0:2,0:0:0:0:
360,166,103729,2,0,L|379:117,3,35,0|0|0|0,3:2|0:2|0:2|0:2,0:0:0:0:
406,130,104074,2,0,L|425:179,3,35,0|0|0|0,3:2|0:2|0:2|0:2,0:0:0:0:
419,179,104418,6,0,B|460:207|460:207|435:303,1,125.999996154785,6|0,3:2|0:2,0:0:0:0:
428,292,104763,2,0,B|411:355|411:355|365:272,1,125.999996154785,10|0,0:2|0:2,0:0:0:0:
367,292,105108,5,2,0:2:0:0:
284,251,105280,1,2,3:2:0:0:
241,164,105453,1,10,0:2:0:0:
274,78,105625,1,2,0:2:0:0:
364,40,105798,6,0,L|430:58,1,41.9999987182618,2|0,3:2|0:0,0:0:0:0:
241,164,106142,2,0,L|175:182,1,41.9999987182618,10|0,0:2|0:0,0:0:0:0:
343,310,106487,2,0,L|409:328,2,41.9999987182618,2|0|0,0:2|0:0|3:2,0:0:0:0:
248,332,106832,2,0,P|195:330|141:340,1,83.9999974365235,10|0,0:2|0:2,0:0:0:0:
77,362,107177,6,0,B|47:322|47:322|82:195,1,167.999994873047,2|10,3:2|0:2,0:0:0:0:
49,119,107694,1,0,0:2:0:0:
49,119,107780,1,0,0:0:0:0:
49,119,107867,2,0,P|92:112|139:127,1,83.9999974365235,2|0,0:2|3:2,0:0:0:0:
172,202,108211,2,0,P|215:209|262:194,1,83.9999974365235,10|0,0:2|0:2,0:0:0:0:
394,131,108556,6,0,P|356:173|358:218,1,83.9999974365235,2|0,3:2|0:2,0:0:0:0:
487,282,108901,2,0,P|469:228|429:207,1,83.9999974365235,10|0,0:2|0:2,0:0:0:0:
313,288,109246,2,0,P|368:299|406:275,1,83.9999974365235,2|0,0:2|3:2,0:0:0:0:
449,213,109591,2,0,P|444:168|424:114,1,84,10|0,0:2|0:2,0:0:0:0:
430,114,109935,6,0,B|384:108|384:108|357:89|357:89|275:99,1,125.999996154785,6|0,3:2|0:2,0:0:0:0:
301,80,110280,2,0,P|267:45|220:96,1,125.999996154785,10|0,0:2|0:2,0:0:0:0:
220,104,110625,5,2,0:2:0:0:
276,177,110798,1,2,3:2:0:0:
228,256,110970,1,10,0:2:0:0:
138,232,111142,1,2,0:2:0:0:
134,139,111315,6,0,L|84:126,1,41.9999987182618,2|0,3:2|0:0,0:0:0:0:
228,256,111660,2,0,L|278:243,1,41.9999987182618,10|0,0:2|0:0,0:0:0:0:
108,366,112004,2,0,L|58:353,2,41.9999987182618,2|0|0,0:2|0:0|3:2,0:0:0:0:
190,384,112349,2,0,P|236:352|292:350,1,83.9999974365235,10|0,0:2|0:2,0:0:0:0:
353,381,112694,6,0,B|369:323|369:323|354:292|354:292|372:217,1,167.999994873047,2|10,3:2|0:2,0:0:0:0:
460,173,113211,1,0,0:2:0:0:
414,94,113384,1,2,0:2:0:0:
414,94,113470,1,0,0:2:0:0:
414,94,113556,1,0,3:2:0:0:
413,0,113729,2,0,P|471:17|495:50,1,83.9999974365235,10|0,0:2|0:2,0:0:0:0:
414,94,114073,1,2,3:2:0:0:
250,14,114418,6,0,P|191:34|171:80,1,83.9999974365235,10|10,0:2|0:2,0:0:0:0:
160,51,114677,2,0,P|132:106|150:153,1,83.9999974365235,2|2,3:2|3:2,0:0:0:0:
147,137,114935,1,0,3:2:0:0:
160,147,115022,1,0,3:2:0:0:
176,150,115108,2,0,P|232:145|267:167,1,84,10|0,0:2|0:2,0:0:0:0:
262,172,115453,6,0,B|236:215|236:215|263:318,1,125.999996154785,6|0,3:2|0:2,0:0:0:0:
259,304,115798,2,0,P|302:337|336:278,1,125.999996154785,10|0,0:2|0:2,0:0:0:0:
352,280,116142,5,2,0:2:0:0:
434,251,116315,1,2,3:2:0:0:
512,221,116487,1,10,0:2:0:0:
448,165,116660,1,2,0:2:0:0:
384,108,116832,6,0,L|376:59,1,41.9999987182618,2|0,3:2|0:0,0:0:0:0:
245,209,117177,2,0,L|253:160,1,41.9999987182618,10|0,0:2|0:0,0:0:0:0:
121,116,117522,2,0,L|113:67,2,41.9999987182618,2|0|0,0:2|0:0|3:2,0:0:0:0:
53,181,117867,2,0,P|30:226|53:278,1,83.9999974365235,10|0,0:2|0:2,0:0:0:0:
72,343,118211,6,0,B|168:310|138:378|245:333,1,167.999994873047,2|10,3:2|0:2,0:0:0:0:
308,276,118729,1,0,0:2:0:0:
308,276,118815,1,0,0:0:0:0:
308,276,118901,2,0,P|307:220|290:170,1,83.9999974365235,2|0,0:2|3:2,0:0:0:0:
206,176,119246,2,0,P|205:134|214:93,1,83.9999974365235,10|0,0:2|0:2,0:0:0:0:
264,0,119591,6,0,P|303:24|319:81,1,83.9999974365235,2|0,3:2|0:2,0:0:0:0:
415,5,119935,2,0,P|425:49|396:101,1,83.9999974365235,10|0,0:2|0:2,0:0:0:0:
512,123,120280,2,0,P|488:162|431:178,1,83.9999974365235,2|0,0:2|3:2,0:0:0:0:
356,159,120625,1,10,0:2:0:0:
356,159,120798,1,0,0:2:0:0:
280,217,120970,6,0,L|269:281,3,52.5000020027161,2|0|8|0,3:2|0:2|0:2|0:2,0:0:0:0:
254,355,121660,5,2,0:2:0:0:
165,330,121832,1,2,3:2:0:0:
115,253,122004,1,10,0:2:0:0:
26,228,122176,1,2,0:2:0:0:
5,137,122349,6,0,L|-1:83,1,41.9999987182618,2|0,3:2|0:0,0:0:0:0:
194,144,122694,2,0,L|227:101,1,41.9999987182618,10|0,0:2|0:0,0:0:0:0:
165,330,123039,2,0,L|219:324,2,41.9999987182618,2|0|0,0:2|0:0|3:2,0:0:0:0:
80,372,123384,2,0,P|68:322|86:284,1,83.9999974365235,10|0,0:2|0:2,0:0:0:0:
151,243,123729,5,2,3:2:0:0:
317,384,124073,2,0,P|327:324|331:298,1,83.9999974365235,10|0,0:2|0:2,0:0:0:0:
408,259,124418,2,0,P|398:199|394:173,1,83.9999974365235,2|0,0:2|3:2,0:0:0:0:
443,98,124763,1,10,0:2:0:0:
443,98,124935,1,0,0:2:0:0:
393,26,125108,6,0,P|329:28|285:119,1,167.999994873047,2|10,3:2|0:2,0:0:0:0:
318,195,125625,1,0,0:2:0:0:
269,271,125798,1,2,3:2:0:0:
252,267,125884,1,2,3:2:0:0:
235,263,125970,1,2,3:2:0:0:
218,259,126056,1,2,3:2:0:0:
201,255,126142,1,10,0:2:0:0:
22,360,126487,6,0,P|-1:304|2:215,1,140,4|10,3:2|0:2,0:0:0:0:
50,137,127004,1,0,0:2:0:0:
50,137,127091,1,0,0:2:0:0:
50,137,127177,2,0,P|82:123|132:92,2,70,2|0|8,0:2|3:2|0:2,0:0:0:0:
98,216,127694,1,2,0:2:0:0:
188,170,127867,6,0,P|241:179|331:215,1,140,2|8,3:2|0:2,0:0:0:0:
409,256,128384,1,2,0:2:0:0:
409,256,128470,1,0,0:2:0:0:
409,256,128556,2,0,P|424:220|438:184,2,70,2|0|8,0:2|3:2|0:2,0:0:0:0:
367,354,129073,1,2,0:2:0:0:
367,354,129160,1,0,0:2:0:0:
367,354,129246,6,0,P|299:363|204:377,1,140,2|8,3:2|0:2,0:0:0:0:
151,313,129763,1,2,0:2:0:0:
59,357,129935,2,0,P|51:306|59:271,1,70,2|0,0:2|3:2,0:0:0:0:
0,220,130280,2,0,P|22:193|52:175,1,70,8|2,0:2|0:2,0:0:0:0:
133,229,130625,6,0,P|152:192|179:88,1,140,0|8,3:2|0:2,0:0:0:0:
230,22,131142,1,2,0:2:0:0:
230,22,131229,1,0,0:2:0:0:
230,22,131315,2,0,P|295:29|323:42,1,70,2|0,0:2|3:2,0:0:0:0:
305,42,131573,1,2,3:2:0:0:
310,54,131660,1,8,0:2:0:0:
393,103,131832,1,2,3:2:0:0:
487,41,132004,6,0,B|506:77|506:77|476:196,1,140,6|8,3:2|0:2,0:0:0:0:
443,271,132522,1,2,0:2:0:0:
443,271,132608,1,0,0:0:0:0:
443,271,132694,2,0,L|540:255,2,70,2|0|8,0:2|3:2|0:2,0:0:0:0:
373,350,133211,1,2,0:2:0:0:
275,326,133384,6,0,P|245:273|262:176,1,140,2|8,3:2|0:2,0:0:0:0:
322,117,133901,1,2,0:2:0:0:
322,117,133987,1,0,0:0:0:0:
322,117,134073,2,0,L|391:128,2,70,2|0|8,0:2|3:2|0:2,0:0:0:0:
254,48,134591,1,2,0:2:0:0:
254,48,134677,1,0,0:0:0:0:
254,48,134763,6,0,P|199:27|118:59,1,140,2|8,3:2|0:2,0:0:0:0:
91,129,135280,1,2,0:2:0:0:
91,129,135453,1,2,0:2:0:0:
143,205,135625,1,0,3:2:0:0:
143,205,135711,1,2,3:2:0:0:
143,205,135798,6,0,L|293:193,1,140,8|2,0:2|0:2,0:0:0:0:
304,105,136315,1,0,3:2:0:0:
304,105,136401,1,2,3:2:0:0:
304,105,136488,2,0,L|435:120,1,105,8|0,0:2|0:2,0:0:0:0:
415,129,136832,5,2,0:2:0:0:
484,207,137004,1,2,3:2:0:0:
439,297,137177,1,10,0:2:0:0:
340,284,137349,1,2,3:2:0:0:
340,284,137435,1,0,0:2:0:0:
340,284,137522,6,0,L|191:259,1,140,6|10,3:2|0:2,0:0:0:0:
104,305,138039,1,2,0:2:0:0:
104,305,138125,1,0,0:2:0:0:
104,305,138211,2,0,P|97:339|84:383,2,70,2|0|8,0:2|3:2|0:2,0:0:0:0:
47,229,138729,1,2,0:2:0:0:
24,142,138901,6,0,P|50:83|134:68,1,140,2|8,3:2|0:2,0:0:0:0:
197,118,139418,1,2,0:2:0:0:
197,118,139504,1,0,0:0:0:0:
197,118,139591,2,0,P|209:85|220:31,2,70,2|0|8,0:2|3:2|0:2,0:0:0:0:
141,194,140108,1,2,0:2:0:0:
141,194,140194,1,0,0:0:0:0:
141,194,140280,6,0,P|191:217|275:254,1,140,2|8,3:2|0:2,0:0:0:0:
353,216,140798,1,2,0:2:0:0:
428,161,140970,2,0,P|439:120|433:85,1,70,2|0,0:2|3:2,0:0:0:0:
512,53,141315,2,0,P|490:16|461:-4,1,70,8|2,0:2|0:2,0:0:0:0:
376,26,141660,6,0,B|313:13|320:82|238:60,1,140,2|8,3:2|0:2,0:0:0:0:
166,13,142177,1,2,0:2:0:0:
166,13,142263,1,0,0:2:0:0:
166,13,142349,2,0,P|152:46|144:101,1,70,2|0,0:2|3:2,0:0:0:0:
151,92,142608,1,2,0:2:0:0:
161,101,142694,2,0,P|175:134|183:189,1,70,10|0,0:2|0:2,0:0:0:0:
93,268,143039,6,0,P|175:262|211:321,1,140,6|8,3:2|0:2,0:0:0:0:
283,360,143556,1,2,0:2:0:0:
283,360,143642,1,0,0:0:0:0:
283,360,143729,2,0,P|337:359|369:357,2,70,2|0|8,0:2|3:2|0:2,0:0:0:0:
207,302,144246,1,2,0:2:0:0:
288,254,144418,6,0,P|318:230|378:129,1,140,2|8,3:2|0:2,0:0:0:0:
387,59,144935,1,2,0:2:0:0:
387,59,145022,1,0,0:0:0:0:
387,59,145108,2,0,P|442:49|481:50,2,70,2|0|8,0:2|3:2|0:2,0:0:0:0:
280,95,145625,1,2,0:2:0:0:
280,95,145711,1,0,0:2:0:0:
280,95,145798,5,2,3:2:0:0:
104,22,146142,2,0,P|89:62|77:103,1,70,8|2,0:2|0:2,0:0:0:0:
7,146,146487,2,0,P|22:186|34:227,1,70,2|0,0:2|3:2,0:0:0:0:
30,226,146746,1,0,3:2:0:0:
28,239,146832,1,10,0:2:0:0:
7,320,147004,1,2,0:2:0:0:
89,360,147177,6,0,P|141:341|181:330,1,70,2|0,0:2|3:2,0:0:0:0:
168,338,147435,1,0,3:2:0:0:
181,339,147522,1,10,0:2:0:0:
282,353,147694,1,2,0:2:0:0:
291,343,147780,2,0,P|308:283|308:260,1,70,0|0,3:2|0:2,0:0:0:0:
301,263,148039,1,2,3:2:0:0:
235,194,148211,2,0,L|177:204,3,35,2|2|2|2,0:2|0:2|0:2|0:2,0:0:0:0:
399,181,151315,6,0,P|353:163|320:152,1,70,2|2,0:0|0:0,0:0:0:0:
244,318,152004,2,0,P|298:274|334:242,1,105.000004005432,2|2,0:0|0:0,0:0:0:0:
223,58,152694,2,0,P|236:147|249:209,1,140,2|2,0:0|0:0,0:0:0:0:
