osu file format v14

[General]
AudioFilename: audio.mp3
AudioLeadIn: 0
PreviewTime: 108342
Countdown: 0
SampleSet: Soft
StackLeniency: 0.7
Mode: 0
LetterboxInBreaks: 0
WidescreenStoryboard: 0

[Editor]
Bookmarks: 5022,52480,85583,103859,153514,212060,250680,265383,312558,341649,357610,401748
DistanceSpacing: 0.9
BeatDivisor: 4
GridSize: 4
TimelineZoom: 2.200006

[Metadata]
Title:Songs Compilation
TitleUnicode:Songs Compilation
Artist:Brookes Brothers
ArtistUnicode:Brookes Brothers
Creator:Secretpipe
Version:Infinity Gates
Source:
Tags:drum and bass dnb best duo
BeatmapID:1231610
BeatmapSetID:581909

[Difficulty]
HPDrainRate:7
CircleSize:4.2
OverallDifficulty:8
ApproachRate:9.2
SliderMultiplier:1.70000000596046
SliderTickRate:1

[Events]
//Background and Video events
0,0,"788926.jpg",0,0
//Break Periods
2,38326,51910
2,91300,103289
2,153714,167800
2,202048,211490
2,250880,264813
2,298814,311988
2,341849,357040
//Storyboard Layer 0 (Background)
//Storyboard Layer 1 (Fail)
//Storyboard Layer 2 (Pass)
//Storyboard Layer 3 (Foreground)
//Storyboard Layer 4 (Overlay)
//Storyboard Sound Samples

[TimingPoints]
885,344.827586206897,4,2,1,50,1,0
5022,-133.333333333333,4,2,1,50,0,0
15712,-133.333333333333,4,2,2,50,0,0
16057,-100,4,2,1,90,0,0
38126,-100,4,2,2,60,0,0
42825,344.827586206897,4,2,1,100,1,0
52480,-125,4,2,1,80,0,0
53859,-117.647058823529,4,2,1,80,0,0
55238,-111.111111111111,4,2,1,80,0,0
56618,-105.263157894737,4,2,1,80,0,0
57997,-100,4,2,1,80,0,0
63169,-71.4285714285714,4,2,1,80,0,0
63514,-83.3333333333333,4,2,1,80,0,0
74549,-76.9230769230769,4,2,1,80,0,0
85583,-100,4,2,1,80,0,0
86273,-100,4,2,1,70,0,0
86962,-100,4,2,1,60,0,0
87652,-100,4,2,1,50,0,0
88342,-100,4,2,1,40,0,0
89031,-100,4,2,1,30,0,0
89721,-100,4,2,1,20,0,0
90411,-100,4,2,2,10,0,0
91100,-100,4,2,1,5,0,0
92825,344.827586206897,4,2,1,80,1,0
103859,-83.3333333333333,4,2,1,80,0,0
121790,-71.4285714285714,4,2,1,80,0,0
131445,-66.6666666666667,4,2,1,80,0,0
153514,-66.6666666666667,4,2,2,60,0,0
159090,344.827586206897,4,2,1,60,1,0
168400,-111.111111111111,4,2,1,60,0,0
179952,-90.9090909090909,4,2,1,90,0,0
181158,-71.4285714285714,4,2,2,90,0,0
181503,-71.4285714285714,4,2,1,90,0,0
182538,-90.9090909090909,4,2,1,90,0,0
183917,-71.4285714285714,4,2,2,90,0,0
184262,-90.9090909090909,4,2,1,90,0,0
186676,-71.4285714285714,4,2,2,90,0,0
187021,-71.4285714285714,4,2,1,90,0,0
188055,-90.9090909090909,4,2,1,90,0,0
189434,-71.4285714285714,4,2,2,90,0,0
189779,-71.4285714285714,4,2,1,90,0,0
190814,-90.9090909090909,4,2,1,90,0,0
192193,-71.4285714285714,4,2,2,90,0,0
192538,-71.4285714285714,4,2,1,90,0,0
193572,-90.9090909090909,4,2,1,90,0,0
194952,-71.4285714285714,4,2,2,90,0,0
195296,-71.4285714285714,4,2,1,90,0,0
196331,-90.9090909090909,4,2,1,90,0,0
197710,-71.4285714285714,4,2,2,90,0,0
198055,-71.4285714285714,4,2,1,90,0,0
199090,-90.9090909090909,4,2,1,90,0,0
201848,-90.9090909090909,4,2,2,60,0,0
212060,344.827586206897,4,2,1,100,1,0
212060,-111.111111111111,4,2,0,75,0,0
250680,-111.111111111111,4,2,2,40,0,0
259845,461.538461538462,4,2,1,90,1,0
265383,-133.333333333333,4,2,1,90,0,0
266306,-117.647058823529,4,2,1,90,0,0
267229,-105.263157894737,4,2,1,90,0,0
269075,-83.3333333333333,4,2,1,90,0,0
298614,-83.3333333333333,4,2,2,40,0,0
306740,363.636363636364,4,2,1,80,1,0
312558,-133.333333333333,4,2,1,80,0,0
314012,-153.846153846153,4,2,1,80,0,0
315467,-200,4,2,1,80,0,0
318376,-83.3333333333333,4,2,1,80,0,0
341649,-83.3333333333333,4,2,2,40,0,0
341740,-83.3333333333333,4,2,1,80,0,0
347955,344.827586206897,4,2,1,80,1,0
357610,-153.846153846154,4,2,1,70,0,0
368644,-125,4,2,1,70,0,0
379679,-90.9090909090909,4,2,1,70,0,0
401748,-90.9090909090909,4,2,2,60,0,0

[Colours]
Combo1 : 222,105,92
Combo2 : 204,147,147
Combo3 : 125,155,125
Combo4 : 109,182,186

[HitObjects]
406,282,5022,5,2,0:0:0:0:
353,217,5367,2,0,L|224:227,1,127.500005310774,8|0,0:0|0:0,0:0:0:0:
153,280,5885,1,2,0:0:0:0:
134,134,6057,2,0,P|152:172|145:212,1,63.7500026553869,8|0,0:0|0:0,0:0:0:0:
56,114,6402,6,0,P|76:78|115:58,1,63.7500026553869,2|0,0:0|0:0,0:0:0:0:
261,136,6747,2,0,L|124:133,1,127.500005310774,8|0,0:0|0:0,0:0:0:0:
229,57,7264,1,2,0:0:0:0:
341,177,7436,2,0,L|330:96,1,63.7500026553869,8|0,0:0|0:0,0:0:0:0:
296,246,7781,6,0,L|286:329,2,63.7500026553869,2|0|8,0:0|0:0|0:0,0:0:0:0:
154,340,8298,2,0,L|138:233,1,95.6250039830803
117,210,8643,1,2,0:0:0:0:
198,98,8816,2,0,L|191:175,1,63.7500026553869,8|0,0:0|0:0,0:0:0:0:
331,262,9160,2,0,P|283:233|204:242,1,127.500005310774,2|8,0:0|0:0,0:0:0:0:
192,317,9678,2,0,P|246:347|309:341,1,127.500005310774,0|2,0:0|0:0,0:0:0:0:
397,305,10195,2,0,L|441:306,3,31.8750013276934,8|8|8|8,0:0|0:0|0:0|0:0,0:0:0:0:
471,277,10540,5,10,0:0:0:0:
489,247,10626,1,2,0:0:0:0:
497,213,10712,1,2,0:0:0:0:
491,178,10798,1,2,0:0:0:0:
470,149,10885,1,10,0:0:0:0:
444,125,10971,1,2,0:0:0:0:
430,92,11057,1,2,0:0:0:0:
435,57,11143,1,2,0:0:0:0:
462,35,11229,6,0,L|516:48,3,31.8750013276934,10|2|2|2,0:0|0:0|0:0|0:0,0:0:0:0:
359,63,11574,2,0,L|328:70,3,31.8750013276934,10|2|2|2,0:0|0:0|0:0|0:0,0:0:0:0:
249,49,11919,5,10,0:0:0:0:
231,79,12005,1,2,0:0:0:0:
223,113,12091,1,2,0:0:0:0:
229,148,12177,1,2,0:0:0:0:
250,177,12264,1,10,0:0:0:0:
276,201,12350,1,2,0:0:0:0:
290,234,12436,1,2,0:0:0:0:
285,269,12522,1,2,0:0:0:0:
258,291,12608,6,0,L|204:278,3,31.8750013276934,10|2|2|2,0:0|0:0|0:0|0:0,0:0:0:0:
158,322,12953,2,0,L|104:335,3,31.8750013276934,10|2|2|2,0:0|0:0|0:0|0:0,0:0:0:0:
154,240,13298,6,0,L|149:182,1,31.8750013276934,10|2,0:0|0:0,0:0:0:0:
117,98,13471,2,0,L|124:151,1,31.8750013276934,10|2,0:0|0:0,0:0:0:0:
39,197,13643,2,0,L|97:192,1,31.8750013276934,10|2,0:0|0:0,0:0:0:0:
202,141,13816,2,0,L|255:148,1,31.8750013276934,10|2,0:0|0:0,0:0:0:0:
314,206,13988,6,0,L|309:148,1,31.8750013276934,10|2,0:0|0:0,0:0:0:0:
318,54,14161,2,0,L|325:107,1,31.8750013276934,10|2,0:0|0:0,0:0:0:0:
395,194,14333,2,0,L|390:136,1,31.8750013276934,10|2,0:0|0:0,0:0:0:0:
398,50,14506,2,0,L|405:103,1,31.8750013276934,10|2,0:0|0:0,0:0:0:0:
498,122,14678,6,0,L|453:131,1,31.8750013276934,10|2,0:0|0:0,0:0:0:0:
395,194,14850,2,0,L|426:200,1,31.8750013276934,10|2,0:0|0:0,0:0:0:0:
507,258,15022,2,0,L|462:267,1,31.8750013276934,10|2,0:0|0:0,0:0:0:0:
404,332,15194,2,0,L|435:338,1,31.8750013276934,10|2,0:0|0:0,0:0:0:0:
310,293,15367,2,0,L|252:300,1,31.8750013276934,10|2,0:0|0:0,0:0:0:0:
153,337,15540,6,0,L|145:302,1,31.8750013276934,10|2,0:0|0:0,0:0:0:0:
208,200,15712,1,2,0:0:0:0:
98,55,16057,5,2,0:0:0:0:
70,190,16229,1,2,0:0:0:0:
265,83,16402,1,8,0:0:0:0:
160,114,16574,1,2,0:0:0:0:
318,173,16747,1,2,0:0:0:0:
265,83,16919,1,2,0:0:0:0:
217,293,17091,2,0,P|197:259|208:202,1,85.000000298023,8|2,0:0|0:0,0:0:0:0:
276,348,17436,5,2,0:0:0:0:
123,285,17609,1,2,0:0:0:0:
284,234,17781,1,8,0:0:0:0:
217,293,17953,1,2,0:0:0:0:
224,153,18126,1,2,0:0:0:0:
357,188,18298,1,2,0:0:0:0:
170,222,18471,2,0,P|139:191|140:125,1,85.000000298023,8|2,0:0|0:0,0:0:0:0:
373,94,18816,6,0,P|300:108|244:66,1,127.500000447035,6|0,0:0|0:0,0:0:0:0:
232,59,19160,1,8,0:0:0:0:
327,23,19333,1,2,0:0:0:0:
273,158,19505,1,2,0:0:0:0:
149,102,19678,1,2,0:0:0:0:
391,186,19850,2,0,P|394:238|367:292,1,85.000000298023,8|2,0:0|0:0,0:0:0:0:
187,273,20195,6,0,P|236:260|326:330,1,170.000000596046,6|8,0:0|0:0,0:0:0:0:
161,349,20712,2,0,P|105:289|134:211,1,170.000000596046,2|2,0:0|0:0,0:0:0:0:
190,68,21229,2,0,P|200:120|176:166,1,85.000000298023,8|2,0:0|0:0,0:0:0:0:
120,107,21574,5,2,0:0:0:0:
266,40,21747,1,2,0:0:0:0:
200,264,21919,1,8,0:0:0:0:
196,163,22091,1,2,0:0:0:0:
287,245,22264,1,2,0:0:0:0:
119,221,22436,1,2,0:0:0:0:
298,156,22609,2,0,L|398:168,1,85.000000298023,8|2,0:0|0:0,0:0:0:0:
239,88,22953,5,2,0:0:0:0:
146,142,23126,1,2,0:0:0:0:
206,308,23298,1,8,0:0:0:0:
212,207,23471,1,2,0:0:0:0:
119,221,23643,1,2,0:0:0:0:
111,315,23816,1,2,0:0:0:0:
363,243,23988,2,0,L|260:257,1,85.000000298023,8|2,0:0|0:0,0:0:0:0:
424,309,24333,6,0,P|446:251|422:184,1,127.500000447035,6|0,0:0|0:0,0:0:0:0:
403,166,24678,2,0,L|391:62,1,85.000000298023,8|2,0:0|0:0,0:0:0:0:
478,131,25022,1,2,0:0:0:0:
478,131,25195,1,2,0:0:0:0:
303,219,25367,2,0,L|311:132,1,85.000000298023,8|2,0:0|0:0,0:0:0:0:
360,277,25712,6,0,P|285:293|237:258,1,127.500000447035,6|0,0:0|0:0,0:0:0:0:
222,242,26057,2,0,L|208:153,1,85.000000298023,8|2,0:0|0:0,0:0:0:0:
125,335,26402,2,0,L|139:229,1,85.000000298023,2|2,0:0|0:0,0:0:0:0:
139,90,26747,1,8,0:0:0:0:
109,106,26833,1,2,0:0:0:0:
208,26,27005,1,2,0:0:0:0:
235,45,27091,6,0,L|336:62,1,85.000000298023,2|2,0:0|0:0,0:0:0:0:
487,156,27436,2,0,L|403:170,1,85.000000298023,8|2,0:0|0:0,0:0:0:0:
281,232,27781,1,2,0:0:0:0:
305,114,27953,1,2,0:0:0:0:
364,275,28126,2,0,L|360:383,1,85.000000298023,8|2,0:0|0:0,0:0:0:0:
414,55,28471,5,2,0:0:0:0:
442,190,28643,1,2,0:0:0:0:
247,83,28816,1,8,0:0:0:0:
351,123,28988,1,2,0:0:0:0:
194,173,29161,1,2,0:0:0:0:
247,83,29333,1,2,0:0:0:0:
295,293,29505,2,0,L|304:202,1,85.000000298023,8|2,0:0|0:0,0:0:0:0:
236,348,29850,5,6,0:0:0:0:
389,285,30023,1,2,0:0:0:0:
228,234,30195,1,8,0:0:0:0:
295,293,30367,1,2,0:0:0:0:
288,153,30540,1,2,0:0:0:0:
155,188,30712,1,2,0:0:0:0:
342,222,30885,2,0,P|373:191|372:125,1,85.000000298023,8|2,0:0|0:0,0:0:0:0:
241,78,31229,6,0,B|291:68|322:82|322:82|417:67,1,170.000000596046,6|8,0:0|0:0,0:0:0:0:
501,146,31747,2,0,B|451:156|420:142|420:142|325:157,1,170.000000596046,2|2,0:0|0:0,0:0:0:0:
254,225,32264,2,0,P|251:277|278:331,1,85.000000298023,8|2,0:0|0:0,0:0:0:0:
333,155,32609,5,2,0:0:0:0:
246,40,32782,1,2,0:0:0:0:
330,251,32954,1,8,0:0:0:0:
396,101,33126,1,2,0:0:0:0:
239,155,33299,1,2,0:0:0:0:
428,216,33471,5,2,0:0:0:0:
239,155,33644,2,0,L|139:167,1,85.000000298023,8|2,0:0|0:0,0:0:0:0:
287,78,33988,5,2,0:0:0:0:
366,143,34161,1,2,0:0:0:0:
306,308,34333,1,8,0:0:0:0:
393,221,34506,1,2,0:0:0:0:
300,207,34678,1,2,0:0:0:0:
401,315,34850,1,2,0:0:0:0:
457,152,35023,2,0,L|373:141,1,85.000000298023,8|2,0:0|0:0,0:0:0:0:
176,70,35368,6,0,P|154:128|178:195,1,127.500000447035,6|0,0:0|0:0,0:0:0:0:
197,213,35713,2,0,L|209:317,1,85.000000298023,8|2,0:0|0:0,0:0:0:0:
122,248,36057,1,2,0:0:0:0:
122,248,36230,1,2,0:0:0:0:
297,160,36402,2,0,L|289:247,1,85.000000298023,8|2,0:0|0:0,0:0:0:0:
240,102,36747,6,0,P|315:86|363:121,1,127.500000447035,6|0,0:0|0:0,0:0:0:0:
378,137,37092,2,0,L|392:226,1,85.000000298023,8|2,0:0|0:0,0:0:0:0:
475,44,37437,2,0,L|461:150,1,85.000000298023,2|2,0:0|0:0,0:0:0:0:
423,318,37781,2,0,L|363:308,1,42.5000001490115,8|2,0:0|0:0,0:0:0:0:
352,293,37953,1,2,0:0:0:0:
207,325,38126,5,4,1:0:0:0:
35,283,52480,6,0,P|98:269|172:287,1,136.000000476837,2|0,0:0|0:0,0:0:0:0:
238,319,52997,2,0,B|306:303|306:303|374:322|374:322|454:306,1,204.000000715255,2|0,0:0|0:0,0:0:0:0:
428,95,53859,6,0,P|369:119|289:90,1,144.500003262758,2|0,0:0|0:0,0:0:0:0:
221,38,54376,2,0,B|174:153|258:133|224:248,1,216.750004894137,2|0,0:0|0:0,0:0:0:0:
88,314,55238,6,0,P|80:238|152:205,1,152.999995867252,2|0,0:0|0:0,0:0:0:0:
320,220,55756,2,0,B|373:247|467:208|467:208|415:242|387:270,1,229.499993800878,2|0,0:0|0:0,0:0:0:0:
244,182,56618,6,0,P|219:113|266:9,1,161.499996253729,2|0,0:0|0:0,0:0:0:0:
378,58,57135,2,0,P|400:123|307:75,1,242.249994380593,2|0,0:0|0:0,0:0:0:0:
441,198,57997,5,2,0:0:0:0:
441,198,58169,1,0,0:0:0:0:
342,287,58342,1,2,0:0:0:0:
342,287,58514,1,0,0:0:0:0:
235,168,58687,1,2,0:0:0:0:
235,168,58859,1,0,0:0:0:0:
307,59,59031,1,2,0:0:0:0:
307,59,59204,1,0,0:0:0:0:
363,189,59376,5,2,0:0:0:0:
363,189,59549,1,0,0:0:0:0:
180,65,59721,1,2,0:0:0:0:
180,65,59893,1,0,0:0:0:0:
47,208,60066,1,2,0:0:0:0:
47,208,60238,1,0,0:0:0:0:
216,320,60411,1,2,0:0:0:0:
216,320,60583,1,0,0:0:0:0:
220,133,60756,5,2,0:0:0:0:
159,212,60928,1,2,0:0:0:0:
253,224,61100,1,2,0:0:0:0:
129,126,61273,1,2,0:0:0:0:
161,291,61445,1,2,0:0:0:0:
300,154,61618,1,2,0:0:0:0:
76,185,61790,1,2,0:0:0:0:
250,309,61962,1,2,0:0:0:0:
226,71,62135,6,0,L|295:57,2,56.6666668653487,2|2|2,0:0|0:0|0:0,0:0:0:0:
358,117,62480,2,0,L|431:127,2,56.6666668653487,2|2|2,0:0|0:0|0:0,0:0:0:0:
263,193,62825,2,0,L|212:203,5,28.3333334326743,2|2|2|2|2|2,0:0|0:0|0:0|0:0|0:0|0:0,0:0:0:0:
188,257,63169,2,0,B|156:213|156:213|174:110,1,118.999996785641,8|0,0:0|0:0,0:0:0:0:
401,73,63514,6,0,P|326:117|263:92,1,152.999995867252,4|0,0:0|0:0,0:0:0:0:
235,65,63859,2,0,L|122:75,1,101.999997244835,8|0,0:0|0:0,0:0:0:0:
322,187,64204,2,0,P|387:178|429:145,1,101.999997244835,2|0,0:0|0:0,0:0:0:0:
187,259,64549,2,0,L|76:267,1,101.999997244835,8|0,0:0|0:0,0:0:0:0:
247,333,64893,1,2,0:0:0:0:
214,173,65066,1,0,0:0:0:0:
136,347,65238,1,8,0:0:0:0:
338,241,65411,5,2,0:0:0:0:
241,40,65583,1,2,0:0:0:0:
187,259,65756,1,2,0:0:0:0:
383,109,65928,1,10,0:0:0:0:
112,124,66100,1,2,0:0:0:0:
356,322,66273,6,0,P|409:271|401:198,1,152.999995867252,6|0,0:0|0:0,0:0:0:0:
379,163,66618,2,0,P|370:112|392:53,1,101.999997244835,8|0,0:0|0:0,0:0:0:0:
469,118,66962,1,2,0:0:0:0:
319,236,67135,1,0,0:0:0:0:
184,28,67307,2,0,L|202:154,1,101.999997244835,8|0,0:0|0:0,0:0:0:0:
133,328,67652,1,2,0:0:0:0:
104,205,67825,1,0,0:0:0:0:
275,334,67997,1,8,0:0:0:0:
188,258,68169,5,2,0:0:0:0:
298,62,68342,1,2,0:0:0:0:
375,228,68514,1,2,0:0:0:0:
98,71,68687,1,10,0:0:0:0:
405,127,68859,1,2,0:0:0:0:
101,274,69031,6,0,P|142:218|226:226,1,152.999995867252,6|0,0:0|0:0,0:0:0:0:
249,249,69376,2,0,L|237:355,1,101.999997244835,8|0,0:0|0:0,0:0:0:0:
312,117,69721,2,0,L|332:242,1,101.999997244835,2|0,0:0|0:0,0:0:0:0:
74,96,70066,2,0,P|139:80|220:117,1,152.999995867252,8|0,0:0|0:0,0:0:0:0:
235,148,70411,1,2,0:0:0:0:
122,202,70583,1,0,0:0:0:0:
254,23,70756,1,8,0:0:0:0:
425,217,70928,5,2,0:0:0:0:
235,148,71100,1,2,0:0:0:0:
375,64,71273,1,2,0:0:0:0:
222,325,71445,1,10,0:0:0:0:
103,102,71618,1,2,0:0:0:0:
235,148,71790,5,2,0:0:0:0:
92,270,71962,1,2,0:0:0:0:
196,18,72135,1,10,0:0:0:0:
329,203,72307,1,2,0:0:0:0:
146,163,72480,1,2,0:0:0:0:
317,64,72652,1,2,0:0:0:0:
210,350,72825,1,10,0:0:0:0:
235,148,72997,1,2,0:0:0:0:
357,319,73169,5,2,0:0:0:0:
151,231,73342,1,2,0:0:0:0:
432,136,73514,1,10,0:0:0:0:
276,281,73687,1,2,0:0:0:0:
312,86,73859,1,2,0:0:0:0:
417,262,74031,1,2,0:0:0:0:
417,262,74118,1,2,0:0:0:0:
417,262,74204,2,0,L|401:177,2,50.9999986224174,8|2|2,0:0|0:0|0:0,0:0:0:0:
368,32,74549,6,0,P|308:11|227:85,1,165.749992993712,6|0,0:0|0:0,0:0:0:0:
218,109,74893,2,0,L|241:232,1,110.499995329142,8|0,0:0|0:0,0:0:0:0:
303,353,75238,1,2,0:0:0:0:
337,182,75411,1,0,0:0:0:0:
95,333,75583,2,0,P|164:338|213:310,1,110.499995329142,8|0,0:0|0:0,0:0:0:0:
298,256,75928,1,2,0:0:0:0:
209,159,76100,1,0,0:0:0:0:
303,353,76273,1,8,0:0:0:0:
372,146,76445,5,2,0:0:0:0:
197,246,76618,1,2,0:0:0:0:
378,297,76790,1,2,0:0:0:0:
264,27,76962,1,10,0:0:0:0:
111,177,77135,1,2,0:0:0:0:
252,363,77307,6,0,L|271:177,1,165.749992993712,6|0,0:0|0:0,0:0:0:0:
256,155,77652,1,8,0:0:0:0:
355,83,77825,1,0,0:0:0:0:
366,198,77997,1,2,0:0:0:0:
248,140,78169,1,0,0:0:0:0:
488,129,78342,2,0,L|474:282,1,110.499995329142,8|0,0:0|0:0,0:0:0:0:
318,358,78687,2,0,L|304:205,1,110.499995329142,2|0,0:0|0:0,0:0:0:0:
229,21,79031,1,8,0:0:0:0:
109,200,79204,5,2,0:0:0:0:
316,108,79376,1,2,0:0:0:0:
126,42,79549,1,2,0:0:0:0:
184,331,79721,1,10,0:0:0:0:
225,155,79893,1,2,0:0:0:0:
121,281,80066,6,0,P|190:255|264:311,1,165.749992993712,6|0,0:0|0:0,0:0:0:0:
256,347,80411,1,8,0:0:0:0:
457,299,80583,2,0,L|340:287,2,110.499995329142,0|2|0,0:0|0:0|0:0,0:0:0:0:
300,114,81100,2,0,B|283:158|283:158|303:245,1,110.499995329142,8|0,0:0|0:0,0:0:0:0:
409,31,81445,2,0,B|426:75|426:75|406:162,1,110.499995329142,2|0,0:0|0:0,0:0:0:0:
323,359,81790,1,8,0:0:0:0:
160,276,81962,5,2,0:0:0:0:
296,170,82135,1,2,0:0:0:0:
231,359,82307,1,2,0:0:0:0:
241,116,82480,2,0,P|315:94|376:159,1,165.749992993712,10|0,0:0|0:0,0:0:0:0:
372,194,82825,5,10,0:0:0:0:
363,225,82911,1,2,0:0:0:0:
360,258,82997,1,2,0:0:0:0:
365,290,83083,1,2,0:0:0:0:
385,316,83169,2,0,L|461:308,3,55.2499976645708,10|2|2|2,0:0|0:0|0:0|0:0,0:0:0:0:
305,343,83514,5,10,0:0:0:0:
282,319,83600,1,2,0:0:0:0:
255,300,83686,1,2,0:0:0:0:
225,288,83772,1,2,0:0:0:0:
192,293,83859,2,0,L|160:362,3,55.2499976645708,10|2|2|2,0:0|0:0|0:0|0:0,0:0:0:0:
162,229,84204,5,10,0:0:0:0:
171,198,84290,1,2,0:0:0:0:
174,165,84376,1,2,0:0:0:0:
169,133,84462,1,2,0:0:0:0:
149,107,84548,2,0,L|73:115,3,55.2499976645708,10|2|2|2,0:0|0:0|0:0|0:0,0:0:0:0:
218,66,84893,5,10,0:0:0:0:
249,56,84980,1,2,0:0:0:0:
282,53,85065,1,2,0:0:0:0:
314,58,85151,1,2,0:0:0:0:
340,79,85238,2,0,L|332:155,3,55.2499976645708,10|2|2|2,0:0|0:0|0:0|0:0,0:0:0:0:
281,229,85583,5,6,0:0:0:0:
218,66,85756,1,0,0:0:0:0:
486,185,85928,2,0,L|387:202,1,85.000000298023,8|0,0:0|0:0,0:0:0:0:
281,229,86273,1,2,0:0:0:0:
218,66,86445,1,0,0:0:0:0:
361,258,86618,2,0,P|372:309|356:353,1,85.000000298023,8|0,0:0|0:0,0:0:0:0:
281,229,86962,5,2,0:0:0:0:
350,101,87135,1,0,0:0:0:0:
499,203,87307,2,0,P|418:202|389:180,1,85.000000298023,8|0,0:0|0:0,0:0:0:0:
269,102,87652,2,0,P|325:91|367:115,1,85.000000298023,2|0,0:0|0:0,0:0:0:0:
150,261,87997,2,0,P|144:212|157:170,1,85.000000298023,8|0,0:0|0:0,0:0:0:0:
212,343,88342,1,2,0:0:0:0:
72,237,88514,1,0,0:0:0:0:
307,209,88687,6,0,P|248:227|222:226,1,85.000000298023,8|0,0:0|0:0,0:0:0:0:
393,241,89031,2,0,P|432:256|474:258,1,85.000000298023,2|0,0:0|0:0,0:0:0:0:
300,293,89376,2,0,P|241:311|215:310,1,85.000000298023,8|0,0:0|0:0,0:0:0:0:
386,325,89720,2,0,P|425:340|467:342,1,85.000000298023,2|0,0:0|0:0,0:0:0:0:
462,138,90066,2,0,P|419:140|380:155,1,85.000000298023,8|0,0:0|0:0,0:0:0:0:
202,228,90411,6,0,P|155:168|287:200,1,340.000001192092,4|0,3:0|0:0,0:0:0:0:
466,43,103859,6,0,L|345:53,1,101.999997244835,6|0,0:0|0:0,0:0:0:0:
82,100,104204,2,0,L|212:117,1,101.999997244835,8|0,0:0|0:0,0:0:0:0:
429,187,104549,1,2,0:0:0:0:
296,310,104721,1,2,0:0:0:0:
287,63,104893,1,8,0:0:0:0:
335,200,105066,1,0,0:0:0:0:
113,257,105238,6,0,L|240:272,1,101.999997244835,2|0,0:0|0:0,0:0:0:0:
86,87,105583,2,0,P|61:151|75:193,1,101.999997244835,8|0,0:0|0:0,0:0:0:0:
263,202,105928,1,2,0:0:0:0:
199,76,106100,1,2,0:0:0:0:
389,129,106273,1,8,0:0:0:0:
161,168,106445,1,0,0:0:0:0:
370,347,106618,5,10,0:0:0:0:
390,323,106704,1,2,0:0:0:0:
395,292,106790,1,2,0:0:0:0:
390,261,106876,1,2,0:0:0:0:
373,234,106962,1,10,0:0:0:0:
353,210,107049,1,2,0:0:0:0:
339,181,107135,5,2,0:0:0:0:
340,149,107221,1,2,0:0:0:0:
350,119,107307,1,10,0:0:0:0:
368,93,107393,1,2,0:0:0:0:
394,76,107480,1,2,0:0:0:0:
424,83,107566,1,2,0:0:0:0:
446,105,107652,5,10,0:0:0:0:
446,136,107738,1,2,0:0:0:0:
421,155,107825,1,2,0:0:0:0:
225,164,107997,5,10,0:0:0:0:
163,31,108169,1,2,0:0:0:0:
163,31,108256,1,2,0:0:0:0:
163,31,108342,2,0,L|175:106,1,50.9999986224174,10|2,0:0|0:0,0:0:0:0:
90,191,108514,1,10,0:0:0:0:
90,191,108600,1,2,0:0:0:0:
90,191,108687,2,0,L|148:164,1,50.9999986224174,10|2,0:0|0:0,0:0:0:0:
264,197,108859,5,10,0:0:0:0:
264,197,108945,1,2,0:0:0:0:
264,197,109031,2,0,L|214:155,1,50.9999986224174,10|2,0:0|0:0,0:0:0:0:
281,273,109204,2,0,L|267:326,1,50.9999986224174,10|2,0:0|0:0,0:0:0:0:
342,212,109376,6,0,P|424:232|458:211,1,101.999997244835,6|0,0:0|0:0,0:0:0:0:
452,78,109721,2,0,P|381:67|331:112,1,101.999997244835,8|0,0:0|0:0,0:0:0:0:
321,120,109980,1,0,0:0:0:0:
293,143,110066,2,0,L|221:133,2,50.9999986224174,2|0|2,0:0|0:0|0:0,0:0:0:0:
90,343,110411,2,0,P|71:278|98:229,1,101.999997244835,8|0,0:0|0:0,0:0:0:0:
116,212,110669,1,0,0:0:0:0:
142,187,110756,2,0,P|152:108|130:72,1,101.999997244835,2|0,0:0|0:0,0:0:0:0:
221,301,111100,5,8,0:0:0:0:
387,162,111273,1,0,0:0:0:0:
359,151,111359,1,0,0:0:0:0:
329,149,111445,1,2,0:0:0:0:
301,161,111531,1,0,0:0:0:0:
285,186,111618,1,2,0:0:0:0:
453,350,111790,2,0,L|432:220,1,101.999997244835,8|0,0:0|0:0,0:0:0:0:
440,202,112049,1,0,0:0:0:0:
443,172,112135,6,0,L|416:36,1,101.999997244835,2|0,0:0|0:0,0:0:0:0:
336,289,112480,1,8,0:0:0:0:
177,230,112652,2,0,L|167:159,1,50.9999986224174,2|0,0:0|0:0,0:0:0:0:
227,102,112825,2,0,L|241:36,2,50.9999986224174,2|0|2,0:0|0:0|0:0,0:0:0:0:
442,162,113169,2,0,P|370:118|319:129,1,101.999997244835,8|0,0:0|0:0,0:0:0:0:
177,230,113514,6,0,P|235:227|281:189,1,101.999997244835,2|0,0:0|0:0,0:0:0:0:
60,116,113859,2,0,L|78:227,1,101.999997244835,8|0,0:0|0:0,0:0:0:0:
93,248,114118,1,0,0:0:0:0:
93,277,114204,2,0,L|84:347,1,50.9999986224174,2|0,0:0|0:0,0:0:0:0:
177,230,114376,2,0,L|168:304,1,50.9999986224174,2|0,0:0|0:0,0:0:0:0:
248,183,114549,2,0,P|263:74|212:45,1,152.999995867252,8|0,0:0|0:0,0:0:0:0:
165,37,114893,5,2,0:0:0:0:
98,194,115066,1,0,0:0:0:0:
359,106,115238,2,0,L|377:232,1,101.999997244835,8|0,0:0|0:0,0:0:0:0:
390,251,115497,1,0,0:0:0:0:
401,278,115583,2,0,L|389:354,1,50.9999986224174,2|0,0:0|0:0,0:0:0:0:
326,367,115756,1,2,0:0:0:0:
273,161,115928,2,0,L|296:288,1,101.999997244835,8|0,0:0|0:0,0:0:0:0:
201,133,116273,5,2,0:0:0:0:
294,27,116445,1,0,0:0:0:0:
425,204,116618,1,8,0:0:0:0:
151,202,116790,1,0,0:0:0:0:
130,180,116876,1,0,0:0:0:0:
119,152,116962,1,2,0:0:0:0:
117,121,117049,1,0,0:0:0:0:
121,91,117135,1,2,0:0:0:0:
235,263,117307,1,8,0:0:0:0:
70,321,117480,5,0,0:0:0:0:
70,321,117566,1,0,0:0:0:0:
70,321,117652,2,0,P|77:264|43:193,1,101.999997244835,2|0,0:0|0:0,0:0:0:0:
265,25,117997,2,0,P|245:96|262:151,1,101.999997244835,8|0,0:0|0:0,0:0:0:0:
271,165,118256,1,0,0:0:0:0:
288,189,118342,2,0,L|281:268,1,50.9999986224174,2|0,0:0|0:0,0:0:0:0:
235,360,118514,2,0,L|224:272,1,50.9999986224174,2|0,0:0|0:0,0:0:0:0:
354,348,118687,1,8,0:0:0:0:
429,164,118859,1,0,0:0:0:0:
429,164,118945,1,0,0:0:0:0:
429,164,119031,6,0,P|431:78|366:116,1,152.999995867252,2|0,0:0|0:0,0:0:0:0:
330,125,119376,1,10,0:0:0:0:
155,53,119549,1,2,0:0:0:0:
155,53,119635,1,0,0:0:0:0:
155,53,119721,2,0,L|170:131,1,50.9999986224174,2|0,0:0|0:0,0:0:0:0:
153,234,119893,2,0,L|135:159,1,50.9999986224174,2|0,0:0|0:0,0:0:0:0:
28,130,120066,2,0,L|106:121,1,50.9999986224174,10|2,0:0|0:0,0:0:0:0:
234,185,120238,2,0,L|293:191,1,50.9999986224174,2|2,0:0|0:0,0:0:0:0:
429,26,120411,6,0,P|398:82|442:191,1,152.999995867252,6|0,0:0|0:0,0:0:0:0:
466,264,120756,2,0,L|483:179,1,50.9999986224174,8|0,0:0|0:0,0:0:0:0:
410,322,120928,1,0,0:0:0:0:
410,322,121014,1,0,0:0:0:0:
410,322,121100,2,0,P|363:308|306:315,1,101.999997244835,2|2,0:0|0:0,0:0:0:0:
111,353,121445,1,8,0:0:0:0:
74,78,121618,1,0,0:0:0:0:
74,78,121704,1,0,0:0:0:0:
74,78,121790,6,0,L|89:201,1,118.999996785641,2|0,0:0|0:0,0:0:0:0:
107,219,122049,1,0,0:0:0:0:
130,237,122135,2,0,P|186:245|260:203,1,118.999996785641,8|0,0:0|0:0,0:0:0:0:
264,201,122393,1,0,0:0:0:0:
266,171,122480,2,0,P|260:141|244:117,1,59.4999983928203,2|0,0:0|0:0,0:0:0:0:
218,101,122652,1,2,0:0:0:0:
335,228,122825,2,0,L|481:234,1,118.999996785641,8|0,0:0|0:0,0:0:0:0:
211,306,123169,6,0,L|341:303,1,118.999996785641,2|0,0:0|0:0,0:0:0:0:
84,52,123514,2,0,P|74:105|104:170,1,118.999996785641,8|0,0:0|0:0,0:0:0:0:
125,195,123773,1,0,0:0:0:0:
136,234,123859,2,0,L|126:311,1,59.4999983928203,2|0,0:0|0:0,0:0:0:0:
102,325,124031,1,2,0:0:0:0:
210,183,124204,1,8,0:0:0:0:
162,75,124376,1,0,0:0:0:0:
207,288,124549,5,2,0:0:0:0:
380,231,124721,1,0,0:0:0:0:
380,231,124807,1,0,0:0:0:0:
380,231,124893,1,8,0:0:0:0:
263,174,125066,1,0,0:0:0:0:
251,135,125152,1,0,0:0:0:0:
261,95,125238,1,2,0:0:0:0:
285,62,125325,1,0,0:0:0:0:
325,36,125411,1,2,0:0:0:0:
313,318,125583,1,8,0:0:0:0:
30,288,125756,5,0,0:0:0:0:
30,288,125842,1,0,0:0:0:0:
30,288,125928,2,0,P|95:303|217:263,1,178.499995178461,2|0,0:0|0:0,0:0:0:0:
231,245,126273,1,8,0:0:0:0:
305,152,126445,2,0,L|295:86,2,59.4999983928203,0|0|2,0:0|0:0|0:0,0:0:0:0:
379,211,126790,1,2,0:0:0:0:
477,28,126962,2,0,P|419:23|353:63,1,118.999996785641,8|0,0:0|0:0,0:0:0:0:
96,163,127307,6,0,L|86:241,1,59.4999983928203,2|0,0:0|0:0,0:0:0:0:
159,336,127480,2,0,L|148:265,1,59.4999983928203,2|0,0:0|0:0,0:0:0:0:
74,299,127652,1,8,0:0:0:0:
202,116,127825,1,0,0:0:0:0:
176,82,127911,1,0,0:0:0:0:
137,65,127997,1,2,0:0:0:0:
95,69,128083,1,0,0:0:0:0:
66,90,128169,1,2,0:0:0:0:
246,270,128342,2,0,P|297:300|376:286,1,118.999996785641,8|0,0:0|0:0,0:0:0:0:
175,203,128687,6,0,P|108:200|54:244,1,118.999996785641,2|0,0:0|0:0,0:0:0:0:
329,211,129031,1,8,0:0:0:0:
233,44,129204,1,0,0:0:0:0:
237,76,129290,1,0,0:0:0:0:
247,110,129376,2,0,P|280:129|322:128,2,59.4999983928203,2|0|2,0:0|0:0|0:0,0:0:0:0:
441,278,129721,2,0,P|382:291|316:273,1,118.999996785641,8|0,0:0|0:0,0:0:0:0:
464,34,130066,6,0,P|484:78|472:160,1,118.999996785641,2|0,0:0|0:0,0:0:0:0:
458,177,130325,1,0,0:0:0:0:
429,190,130411,2,0,L|337:180,1,59.4999983928203,8|0,0:0|0:0,0:0:0:0:
260,128,130583,2,0,L|350:113,1,59.4999983928203,2|0,0:0|0:0,0:0:0:0:
233,210,130756,2,0,L|141:200,1,59.4999983928203,2|0,0:0|0:0,0:0:0:0:
57,145,130928,2,0,L|147:130,1,59.4999983928203,2|0,0:0|0:0,0:0:0:0:
43,239,131100,5,10,0:0:0:0:
48,257,131187,1,2,0:0:0:0:
52,275,131273,1,2,0:0:0:0:
55,292,131359,1,2,0:0:0:0:
67,321,131445,6,0,P|160:345|260:310,1,191.250007966161,6|0,0:0|0:0,0:0:0:0:
268,292,131790,2,0,L|262:221,3,63.7500026553869,8|0|0|0,0:0|0:0|0:0|0:0,0:0:0:0:
320,173,132135,2,0,L|321:87,3,63.7500026553869,2|0|2|0,0:0|0:0|0:0|0:0,0:0:0:0:
368,238,132480,1,8,0:0:0:0:
228,163,132652,1,0,0:0:0:0:
228,163,132738,1,0,0:0:0:0:
228,163,132825,6,0,L|244:17,1,127.500005310774,2|0,0:0|0:0,0:0:0:0:
179,330,133169,2,0,L|159:193,1,127.500005310774,8|0,0:0|0:0,0:0:0:0:
148,174,133428,1,0,0:0:0:0:
125,151,133514,2,0,P|98:142|44:154,1,63.7500026553869,2|0,0:0|0:0,0:0:0:0:
42,169,133687,2,0,L|34:259,1,63.7500026553869,2|0,0:0|0:0,0:0:0:0:
48,261,133859,1,10,0:0:0:0:
72,281,133945,1,2,0:0:0:0:
103,286,134031,1,2,0:0:0:0:
132,274,134118,1,2,0:0:0:0:
161,262,134204,6,0,L|251:247,3,63.7500026553869,2|2|2|2,0:0|0:0|0:0|0:0,0:0:0:0:
289,282,134549,1,10,0:0:0:0:
307,256,134635,1,2,0:0:0:0:
313,224,134721,1,2,0:0:0:0:
306,192,134807,1,2,0:0:0:0:
288,165,134893,5,2,0:0:0:0:
268,139,134980,1,2,0:0:0:0:
259,108,135066,1,2,0:0:0:0:
265,76,135152,1,2,0:0:0:0:
286,52,135238,2,0,L|380:59,1,63.7500026553869,10|2,0:0|0:0,0:0:0:0:
202,30,135411,2,0,L|138:35,1,63.7500026553869,2|2,0:0|0:0,0:0:0:0:
297,64,135583,6,0,L|460:76,1,127.500005310774,6|0,0:0|0:0,0:0:0:0:
155,303,135928,2,0,P|134:243|150:179,1,127.500005310774,8|0,0:0|0:0,0:0:0:0:
169,158,136187,1,0,0:0:0:0:
197,143,136273,2,0,P|234:140|276:153,1,63.7500026553869,2|0,0:0|0:0,0:0:0:0:
386,200,136445,2,0,P|345:205|313:194,1,63.7500026553869,2|0,0:0|0:0,0:0:0:0:
431,32,136618,2,0,L|450:178,1,127.500005310774,8|0,0:0|0:0,0:0:0:0:
408,343,136962,5,2,0:0:0:0:
278,294,137135,2,0,L|342:305,1,63.7500026553869,2|0,0:0|0:0,0:0:0:0:
219,348,137307,2,0,P|199:277|241:217,1,127.500005310774,8|0,0:0|0:0,0:0:0:0:
245,210,137566,1,0,0:0:0:0:
268,188,137652,2,0,L|257:108,1,63.7500026553869,2|0,0:0|0:0,0:0:0:0:
186,103,137825,2,0,L|175:33,1,63.7500026553869,2|0,0:0|0:0,0:0:0:0:
353,46,137997,2,0,L|345:191,1,127.500005310774,8|0,0:0|0:0,0:0:0:0:
246,331,138342,6,0,P|311:311|382:343,1,127.500005310774,2|0,0:0|0:0,0:0:0:0:
171,365,138687,1,8,0:0:0:0:
111,177,138859,1,0,0:0:0:0:
117,208,138945,1,0,0:0:0:0:
122,239,139031,1,2,0:0:0:0:
126,270,139118,1,0,0:0:0:0:
133,301,139204,1,2,0:0:0:0:
152,113,139376,2,0,P|76:112|39:151,1,127.500005310774,8|0,0:0|0:0,0:0:0:0:
226,167,139721,5,2,0:0:0:0:
257,161,139807,1,0,0:0:0:0:
288,154,139893,1,0,0:0:0:0:
510,260,140066,2,0,L|376:236,1,127.500005310774,8|0,0:0|0:0,0:0:0:0:
353,230,140325,1,0,0:0:0:0:
321,226,140411,2,0,L|229:247,1,63.7500026553869,2|0,0:0|0:0,0:0:0:0:
191,279,140583,1,2,0:0:0:0:
131,39,140756,1,8,0:0:0:0:
259,108,140928,2,0,L|187:100,1,63.7500026553869,2|0,0:0|0:0,0:0:0:0:
317,63,141100,5,2,0:0:0:0:
381,301,141272,1,0,0:0:0:0:
381,301,141358,1,0,0:0:0:0:
381,301,141445,2,0,L|465:311,1,63.7500026553869,8|0,0:0|0:0,0:0:0:0:
303,265,141618,2,0,L|217:275,1,63.7500026553869,2|0,0:0|0:0,0:0:0:0:
163,364,141790,2,0,P|174:319|166:278,1,63.7500026553869,2|0,0:0|0:0,0:0:0:0:
137,169,141962,2,0,P|133:208|150:250,1,63.7500026553869,2|0,0:0|0:0,0:0:0:0:
201,92,142135,6,0,L|189:22,1,63.7500026553869,10|2,0:0|0:0,0:0:0:0:
285,172,142307,2,0,L|276:237,1,63.7500026553869,10|2,0:0|0:0,0:0:0:0:
452,92,142480,6,0,B|386:109|310:96|310:96|342:108|370:129,1,191.250007966161,6|0,0:0|0:0,0:0:0:0:
406,182,142825,1,8,0:0:0:0:
337,319,142997,1,0,0:0:0:0:
337,319,143083,1,0,0:0:0:0:
337,319,143169,2,0,L|350:233,1,63.7500026553869,2|0,0:0|0:0,0:0:0:0:
339,224,143342,1,2,0:0:0:0:
83,337,143514,2,0,P|151:347|206:313,1,127.500005310774,8|0,0:0|0:0,0:0:0:0:
221,295,143773,1,0,0:0:0:0:
238,268,143859,2,0,L|226:133,1,127.500005310774,2|0,0:0|0:0,0:0:0:0:
426,318,144204,6,0,L|438:185,1,127.500005310774,8|0,0:0|0:0,0:0:0:0:
454,164,144462,1,0,0:0:0:0:
467,134,144549,2,0,L|474:36,1,63.7500026553869,2|0,0:0|0:0,0:0:0:0:
456,42,144721,2,0,P|429:29|381:38,1,63.7500026553869,2|0,0:0|0:0,0:0:0:0:
327,64,144893,5,2,0:0:0:0:
299,80,144980,1,2,0:0:0:0:
267,83,145066,1,2,0:0:0:0:
236,75,145152,1,2,0:0:0:0:
210,55,145238,1,2,0:0:0:0:
181,40,145325,1,2,0:0:0:0:
149,36,145411,1,2,0:0:0:0:
119,48,145497,1,2,0:0:0:0:
103,75,145583,6,0,L|95:164,3,63.7500026553869,10|2|2|2,0:0|0:0|0:0|0:0,0:0:0:0:
141,203,145928,2,0,P|204:193|277:222,1,127.500005310774,2|2,0:0|0:0,0:0:0:0:
462,358,146273,1,8,0:0:0:0:
328,367,146445,1,0,0:0:0:0:
389,128,146618,5,6,0:0:0:0:
431,260,146790,1,0,0:0:0:0:
301,85,146962,2,0,L|171:77,1,127.500005310774,8|0,0:0|0:0,0:0:0:0:
141,81,147221,1,0,0:0:0:0:
110,90,147307,2,0,L|23:83,2,63.7500026553869,2|0|2,0:0|0:0|0:0,0:0:0:0:
349,183,147652,2,0,P|355:245|327:302,1,127.500005310774,8|0,0:0|0:0,0:0:0:0:
297,118,147997,5,2,0:0:0:0:
435,203,148169,1,0,0:0:0:0:
219,270,148342,2,0,P|140:279|81:262,1,127.500005310774,8|0,0:0|0:0,0:0:0:0:
72,244,148600,1,0,0:0:0:0:
60,213,148687,2,0,L|53:139,1,63.7500026553869,2|0,0:0|0:0,0:0:0:0:
103,86,148859,2,0,L|109:10,1,63.7500026553869,2|0,0:0|0:0,0:0:0:0:
258,156,149031,2,0,P|192:176|127:152,1,127.500005310774,8|0,0:0|0:0,0:0:0:0:
455,216,149376,6,0,P|389:196|324:220,1,127.500005310774,2|0,0:0|0:0,0:0:0:0:
117,329,149721,1,8,0:0:0:0:
161,158,149893,1,0,0:0:0:0:
169,189,149980,1,0,0:0:0:0:
178,219,150066,1,2,0:0:0:0:
55,112,150238,1,2,0:0:0:0:
287,39,150411,2,0,L|272:180,1,127.500005310774,8|0,0:0|0:0,0:0:0:0:
439,355,150756,5,10,0:0:0:0:
423,327,150843,1,2,0:0:0:0:
420,295,150929,1,2,0:0:0:0:
428,264,151015,1,2,0:0:0:0:
448,238,151101,1,10,0:0:0:0:
463,209,151188,1,2,0:0:0:0:
467,177,151274,5,2,0:0:0:0:
455,147,151360,1,2,0:0:0:0:
428,131,151445,1,10,0:0:0:0:
397,139,151531,1,2,0:0:0:0:
370,157,151618,1,2,0:0:0:0:
338,162,151704,1,2,0:0:0:0:
307,153,151790,1,10,0:0:0:0:
280,134,151876,1,2,0:0:0:0:
249,124,151962,1,2,0:0:0:0:
216,125,152049,1,2,0:0:0:0:
174,140,152135,5,10,0:0:0:0:
56,258,152307,1,2,0:0:0:0:
56,258,152393,1,2,0:0:0:0:
56,258,152480,2,0,L|66:172,1,63.7500026553869,10|2,0:0|0:0,0:0:0:0:
157,342,152652,1,2,0:0:0:0:
157,342,152738,1,2,0:0:0:0:
157,342,152825,2,0,L|147:256,1,63.7500026553869,10|2,0:0|0:0,0:0:0:0:
240,255,152997,5,2,0:0:0:0:
240,255,153083,1,2,0:0:0:0:
240,255,153170,2,0,L|250:169,1,63.7500026553869,10|2,0:0|0:0,0:0:0:0:
341,339,153342,1,10,0:0:0:0:
334,295,153428,1,2,0:0:0:0:
329,250,153514,5,4,1:0:0:0:
316,136,168400,5,2,0:0:0:0:
109,257,168745,2,0,L|234:263,2,114.749996900439,8|0|8,0:0|0:0|0:0,0:0:0:0:
268,334,169521,1,2,2:0:0:0:
242,113,169779,1,8,0:0:0:0:
69,189,170038,1,2,2:0:0:0:
69,189,170124,6,0,L|169:192,1,76.499997933626,8|0,0:0|0:0,0:0:0:0:
212,231,170383,2,0,P|215:277|200:312,1,76.499997933626,2|0,2:0|0:0,0:0:0:0:
140,346,170641,2,0,L|47:340,1,76.499997933626,8|0,0:0|0:0,0:0:0:0:
53,263,170900,2,0,L|138:268,1,76.499997933626,2|0,2:0|2:0,2:0:0:0:
206,299,171158,1,8,0:0:0:0:
290,136,171417,1,0,0:0:0:0:
290,136,171503,6,0,L|298:228,1,76.499997933626,8|0,0:0|0:0,0:0:0:0:
368,260,171762,2,0,P|410:262|459:242,1,76.499997933626,2|0,2:0|0:0,0:0:0:0:
279,306,172021,2,0,P|237:308|188:288,1,76.499997933626,8|0,0:0|0:0,0:0:0:0:
359,353,172279,1,2,2:0:0:0:
409,172,172538,1,8,0:0:0:0:
161,61,172796,1,2,2:0:0:0:
161,61,172883,6,0,P|148:108|168:150,1,76.499997933626,8|0,0:0|0:0,0:0:0:0:
187,271,173141,2,0,P|200:224|180:182,1,76.499997933626,2|0,2:0|0:0,0:0:0:0:
44,193,173400,2,0,P|91:206|133:186,1,76.499997933626,8|0,0:0|0:0,0:0:0:0:
304,134,173658,2,0,P|257:121|215:141,1,76.499997933626,2|0,2:0|0:0,0:0:0:0:
383,280,173917,2,8,L|369:156,1,114.749996900439,8|0,0:0|0:0,0:0:0:0:
368,92,174262,6,0,L|424:77,3,38.249998966813,2|0|2|0,2:0|0:0|2:0|0:0,0:0:0:0:
304,134,174607,2,0,L|294:97,3,38.249998966813,8|0|0|0,0:0|0:0|0:0|0:0,0:0:0:0:
295,214,174952,2,0,L|331:204,3,38.249998966813,2|0|2|0,2:0|0:0|2:0|0:0,0:0:0:0:
230,255,175296,2,0,L|220:218,3,38.249998966813,8|0|0|0,0:0|0:0|0:0|0:0,0:0:0:0:
68,354,175641,5,2,2:0:0:0:
90,333,175727,1,2,2:0:0:0:
98,303,175814,1,2,2:0:0:0:
98,273,175900,1,2,2:0:0:0:
87,243,175986,2,0,L|80:206,3,38.249998966813,8|0|0|0,0:0|0:0|0:0|0:0,0:0:0:0:
181,150,176331,2,0,L|190:97,3,38.249998966813,2|2|2|2,2:0|2:0|2:0|2:0,0:0:0:0:
107,59,176676,2,0,L|100:22,3,38.249998966813,8|0|0|0,0:0|0:0|2:0|0:0,0:0:0:0:
214,226,177021,6,0,L|270:221,1,38.249998966813,10|2,0:0|0:0,0:0:0:0:
342,146,177193,2,0,L|305:189,1,38.249998966813,2|2,0:0|0:0,0:0:0:0:
339,292,177365,2,0,L|311:240,1,38.249998966813,10|2,0:0|0:0,0:0:0:0:
228,109,177538,2,0,L|259:157,1,38.249998966813,2|2,0:0|0:0,0:0:0:0:
426,212,177710,2,0,L|381:214,1,38.249998966813,10|2,0:0|0:0,0:0:0:0:
231,331,177883,2,0,L|255:289,1,38.249998966813,2|2,0:0|0:0,0:0:0:0:
86,269,178055,2,0,L|104:322,1,38.249998966813,10|2,0:0|0:0,0:0:0:0:
178,214,178227,2,0,L|187:166,1,38.249998966813,2|2,0:0|0:0,0:0:0:0:
76,45,178400,6,0,L|124:53,1,38.249998966813,10|2,0:0|0:0,0:0:0:0:
223,94,178572,2,0,L|185:98,1,38.249998966813,2|2,0:0|0:0,0:0:0:0:
298,50,178745,2,0,L|349:55,1,38.249998966813,10|2,0:0|0:0,0:0:0:0:
443,95,178917,2,0,L|379:104,1,38.249998966813,2|2,0:0|0:0,0:0:0:0:
285,154,179090,5,10,0:0:0:0:
410,277,179262,1,10,2:0:0:0:
416,255,179348,1,10,2:0:0:0:
421,233,179434,1,10,0:0:0:0:
268,354,179607,1,10,2:0:0:0:
198,127,179779,5,6,0:0:0:0:
83,219,179952,2,0,P|79:250|89:284,1,46.7500015906095,2|0,0:0|0:0,0:0:0:0:
265,264,180124,2,0,P|225:225|171:231,1,93.500003181219,8|0,0:0|0:0,0:0:0:0:
168,233,180383,1,0,0:0:0:0:
153,245,180469,1,2,0:0:0:0:
318,333,180641,1,2,0:0:0:0:
365,189,180814,2,0,L|358:79,1,93.500003181219,8|0,0:0|0:0,0:0:0:0:
147,263,181158,6,0,P|208:219|308:247,1,178.499995178461,4|0,2:0|0:0,0:0:0:0:
366,356,181503,2,0,P|372:312|359:279,1,59.4999983928203,8|0,0:0|0:0,0:0:0:0:
406,165,181676,2,0,P|399:207|411:241,1,59.4999983928203,2|0,0:0|0:0,0:0:0:0:
344,99,181848,2,0,P|351:69|343:32,1,59.4999983928203,2|0,0:0|0:0,0:0:0:0:
260,168,182021,1,2,0:0:0:0:
67,20,182193,1,8,0:0:0:0:
231,29,182365,2,0,L|152:40,1,59.4999983928203,8|0,0:0|0:0,0:0:0:0:
110,108,182538,5,2,0:0:0:0:
262,169,182710,1,2,0:0:0:0:
112,306,182883,2,0,L|122:189,1,93.500003181219,8|0,0:0|0:0,0:0:0:0:
122,194,183141,1,0,0:0:0:0:
124,179,183227,1,2,0:0:0:0:
204,342,183400,1,2,0:0:0:0:
452,138,183572,2,0,P|393:124|339:154,1,93.500003181219,8|0,0:0|0:0,0:0:0:0:
312,365,183917,6,0,B|295:305|295:305|335:254|335:254|314:183,1,178.499995178461,6|0,0:0|0:0,0:0:0:0:
260,111,184262,2,0,P|260:151|277:183,1,46.7500015906095,8|0,0:0|0:0,0:0:0:0:
207,43,184434,2,0,P|233:27|274:29,1,46.7500015906095,2|0,0:0|0:0,0:0:0:0:
131,77,184607,2,0,L|73:63,1,46.7500015906095,2|0,0:0|0:0,0:0:0:0:
183,138,184779,1,2,0:0:0:0:
136,286,184952,2,0,P|193:291|242:245,1,93.500003181219,8|0,0:0|0:0,0:0:0:0:
350,38,185296,5,2,0:0:0:0:
235,91,185469,2,0,L|299:75,1,46.7500015906095,2|0,0:0|0:0,0:0:0:0:
343,239,185641,2,0,P|334:183|345:131,1,93.500003181219,8|0,0:0|0:0,0:0:0:0:
348,129,185900,1,0,0:0:0:0:
355,115,185986,1,2,0:0:0:0:
430,300,186158,2,0,L|369:312,1,46.7500015906095,2|0,0:0|0:0,0:0:0:0:
213,340,186331,2,0,P|290:347|328:332,1,93.500003181219,8|0,0:0|0:0,0:0:0:0:
160,22,186676,6,0,B|158:54|173:83|173:83|156:147|156:147|173:174|174:215,1,178.499995178461,6|0,0:0|0:0,0:0:0:0:
297,246,187021,2,0,L|213:232,1,59.4999983928203,8|0,0:0|0:0,0:0:0:0:
382,268,187193,2,0,L|466:254,1,59.4999983928203,2|0,0:0|0:0,0:0:0:0:
275,323,187365,2,0,L|191:309,1,59.4999983928203,2|0,0:0|0:0,0:0:0:0:
359,353,187538,1,2,0:0:0:0:
123,235,187710,1,8,0:0:0:0:
261,164,187883,2,0,P|224:173|197:169,1,59.4999983928203,2|0,0:0|0:0,0:0:0:0:
125,127,188055,5,2,0:0:0:0:
251,241,188227,1,2,0:0:0:0:
340,31,188400,1,8,0:0:0:0:
229,84,188572,1,2,0:0:0:0:
229,84,188658,1,0,0:0:0:0:
229,84,188745,1,2,0:0:0:0:
394,137,188917,2,0,L|339:143,1,46.7500015906095,2|0,0:0|0:0,0:0:0:0:
329,322,189090,2,0,P|336:270|308:204,1,93.500003181219,8|0,0:0|0:0,0:0:0:0:
304,199,189348,1,0,0:0:0:0:
266,181,189434,6,0,B|205:196|133:171|133:171|154:186|171:210,1,178.499995178461,6|0,0:0|0:0,0:0:0:0:
220,320,189779,2,0,L|208:244,1,59.4999983928203,8|0,0:0|0:0,0:0:0:0:
94,237,189952,2,0,L|107:305,1,59.4999983928203,2|0,0:0|0:0,0:0:0:0:
161,361,190124,1,2,0:0:0:0:
198,108,190296,1,2,0:0:0:0:
375,213,190469,2,0,P|270:204|193:240,1,178.499995178461,8|0,0:0|0:0,0:0:0:0:
178,256,190814,5,2,0:0:0:0:
83,81,190986,2,0,L|145:70,1,46.7500015906095,2|0,0:0|0:0,0:0:0:0:
327,122,191158,2,0,P|275:135|214:126,1,93.500003181219,8|0,0:0|0:0,0:0:0:0:
213,124,191417,1,0,0:0:0:0:
195,116,191503,1,2,0:0:0:0:
393,80,191676,2,0,L|398:22,1,46.7500015906095,2|0,0:0|0:0,0:0:0:0:
443,223,191848,2,0,P|460:178|450:118,1,93.500003181219,8|0,0:0|0:0,0:0:0:0:
260,250,192193,6,0,P|325:263|336:166,1,178.499995178461,6|0,0:0|0:0,0:0:0:0:
269,135,192538,2,0,B|225:136|225:136|185:156|185:156|133:152,2,118.999996785641,8|0|0,0:0|0:0|0:0,0:0:0:0:
90,81,193055,1,2,0:0:0:0:
175,326,193227,1,8,0:0:0:0:
256,235,193400,1,2,0:0:0:0:
256,235,193486,1,2,0:0:0:0:
256,235,193572,5,2,0:0:0:0:
104,208,193745,2,0,L|165:221,1,46.7500015906095,2|2,0:0|0:0,0:0:0:0:
286,141,193917,2,8,P|235:157|167:142,1,93.500003181219,8|0,0:0|0:0,0:0:0:0:
159,140,194176,1,0,0:0:0:0:
129,123,194262,2,0,P|114:88|114:58,1,46.7500015906095,2|0,0:0|0:0,0:0:0:0:
116,43,194434,1,2,0:0:0:0:
104,208,194607,2,0,P|63:181|40:139,1,93.500003181219,8|0,0:0|0:0,0:0:0:0:
383,43,194952,6,0,B|393:64|379:98|379:98|407:149|381:218,1,178.499995178461,6|0,0:0|0:0,0:0:0:0:
252,50,195296,2,0,L|325:64,1,59.4999983928203,8|0,0:0|0:0,0:0:0:0:
197,139,195469,2,0,L|273:128,1,59.4999983928203,2|0,0:0|0:0,0:0:0:0:
128,211,195641,2,0,L|204:223,1,59.4999983928203,2|0,0:0|0:0,0:0:0:0:
287,207,195814,1,2,0:0:0:0:
56,61,195986,2,0,B|35:105|38:132|38:132|57:157|61:193,1,118.999996785641,8|0,0:0|0:0,0:0:0:0:
147,318,196331,6,0,P|217:289|300:319,1,140.250004771828,2|0,0:0|0:0,0:0:0:0:
394,358,196676,2,0,P|357:306|368:245,1,93.500003181219,8|0,0:0|0:0,0:0:0:0:
359,254,196934,1,0,0:0:0:0:
364,234,197021,1,2,0:0:0:0:
467,171,197193,2,0,L|401:179,1,46.7500015906095,2|0,0:0|0:0,0:0:0:0:
188,193,197365,2,0,P|244:211|296:205,1,93.500003181219,8|0,0:0|0:0,0:0:0:0:
150,106,197710,6,0,P|90:172|116:260,1,178.499995178461,6|0,0:0|0:0,0:0:0:0:
236,336,198055,1,8,0:0:0:0:
344,327,198227,1,2,0:0:0:0:
336,219,198400,1,2,0:0:0:0:
228,227,198572,1,2,0:0:0:0:
299,26,198745,2,0,B|284:64|284:64|292:118|292:118|280:154,1,118.999996785641,8|0,0:0|0:0,0:0:0:0:
356,359,199090,6,0,B|339:317|339:317|348:257|348:257|335:218,1,140.250004771828,2|0,0:0|0:0,0:0:0:0:
355,191,199434,2,0,P|405:168|455:176,1,93.500003181219,8|0,0:0|0:0,0:0:0:0:
462,183,199693,1,0,0:0:0:0:
476,196,199779,1,2,0:0:0:0:
435,346,199952,2,0,L|422:250,2,93.500003181219,2|8|0,0:0|0:0|0:0,0:0:0:0:
411,85,200469,5,10,0:0:0:0:
390,69,200555,1,2,0:0:0:0:
366,59,200641,1,2,0:0:0:0:
339,56,200727,1,2,0:0:0:0:
313,63,200814,1,10,0:0:0:0:
288,72,200900,1,2,0:0:0:0:
262,77,200986,1,2,0:0:0:0:
237,69,201072,1,2,0:0:0:0:
208,49,201158,6,0,L|199:0,1,46.7500015906095,10|2,0:0|0:0,0:0:0:0:
165,115,201331,1,2,0:0:0:0:
165,115,201417,1,2,0:0:0:0:
165,115,201503,2,0,L|158:178,1,46.7500015906095,10|2,0:0|0:0,0:0:0:0:
219,268,201676,2,0,L|212:205,1,46.7500015906095,10|2,0:0|0:0,0:0:0:0:
336,168,201848,5,4,1:0:0:0:
201,240,212060,5,2,2:0:0:0:
297,301,212232,1,0,2:0:0:0:
353,201,212404,1,8,2:0:0:0:
252,144,212577,1,0,2:0:0:0:
376,286,212749,1,0,2:0:0:0:
410,148,212922,1,2,2:0:0:0:
269,221,213094,1,8,2:0:0:0:
454,233,213266,1,0,2:0:0:0:
377,68,213439,6,0,P|316:87|261:67,1,114.749996900439,2|0,2:0|2:0,2:0:0:0:
236,49,213784,2,0,L|151:40,1,76.499997933626,8|0,2:0|2:0,2:0:0:0:
34,160,214128,2,0,L|118:149,1,76.499997933626,0|2,2:0|2:0,2:0:0:0:
302,192,214473,1,8,2:0:0:0:
208,258,214646,1,0,2:0:0:0:
202,143,214818,5,2,2:0:0:0:
202,143,214991,1,0,2:0:0:0:
291,71,215163,1,8,2:0:0:0:
291,71,215335,1,0,2:0:0:0:
388,132,215508,1,0,2:0:0:0:
388,132,215680,1,2,2:0:0:0:
480,63,215853,1,8,2:0:0:0:
480,63,216025,1,0,2:0:0:0:
311,175,216197,6,0,P|304:240|334:284,1,114.749996900439,2|0,2:0|2:0,2:0:0:0:
357,306,216542,2,0,L|266:314,1,76.499997933626,8|0,2:0|2:0,2:0:0:0:
94,348,216887,2,0,P|111:279|98:240,1,114.749996900439,0|0,2:0|2:0,2:0:0:0:
68,214,217232,2,0,L|154:215,1,76.499997933626,8|0,2:0|2:0,2:0:0:0:
255,184,217577,5,2,2:0:0:0:
321,110,217749,1,0,2:0:0:0:
221,103,217922,1,8,2:0:0:0:
154,176,218094,1,0,2:0:0:0:
205,261,218266,1,0,2:0:0:0:
303,273,218439,1,2,2:0:0:0:
357,190,218611,1,8,2:0:0:0:
255,184,218784,1,0,2:0:0:0:
420,272,218956,6,0,P|458:226|448:162,1,114.749996900439,2|0,2:0|2:0,2:0:0:0:
435,139,219301,2,0,L|439:58,2,76.499997933626,8|0|0,2:0|2:0|2:0,2:0:0:0:
369,27,219818,1,2,2:0:0:0:
246,93,219991,2,0,P|284:100|331:86,1,76.499997933626,8|0,2:0|2:0,2:0:0:0:
186,39,220335,5,2,2:0:0:0:
104,95,220508,1,0,2:0:0:0:
187,148,220680,1,8,2:0:0:0:
174,41,220853,1,0,2:0:0:0:
97,200,221025,2,0,L|101:279,1,76.499997933626,0|2,2:0|2:0,2:0:0:0:
45,359,221370,1,8,2:0:0:0:
7,267,221542,1,0,2:0:0:0:
159,337,221715,6,0,P|255:332|279:314,1,114.749996900439,2|0,2:0|2:0,2:0:0:0:
293,294,222060,2,0,L|281:200,1,76.499997933626,8|0,2:0|2:0,2:0:0:0:
451,101,222404,2,0,P|374:86|338:98,1,114.749996900439,0|0,2:0|2:0,2:0:0:0:
307,116,222749,2,0,L|215:103,1,76.499997933626,8|0,2:0|2:0,2:0:0:0:
155,39,223094,5,2,2:0:0:0:
89,113,223266,1,0,2:0:0:0:
145,242,223439,2,0,L|155:147,1,76.499997933626,8|0,2:0|2:0,2:0:0:0:
71,264,223784,1,0,2:0:0:0:
209,335,223956,2,0,L|125:322,1,76.499997933626,2|8,2:0|2:0,2:0:0:0:
278,376,224301,1,0,2:0:0:0:
270,214,224473,6,0,L|275:301,1,76.499997933626,2|0,2:0|2:0,2:0:0:0:
337,163,224818,1,8,2:0:0:0:
180,126,224991,2,0,L|271:138,1,76.499997933626,0|0,2:0|2:0,2:0:0:0:
129,59,225335,1,2,2:0:0:0:
113,173,225508,2,0,L|29:185,1,76.499997933626,8|0,2:0|2:0,2:0:0:0:
180,230,225853,5,2,2:0:0:0:
120,343,226025,2,0,P|105:308|117:259,1,76.499997933626,0|8,2:0|2:0,2:0:0:0:
190,363,226370,1,0,2:0:0:0:
259,248,226542,2,0,P|273:282|268:320,1,76.499997933626,0|2,2:0|2:0,2:0:0:0:
304,182,226887,2,0,L|396:188,1,76.499997933626,8|0,2:0|2:0,2:0:0:0:
150,163,227232,6,0,L|243:145,1,76.499997933626,2|0,2:0|2:0,2:0:0:0:
39,221,227577,2,0,L|135:237,1,76.499997933626,8|0,2:0|2:0,2:0:0:0:
105,73,227922,6,0,P|64:43|85:137,1,229.499993800878,0|0,2:0|2:0,2:0:0:0:
274,110,228611,6,0,P|279:68|266:33,1,76.499997933626,6|0,2:0|2:0,2:0:0:0:
349,185,228956,2,0,P|380:155|394:114,1,76.499997933626,8|0,2:0|2:0,2:0:0:0:
340,288,229301,1,0,2:0:0:0:
214,209,229473,1,2,2:0:0:0:
244,369,229646,1,8,2:0:0:0:
250,278,229818,1,0,2:0:0:0:
36,305,229991,2,0,L|165:321,1,114.749996900439,2|0,2:0|2:0,2:0:0:0:
149,319,230335,6,0,P|156:275|148:238,1,76.499997933626,8|0,2:0|2:0,2:0:0:0:
92,99,230680,1,0,2:0:0:0:
92,99,230853,1,2,2:0:0:0:
293,57,231025,2,0,L|209:43,1,76.499997933626,8|0,2:0|2:0,2:0:0:0:
356,172,231370,6,0,P|411:180|474:156,1,114.749996900439,2|0,2:0|2:0,2:0:0:0:
484,136,231715,2,0,L|488:227,1,76.499997933626,8|0,2:0|2:0,2:0:0:0:
360,339,232060,2,0,L|370:251,1,76.499997933626,0|2,2:0|2:0,2:0:0:0:
388,21,232404,2,0,L|396:106,1,76.499997933626,8|0,2:0|2:0,2:0:0:0:
142,134,232749,6,0,B|204:80|212:139|275:61|275:61|273:117|325:146,2,229.499993800878,2|0|0,2:0|2:0|2:0,2:0:0:0:
56,215,233956,1,0,2:0:0:0:
161,329,234128,2,0,P|172:285|157:248,1,76.499997933626,2|0,2:0|2:0,2:0:0:0:
239,248,234473,2,0,P|236:202|214:174,1,76.499997933626,8|0,2:0|2:0,2:0:0:0:
295,149,234818,2,0,P|287:107|263:77,1,76.499997933626,0|2,2:0|2:0,2:0:0:0:
74,125,235163,2,0,P|101:157|137:171,1,76.499997933626,8|0,2:0|2:0,2:0:0:0:
346,216,235508,6,0,L|473:197,1,114.749996900439,2|0,2:0|2:0,2:0:0:0:
459,199,235853,2,0,P|462:247|449:293,1,76.499997933626,8|0,2:0|2:0,2:0:0:0:
396,356,236197,1,0,2:0:0:0:
327,283,236370,1,2,2:0:0:0:
149,332,236542,2,0,L|244:326,1,76.499997933626,8|0,2:0|2:0,2:0:0:0:
82,219,236887,6,0,P|73:266|87:301,1,76.499997933626,2|0,2:0|2:0,2:0:0:0:
155,163,237232,2,0,P|164:126|154:89,1,76.499997933626,8|0,2:0|2:0,2:0:0:0:
82,219,237577,1,0,2:0:0:0:
164,261,237749,1,2,2:0:0:0:
310,202,237922,2,0,P|255:194|223:205,1,76.499997933626,8|0,2:0|2:0,2:0:0:0:
377,346,238266,6,0,L|364:264,2,76.499997933626,2|0|8,2:0|2:0|2:0,2:0:0:0:
433,218,238784,1,0,2:0:0:0:
379,150,238956,2,0,L|389:64,1,76.499997933626,0|2,2:0|2:0,2:0:0:0:
311,216,239301,2,0,P|259:230|220:215,1,76.499997933626,8|0,2:0|2:0,2:0:0:0:
155,143,239646,6,0,P|147:93|246:170,1,305.999991734504,2|0,2:0|2:0,2:0:0:0:
167,268,240508,1,2,2:0:0:0:
353,324,240680,2,0,L|269:317,1,76.499997933626,8|0,2:0|2:0,2:0:0:0:
417,110,241025,2,0,P|445:170|425:232,1,114.749996900439,2|0,2:0|2:0,2:0:0:0:
412,236,241370,2,0,L|330:246,1,76.499997933626,8|0,2:0|2:0,2:0:0:0:
174,219,241715,1,0,2:0:0:0:
246,155,241887,1,2,2:0:0:0:
119,336,242060,2,0,L|110:241,1,76.499997933626,8|0,2:0|2:0,2:0:0:0:
51,80,242404,6,0,P|53:154|31:205,1,114.749996900439,2|0,2:0|2:0,2:0:0:0:
32,221,242749,2,0,L|45:320,1,76.499997933626,8|0,2:0|2:0,2:0:0:0:
199,173,243094,1,0,2:0:0:0:
130,77,243266,1,2,2:0:0:0:
192,251,243439,2,0,P|245:238|283:169,1,114.749996900439,8|0,2:0|2:0,2:0:0:0:
297,153,243784,5,2,2:0:0:0:
224,57,243956,1,0,2:0:0:0:
109,219,244128,1,8,2:0:0:0:
189,163,244301,1,0,2:0:0:0:
94,68,244473,1,0,2:0:0:0:
36,194,244646,1,2,2:0:0:0:
225,263,244818,1,8,2:0:0:0:
104,143,244991,1,0,2:0:0:0:
138,314,245163,5,2,2:0:0:0:
114,145,245335,1,0,2:0:0:0:
222,348,245508,2,0,L|305:341,1,76.499997933626,8|0,2:0|2:0,2:0:0:0:
147,234,245853,1,0,2:0:0:0:
300,259,246025,2,0,L|391:269,1,76.499997933626,2|8,2:0|2:0,2:0:0:0:
219,155,246370,1,0,2:0:0:0:
372,130,246542,6,0,L|463:120,1,76.499997933626,2|0,2:0|2:0,2:0:0:0:
300,60,246887,1,8,2:0:0:0:
147,35,247059,2,0,L|56:25,1,76.499997933626,0|0,2:0|2:0,2:0:0:0:
171,123,247404,1,2,2:0:0:0:
113,242,247577,2,0,P|98:174|115:153,1,76.499997933626,8|0,2:0|2:0,2:0:0:0:
194,287,247922,6,0,L|291:277,2,76.499997933626,2|0|8,2:0|2:0|2:0,2:0:0:0:
335,333,248439,1,0,2:0:0:0:
352,153,248611,2,0,L|339:242,1,76.499997933626,0|2,2:0|2:0,2:0:0:0:
408,42,248956,2,0,L|430:137,1,76.499997933626,8|0,2:0|2:0,2:0:0:0:
256,192,249301,12,4,250680,1:0:0:0:
338,171,265383,6,0,L|333:112,3,31.8750013276934,2|0|0|0,0:0|0:0|0:0|0:0,0:0:0:0:
276,81,265845,2,0,L|188:86,1,63.7500026553869,2|0,0:0|0:0,0:0:0:0:
147,138,266306,6,0,L|140:197,3,36.1250008156895,2|0|0|0,0:0|0:0|0:0|0:0,0:0:0:0:
85,232,266768,2,0,L|97:325,1,72.250001631379,2|0,0:0|0:0,0:0:0:0:
171,342,267229,6,0,L|179:277,3,40.3749990634321,2|0|0|0,0:0|0:0|0:0|0:0,0:0:0:0:
316,249,267691,2,0,P|268:247|225:258,1,80.7499981268643,2|0,0:0|0:0,0:0:0:0:
372,323,268152,1,2,0:0:0:0:
416,161,268383,1,2,0:0:0:0:
306,53,268614,1,8,0:0:0:0:
306,53,268729,2,0,L|206:59,1,80.7499981268643,8|0,0:0|0:0,0:0:0:0:
157,95,269075,6,0,P|116:160|166:253,1,152.999995867252,6|0,0:0|0:0,0:0:0:0:
193,279,269537,2,0,P|284:260|334:301,1,152.999995867252,8|0,0:0|0:0,0:0:0:0:
363,359,269998,1,2,0:0:0:0:
265,340,270229,1,0,0:0:0:0:
387,145,270460,2,0,L|404:242,2,67.9999981632232,8|0|0,0:0|0:0|0:0,0:0:0:0:
163,159,270921,6,0,P|254:174|304:139,1,152.999995867252,2|0,0:0|0:0,0:0:0:0:
285,67,271383,2,0,P|194:52|144:87,1,152.999995867252,8|0,0:0|0:0,0:0:0:0:
90,135,271845,1,2,0:0:0:0:
196,252,272075,1,0,0:0:0:0:
73,334,272306,1,8,0:0:0:0:
73,334,272421,2,0,L|101:226,1,101.999997244835,8|0,0:0|0:0,0:0:0:0:
150,178,272768,6,0,P|216:166|294:225,1,152.999995867252,6|0,0:0|0:0,0:0:0:0:
310,281,273229,2,0,L|326:123,1,152.999995867252,8|0,0:0|0:0,0:0:0:0:
290,60,273691,1,2,0:0:0:0:
197,149,273921,1,0,0:0:0:0:
421,46,274152,2,0,L|436:152,1,101.999997244835,8|0,0:0|0:0,0:0:0:0:
490,290,274614,6,0,P|396:277|340:317,1,152.999995867252,2|0,0:0|0:0,0:0:0:0:
290,353,275075,2,0,L|122:328,1,152.999995867252,8|0,0:0|0:0,0:0:0:0:
78,282,275537,1,2,0:0:0:0:
173,160,275768,1,0,0:0:0:0:
314,219,275998,1,8,0:0:0:0:
314,219,276114,2,0,L|208:227,1,101.999997244835,8|0,0:0|0:0,0:0:0:0:
253,147,276460,6,0,L|414:133,1,152.999995867252,6|0,0:0|0:0,0:0:0:0:
475,164,276921,2,0,B|497:216|497:216|474:333,1,152.999995867252,8|0,0:0|0:0,0:0:0:0:
421,362,277383,1,2,0:0:0:0:
222,286,277614,1,0,0:0:0:0:
384,239,277845,2,0,L|372:143,2,67.9999981632232,8|0|0,0:0|0:0|0:0,0:0:0:0:
427,122,278306,6,0,P|351:102|305:181,1,152.999995867252,2|0,0:0|0:0,0:0:0:0:
274,216,278768,2,0,P|198:236|152:157,1,152.999995867252,8|0,0:0|0:0,0:0:0:0:
139,116,279229,2,0,P|82:99|27:122,1,101.999997244835,2|0,0:0|0:0,0:0:0:0:
94,281,279691,1,8,0:0:0:0:
94,281,279806,2,0,L|86:176,1,101.999997244835,8|0,0:0|0:0,0:0:0:0:
40,341,280152,6,0,P|116:354|169:284,1,152.999995867252,6|0,0:0|0:0,0:0:0:0:
188,236,280614,1,8,0:0:0:0:
366,270,280845,2,0,L|288:275,1,50.9999986224174
263,321,281075,2,0,P|275:263|256:208,1,101.999997244835,2|0,0:0|0:0,0:0:0:0:
215,52,281537,2,0,P|204:101|216:150,1,101.999997244835,8|0,0:0|0:0,0:0:0:0:
394,86,281998,5,2,0:0:0:0:
398,99,282114,2,0,L|330:107,1,50.9999986224174,8|0,0:0|0:0,0:0:0:0:
424,215,282345,1,2,0:0:0:0:
437,219,282461,2,0,L|442:168,1,50.9999986224174,8|0,0:0|0:0,0:0:0:0:
312,185,282691,1,2,0:0:0:0:
296,191,282806,2,0,L|301:241,1,50.9999986224174,8|0,0:0|0:0,0:0:0:0:
348,313,283037,1,2,0:0:0:0:
261,338,283152,2,0,L|205:341,2,33.9999990816116,8|8|8,0:0|0:0|0:0,0:0:0:0:
212,270,283383,6,0,L|134:278,2,67.9999981632232,8|8|8,0:0|0:0|0:0,0:0:0:0:
105,351,283845,6,0,P|70:305|108:203,1,152.999995867252,6|0,0:0|0:0,0:0:0:0:
144,172,284306,2,0,L|320:149,1,152.999995867252,8|0,0:0|0:0,0:0:0:0:
359,119,284768,1,2,0:0:0:0:
421,246,284998,1,0,0:0:0:0:
229,334,285229,2,0,P|221:297|227:258,2,67.9999981632232,8|0|0,0:0|0:0|0:0,0:0:0:0:
287,191,285691,6,0,L|124:201,1,152.999995867252,2|0,0:0|0:0,0:0:0:0:
112,132,286152,2,0,L|278:122,1,152.999995867252,8|0,0:0|0:0,0:0:0:0:
329,92,286614,1,2,0:0:0:0:
426,196,286845,1,0,0:0:0:0:
274,348,287075,1,8,0:0:0:0:
274,348,287191,2,0,B|261:304|261:304|281:228,1,101.999997244835,8|0,0:0|0:0,0:0:0:0:
329,203,287537,6,0,P|281:227|188:197,1,152.999995867252,6|0,0:0|0:0,0:0:0:0:
141,147,287998,1,8,0:0:0:0:
192,39,288229,2,0,L|194:117,1,50.9999986224174
141,147,288460,2,0,P|98:161|26:147,1,101.999997244835,2|0,0:0|0:0,0:0:0:0:
266,62,288921,1,8,0:0:0:0:
339,185,289152,1,0,0:0:0:0:
279,321,289383,6,0,P|263:259|300:220,1,101.999997244835,2|0,0:0|0:0,0:0:0:0:
339,185,289729,1,2,0:0:0:0:
339,185,289845,2,0,P|360:140|341:94,1,101.999997244835,8|0,0:0|0:0,0:0:0:0:
274,55,290191,1,2,0:0:0:0:
274,55,290306,2,0,L|171:59,1,101.999997244835,8|0,0:0|0:0,0:0:0:0:
95,260,290768,2,0,L|85:173,2,67.9999981632232,8|8|8,0:0|0:0|0:0,0:0:0:0:
254,297,291229,6,0,P|244:215|167:225,1,152.999995867252,6|0,0:0|0:0,0:0:0:0:
166,278,291691,2,0,L|159:113,1,152.999995867252,8|0,0:0|0:0,0:0:0:0:
116,68,292152,1,2,0:0:0:0:
290,16,292383,1,0,0:0:0:0:
240,238,292614,2,0,P|271:244|326:232,2,67.9999981632232,8|0|0,0:0|0:0|0:0,0:0:0:0:
384,160,293075,6,0,L|370:345,1,152.999995867252,2|0,0:0|0:0,0:0:0:0:
471,305,293537,2,0,L|457:138,1,152.999995867252,8|0,0:0|0:0,0:0:0:0:
429,87,293998,2,0,P|378:71|317:87,1,101.999997244835,2|0,0:0|0:0,0:0:0:0:
146,164,294460,1,8,0:0:0:0:
146,164,294575,2,0,P|97:173|36:148,1,101.999997244835,8|0,0:0|0:0,0:0:0:0:
30,87,294921,6,0,P|106:67|175:98,1,152.999995867252,6|0,0:0|0:0,0:0:0:0:
222,150,295383,2,0,L|318:143,1,50.9999986224174,8|0,0:0|0:0,0:0:0:0:
326,194,295614,2,0,P|382:204|443:182,2,101.999997244835,0|2|0,0:0|0:0|0:0,0:0:0:0:
455,24,296306,6,0,L|461:143,1,101.999997244835,8|0,0:0|0:0,0:0:0:0:
456,323,296768,2,0,P|366:289|303:315,1,152.999995867252,2|0,0:0|0:0,0:0:0:0:
252,344,297229,2,0,L|192:340,4,33.9999990816116,8|8|8|8|8,0:0|0:0|0:0|0:0|0:0,0:0:0:0:
145,306,297691,1,2,0:0:0:0:
126,288,297806,2,0,L|121:204,1,50.9999986224174,8|0,0:0|0:0,0:0:0:0:
64,183,298037,1,2,0:0:0:0:
45,165,298152,2,0,L|39:72,2,67.9999981632232,8|0|0,0:0|0:0|0:0,0:0:0:0:
189,114,298614,5,4,1:0:0:0:
71,290,312558,6,0,B|109:305|109:305|188:292,1,95.6250039830803
221,257,312921,2,0,L|213:201,3,31.8750013276934
256,166,313285,2,0,P|326:151|362:156,1,95.6250039830803
405,196,313649,2,0,L|453:190,3,31.8750013276934
495,230,314012,6,0,L|493:326,1,82.8749964968562
428,352,314376,1,0,0:0:0:0:
409,347,314467,1,0,0:0:0:0:
390,342,314558,1,0,0:0:0:0:
372,334,314649,1,0,0:0:0:0:
354,325,314740,2,0,L|344:222,1,82.8749964968562
309,182,315103,2,0,L|312:130,3,27.6249988322854
256,233,315467,6,0,L|187:225,1,63.7500002235173
126,202,315830,2,0,L|122:166,3,21.2500000745058
173,119,316194,2,0,L|251:125,1,63.7500002235173
307,114,316558,1,0,0:0:0:0:
320,108,316649,1,0,0:0:0:0:
334,103,316740,1,0,0:0:0:0:
347,96,316830,1,0,0:0:0:0:
360,89,316921,2,0,L|356:188,3,85.000000298023
428,328,318376,5,6,0:0:0:0:
398,308,318467,1,0,0:0:0:0:
362,306,318558,1,2,0:0:0:0:
329,319,318649,1,0,0:0:0:0:
300,340,318740,1,8,0:0:0:0:
265,347,318830,1,0,0:0:0:0:
231,334,318921,1,0,0:0:0:0:
207,307,319012,1,0,0:0:0:0:
211,271,319103,5,2,0:0:0:0:
232,242,319194,1,0,0:0:0:0:
259,218,319285,1,2,0:0:0:0:
274,185,319376,1,0,0:0:0:0:
275,149,319467,1,8,0:0:0:0:
259,116,319558,1,0,0:0:0:0:
231,93,319649,1,0,0:0:0:0:
195,94,319740,1,0,0:0:0:0:
169,118,319830,6,0,L|85:130,1,50.9999986224174,2|0,0:0|0:0,0:0:0:0:
92,127,320012,1,2,0:0:0:0:
67,118,320103,1,0,0:0:0:0:
45,103,320194,1,8,0:0:0:0:
33,80,320285,1,0,0:0:0:0:
24,55,320376,2,0,L|34:187,1,101.999997244835,2|0,0:0|0:0,0:0:0:0:
36,182,320649,1,0,0:0:0:0:
40,207,320740,1,2,0:0:0:0:
42,232,320830,1,0,0:0:0:0:
38,257,320921,2,0,P|96:240|156:256,1,101.999997244835,8|0,0:0|0:0,0:0:0:0:
152,266,321194,1,0,0:0:0:0:
171,283,321285,6,0,L|268:275,1,50.9999986224174,6|0,0:0|0:0,0:0:0:0:
287,325,321467,2,0,L|361:319,1,50.9999986224174,2|0,0:0|0:0,0:0:0:0:
424,343,321649,1,8,0:0:0:0:
440,323,321740,1,0,0:0:0:0:
451,300,321830,1,6,0:0:0:0:
456,275,321921,1,0,0:0:0:0:
463,250,322012,1,0,0:0:0:0:
468,224,322103,1,0,0:0:0:0:
453,203,322194,6,0,P|433:162|433:100,1,101.999997244835,2|8,0:0|0:0,0:0:0:0:
437,81,322467,1,0,0:0:0:0:
425,58,322558,1,0,0:0:0:0:
402,46,322649,1,0,0:0:0:0:
358,44,322740,2,0,L|209:47,1,101.999997244835,2|0,0:0|0:0,0:0:0:0:
231,52,323012,1,0,0:0:0:0:
205,55,323103,1,8,0:0:0:0:
179,52,323194,1,0,0:0:0:0:
154,44,323285,2,0,L|162:131,1,50.9999986224174,2|0,0:0|0:0,0:0:0:0:
214,145,323467,6,0,L|225:208,1,50.9999986224174
124,272,323649,2,0,L|135:210,1,50.9999986224174,2|0,0:0|0:0,0:0:0:0:
130,196,323831,1,8,0:0:0:0:
128,170,323922,1,0,0:0:0:0:
117,146,324012,1,0,0:0:0:0:
95,132,324103,1,0,0:0:0:0:
56,194,324194,5,6,0:0:0:0:
64,229,324285,1,0,0:0:0:0:
93,250,324376,1,2,0:0:0:0:
129,257,324467,1,0,0:0:0:0:
164,246,324558,1,8,0:0:0:0:
192,223,324649,1,0,0:0:0:0:
208,191,324740,1,0,0:0:0:0:
231,163,324831,1,0,0:0:0:0:
264,150,324921,5,2,0:0:0:0:
297,166,325013,1,0,0:0:0:0:
317,196,325104,1,2,0:0:0:0:
320,231,325194,1,0,0:0:0:0:
308,265,325285,1,8,0:0:0:0:
303,300,325376,1,0,0:0:0:0:
315,334,325467,1,0,0:0:0:0:
342,358,325558,1,0,0:0:0:0:
412,355,325649,6,0,P|463:308|465:257,1,101.999997244835,2|0,0:0|0:0,0:0:0:0:
434,210,325921,2,0,L|429:159,2,50.9999986224174,0|8|0,0:0|0:0|0:0,0:0:0:0:
478,85,326194,2,0,P|397:71|364:100,1,101.999997244835,2|0,0:0|0:0,0:0:0:0:
365,96,326467,1,0,0:0:0:0:
343,109,326558,1,0,0:0:0:0:
318,115,326649,1,0,0:0:0:0:
292,112,326740,2,0,P|257:100|200:103,1,50.9999986224174,8|0,0:0|0:0,0:0:0:0:
217,101,326921,1,0,0:0:0:0:
192,107,327012,1,0,0:0:0:0:
173,124,327103,6,0,L|173:198,1,50.9999986224174,6|0,0:0|0:0,0:0:0:0:
130,238,327285,2,0,L|53:220,1,50.9999986224174
208,243,327467,2,0,L|303:232,1,50.9999986224174,8|0,0:0|0:0,0:0:0:0:
283,231,327649,1,6,0:0:0:0:
305,218,327740,1,0,0:0:0:0:
325,202,327830,1,0,0:0:0:0:
341,182,327921,1,0,0:0:0:0:
356,161,328012,2,0,L|351:71,1,50.9999986224174,0|0,0:0|0:0,0:0:0:0:
436,68,328194,1,8,0:0:0:0:
433,93,328285,1,0,0:0:0:0:
429,118,328376,2,0,L|425:209,1,50.9999986224174
444,285,328558,6,0,L|364:299,1,50.9999986224174,0|0,0:0|0:0,0:0:0:0:
368,295,328740,1,0,0:0:0:0:
342,292,328830,1,0,0:0:0:0:
319,279,328921,1,8,0:0:0:0:
300,260,329012,1,0,0:0:0:0:
282,241,329103,2,0,L|204:252,1,50.9999986224174
115,209,329285,2,0,L|182:213,1,50.9999986224174
56,251,329467,1,0,0:0:0:0:
48,226,329558,1,0,0:0:0:0:
47,200,329649,1,8,0:0:0:0:
52,175,329740,1,0,0:0:0:0:
67,154,329830,1,0,0:0:0:0:
87,138,329921,1,0,0:0:0:0:
158,121,330012,5,4,0:0:0:0:
185,145,330103,1,0,0:0:0:0:
197,179,330194,1,0,0:0:0:0:
192,214,330285,1,0,0:0:0:0:
180,248,330376,1,8,0:0:0:0:
183,283,330466,1,0,0:0:0:0:
203,313,330557,1,0,0:0:0:0:
236,329,330648,1,0,0:0:0:0:
269,316,330739,5,0,0:0:0:0:
292,288,330830,1,0,0:0:0:0:
308,256,330921,1,0,0:0:0:0:
336,233,331012,1,0,0:0:0:0:
371,222,331103,1,8,0:0:0:0:
407,229,331194,1,0,0:0:0:0:
436,250,331285,1,0,0:0:0:0:
444,285,331376,1,0,0:0:0:0:
423,314,331467,5,0,0:0:0:0:
356,128,331649,2,0,L|344:70,3,50.9999986224174,0|0|8|0,0:0|0:0|0:0|0:0,0:0:0:0:
304,182,332012,2,0,P|254:196|190:174,1,101.999997244835,0|0,0:0|0:0,0:0:0:0:
179,169,332285,1,0,0:0:0:0:
161,143,332376,1,0,0:0:0:0:
148,115,332467,1,0,0:0:0:0:
146,84,332558,2,0,L|156:9,1,50.9999986224174,8|0,0:0|0:0,0:0:0:0:
69,117,332740,1,0,0:0:0:0:
69,117,332830,1,0,0:0:0:0:
69,117,332921,6,0,L|76:197,1,50.9999986224174,4|0,0:0|0:0,0:0:0:0:
35,288,333103,2,0,L|47:232,1,50.9999986224174
156,338,333285,1,8,0:0:0:0:
131,319,333376,1,0,0:0:0:0:
124,289,333467,1,4,0:0:0:0:
120,258,333558,1,0,0:0:0:0:
135,231,333649,2,0,P|150:201|151:166,1,50.9999986224174
146,117,333830,2,0,L|141:56,1,50.9999986224174
229,42,334012,1,8,0:0:0:0:
229,42,334103,1,0,0:0:0:0:
229,42,334194,2,0,L|221:114,1,50.9999986224174
223,196,334376,6,0,L|342:188,1,101.999997244835
354,179,334649,1,0,0:0:0:0:
379,161,334740,1,8,0:0:0:0:
399,139,334830,1,0,0:0:0:0:
407,109,334921,1,0,0:0:0:0:
350,72,335012,2,0,L|339:8,1,50.9999986224174
276,83,335194,2,0,L|264:23,2,50.9999986224174
240,148,335467,2,0,L|226:237,1,50.9999986224174,8|0,0:0|0:0,0:0:0:0:
217,225,335649,1,0,0:0:0:0:
195,247,335740,1,0,0:0:0:0:
169,263,335830,6,0,L|87:253,1,50.9999986224174,4|0,0:0|0:0,0:0:0:0:
236,307,336012,2,0,L|302:313,1,50.9999986224174
367,357,336194,1,8,0:0:0:0:
388,336,336285,1,0,0:0:0:0:
399,308,336376,1,0,0:0:0:0:
401,278,336467,1,0,0:0:0:0:
396,247,336558,1,0,0:0:0:0:
381,219,336649,1,0,0:0:0:0:
360,196,336740,2,0,P|345:163|350:133,1,50.9999986224174
396,84,336921,6,0,L|238:92,1,152.999995867252,8|0,0:0|0:0,0:0:0:0:
210,45,337285,2,0,L|221:153,1,101.999997244835
214,176,337558,1,0,0:0:0:0:
198,202,337649,1,8,0:0:0:0:
171,217,337740,1,0,0:0:0:0:
141,222,337830,2,0,L|136:168,1,50.9999986224174
82,285,338012,2,0,L|71:223,2,50.9999986224174
102,308,338285,1,0,0:0:0:0:
130,317,338376,2,0,L|241:313,1,101.999997244835,8|0,0:0|0:0,0:0:0:0:
261,322,338649,1,0,0:0:0:0:
289,334,338740,6,0,L|374:335,1,50.9999986224174,4|0,0:0|0:0,0:0:0:0:
429,258,338921,2,0,L|364:270,1,50.9999986224174
487,205,339103,1,8,0:0:0:0:
469,179,339194,1,0,0:0:0:0:
439,169,339285,1,4,0:0:0:0:
408,173,339376,1,0,0:0:0:0:
380,187,339467,1,0,0:0:0:0:
351,197,339558,1,0,0:0:0:0:
321,189,339649,6,0,L|306:117,1,50.9999986224174
262,80,339830,1,8,0:0:0:0:
233,70,339921,1,0,0:0:0:0:
202,70,340012,1,0,0:0:0:0:
172,79,340103,1,0,0:0:0:0:
150,100,340194,6,0,L|159:172,1,50.9999986224174,8|0,0:0|0:0,0:0:0:0:
130,219,340376,1,0,0:0:0:0:
100,226,340467,1,0,0:0:0:0:
69,223,340558,1,8,0:0:0:0:
43,206,340649,1,0,0:0:0:0:
31,177,340740,6,0,L|25:114,1,50.9999986224174,8|0,0:0|0:0,0:0:0:0:
51,283,340921,2,0,L|46:333,1,50.9999986224174,8|0,0:0|0:0,0:0:0:0:
99,153,341103,2,0,L|93:90,1,50.9999986224174,8|0,0:0|0:0,0:0:0:0:
138,281,341285,2,0,L|133:331,1,50.9999986224174,8|0,0:0|0:0,0:0:0:0:
174,133,341467,2,0,L|168:70,1,50.9999986224174,8|0,0:0|0:0,0:0:0:0:
213,261,341649,5,4,1:0:0:0:
305,180,357610,6,0,P|360:165|422:192,1,110.499995329142,2|0,0:0|0:0,0:0:0:0:
480,250,358127,1,2,0:0:0:0:
356,371,358300,2,0,B|349:332|349:332|366:295|366:295|358:252,1,110.499995329142,2|0,0:0|0:0,0:0:0:0:
292,92,358990,6,0,L|172:98,1,110.499995329142,2|0,0:0|0:0,0:0:0:0:
93,56,359507,1,2,0:0:0:0:
70,253,359679,2,0,P|105:210|107:147,1,110.499995329142,2|0,0:0|0:0,0:0:0:0:
51,333,360369,6,0,L|121:329,2,55.2499976645708,2|0|0,0:0|0:0|0:0,0:0:0:0:
166,269,360886,1,2,0:0:0:0:
312,349,361058,2,0,P|258:351|182:339,1,110.499995329142,2|0,0:0|0:0,0:0:0:0:
373,291,361748,6,0,L|366:230,2,55.2499976645708,2|0|0,0:0|0:0|0:0,0:0:0:0:
437,358,362265,1,2,0:0:0:0:
413,168,362438,2,0,P|349:157|296:196,1,110.499995329142,2|0,0:0|0:0,0:0:0:0:
202,271,363127,6,0,L|138:278,2,55.2499976645708,2|0|0,0:0|0:0|0:0,0:0:0:0:
286,312,363645,1,2,0:0:0:0:
137,369,363817,1,2,0:0:0:0:
119,155,364162,1,0,0:0:0:0:
341,126,364507,6,0,P|272:137|206:132,1,110.499995329142,2|0,0:0|0:0,0:0:0:0:
63,98,365024,1,2,0:0:0:0:
161,25,365196,1,2,0:0:0:0:
119,277,365541,1,0,0:0:0:0:
119,277,365886,6,0,P|87:286|45:283,1,55.2499976645708,2|0,0:0|0:0,0:0:0:0:
191,315,366231,2,0,L|289:308,1,82.8749964968562
317,320,366575,2,0,L|418:325,1,82.8749964968562,2|0,0:0|0:0,0:0:0:0:
206,44,367265,6,0,P|140:32|82:61,1,110.499995329142,2|0,0:0|0:0,0:0:0:0:
274,162,367783,1,2,0:0:0:0:
348,211,367955,2,0,L|336:86,1,110.499995329142,2|0,0:0|0:0,0:0:0:0:
116,212,368645,6,0,L|115:286,1,68.0000002384184,2|0,0:0|0:0,0:0:0:0:
171,327,368990,2,0,L|243:315,1,68.0000002384184,0|2,0:0|0:0,0:0:0:0:
374,271,369334,2,0,L|302:259,1,68.0000002384184,2|0,0:0|0:0,0:0:0:0:
231,214,369679,1,0,0:0:0:0:
423,348,370024,6,0,P|454:308|450:257,1,102.000000357628,2|0,0:0|0:0,0:0:0:0:
438,234,370369,2,0,L|431:161,1,68.0000002384184,0|2,0:0|0:0,0:0:0:0:
480,32,370714,2,0,L|475:101,1,68.0000002384184,2|0,0:0|0:0,0:0:0:0:
382,89,371058,1,0,0:0:0:0:
126,172,371403,6,0,L|209:178,1,68.0000002384184,2|0,0:0|0:0,0:0:0:0:
276,207,371748,1,0,0:0:0:0:
209,266,371921,1,2,0:0:0:0:
166,96,372092,2,0,P|159:67|164:28,2,68.0000002384184,2|0|0,0:0|0:0|0:0,0:0:0:0:
208,324,372783,6,0,P|198:289|203:244,1,68.0000002384184,2|0,0:0|0:0,0:0:0:0:
217,209,373128,1,0,0:0:0:0:
121,234,373299,1,2,0:0:0:0:
290,275,373473,2,0,P|318:266|349:242,2,68.0000002384184,2|0|0,0:0|0:0|0:0,0:0:0:0:
409,350,374162,6,0,L|417:274,1,68.0000002384184,2|0,0:0|0:0,0:0:0:0:
375,210,374507,2,0,L|365:133,1,68.0000002384184,2|0,0:0|0:0,0:0:0:0:
293,97,374851,2,0,L|301:16,1,68.0000002384184,2|0,0:0|0:0,0:0:0:0:
234,151,375196,2,0,L|246:219,1,68.0000002384184,2|0,0:0|0:0,0:0:0:0:
132,283,375541,6,0,P|167:278|205:288,1,68.0000002384184,2|0,0:0|0:0,0:0:0:0:
332,331,375886,2,0,P|297:336|259:326,1,68.0000002384184,2|0,0:0|0:0,0:0:0:0:
414,292,376231,2,0,P|446:304|472:327,1,68.0000002384184,2|0,0:0|0:0,0:0:0:0:
345,238,376576,2,0,P|356:205|378:178,1,68.0000002384184,2|0,0:0|0:0,0:0:0:0:
469,103,376921,5,2,0:0:0:0:
456,226,377093,1,2,0:0:0:0:
227,123,377265,1,2,0:0:0:0:
309,30,377438,1,2,0:0:0:0:
367,127,377610,1,2,0:0:0:0:
176,205,377783,1,2,0:0:0:0:
161,62,377955,1,2,0:0:0:0:
330,254,378127,1,2,0:0:0:0:
224,368,378300,5,2,0:0:0:0:
216,349,378386,1,2,0:0:0:0:
209,329,378472,1,2,0:0:0:0:
208,308,378558,1,2,0:0:0:0:
212,288,378645,1,2,0:0:0:0:
223,271,378731,1,2,0:0:0:0:
235,255,378817,1,2,0:0:0:0:
245,237,378903,1,2,0:0:0:0:
253,218,378990,5,2,0:0:0:0:
252,197,379076,1,2,0:0:0:0:
248,176,379162,1,2,0:0:0:0:
241,156,379248,1,2,0:0:0:0:
230,138,379334,2,0,L|286:129,1,34.0000001192092,8|8,0:3|0:3,0:0:0:0:
354,176,379506,2,0,L|387:181,1,34.0000001192092,4|4,0:3|0:3,0:0:0:0:
494,139,379679,6,0,P|488:88|452:36,1,92.9999971618653,6|0,0:0|0:0,0:0:0:0:
447,309,380024,1,8,0:0:0:0:
209,264,380197,1,0,0:0:0:0:
249,252,380283,1,0,0:0:0:0:
290,254,380369,1,2,0:0:0:0:
328,270,380455,1,0,0:0:0:0:
353,303,380541,1,2,0:0:0:0:
75,358,380714,1,8,0:0:0:0:
61,114,380886,1,0,0:0:0:0:
61,114,380972,1,0,0:0:0:0:
61,114,381059,6,0,L|76:260,1,139.499995742798,2|0,0:0|0:0,0:0:0:0:
0,223,381403,1,8,0:0:0:0:
223,125,381576,2,0,L|208:271,1,139.499995742798
145,204,381921,1,2,0:0:0:0:
314,95,382093,2,0,P|361:80|412:86,1,92.9999971618653,8|0,0:0|0:0,0:0:0:0:
439,106,382352,1,0,0:0:0:0:
463,139,382438,6,0,L|450:236,1,92.9999971618653,2|0,0:0|0:0,0:0:0:0:
406,17,382783,1,8,0:0:0:0:
360,184,382955,1,0,0:0:0:0:
360,184,383041,1,0,0:0:0:0:
360,184,383128,1,2,0:0:0:0:
269,46,383300,1,2,0:0:0:0:
318,271,383472,2,0,B|362:278|362:278|423:263,1,92.9999971618653,8|0,0:0|0:0,0:0:0:0:
438,252,383731,1,0,0:0:0:0:
469,245,383817,6,0,B|481:288|481:288|462:344,1,92.9999971618653,2|0,0:0|0:0,0:0:0:0:
274,140,384162,1,8,0:0:0:0:
187,325,384334,2,0,P|162:332|134:326,2,46.4999985809327,0|0|2,0:0|0:0|0:0,0:0:0:0:
218,315,384593,1,0,0:0:0:0:
248,305,384679,1,2,0:0:0:0:
65,285,384851,2,0,P|56:333|89:386,1,92.9999971618653,8|0,0:0|0:0,0:0:0:0:
146,153,385197,6,0,P|94:167|66:217,1,92.9999971618653,2|0,0:0|0:0,0:0:0:0:
315,222,385541,1,8,0:0:0:0:
274,115,385714,1,0,0:0:0:0:
274,115,385800,1,0,0:0:0:0:
274,115,385886,2,0,L|267:179,1,46.4999985809327,2|0,0:0|0:0,0:0:0:0:
315,222,386059,2,0,L|322:286,1,46.4999985809327,2|0,0:0|0:0,0:0:0:0:
440,160,386231,2,0,P|385:144|334:165,1,92.9999971618653,8|0,0:0|0:0,0:0:0:0:
143,230,386576,6,0,P|198:246|249:225,1,92.9999971618653,2|0,0:0|0:0,0:0:0:0:
60,95,386921,1,8,0:0:0:0:
35,319,387093,1,0,0:0:0:0:
63,303,387179,1,0,0:0:0:0:
95,299,387266,1,2,0:0:0:0:
127,302,387352,1,0,0:0:0:0:
154,319,387438,1,2,0:0:0:0:
342,348,387610,2,0,P|286:368|223:355,1,92.9999971618653,8|0,0:0|0:0,0:0:0:0:
379,190,387955,6,0,L|392:296,1,92.9999971618653,2|0,0:0|0:0,0:0:0:0:
430,117,388300,1,8,0:0:0:0:
304,97,388472,1,0,0:0:0:0:
304,97,388559,1,0,0:0:0:0:
304,97,388645,2,0,L|384:117,1,46.4999985809327,2|0,0:0|0:0,0:0:0:0:
370,35,388817,2,0,L|324:23,1,46.4999985809327,2|0,0:0|0:0,0:0:0:0:
230,51,388990,2,0,P|218:95|236:137,1,92.9999971618653,8|0,0:0|0:0,0:0:0:0:
326,337,389335,2,0,P|343:295|331:251,1,92.9999971618653,2|0,0:0|0:0,0:0:0:0:
185,280,389679,5,10,0:3:0:0:
204,293,389765,1,8,0:3:0:0:
226,300,389851,1,8,0:3:0:0:
249,302,389937,1,8,0:3:0:0:
271,297,390024,1,8,0:3:0:0:
326,337,390110,1,8,0:3:0:0:
395,340,390196,1,8,0:3:0:0:
454,305,390282,1,8,0:3:0:0:
480,234,390368,2,0,L|473:184,3,46.7500015906095,6|4|4|4,0:3|0:3|0:3|0:3,0:0:0:0:
407,144,390713,6,0,P|450:113|508:118,1,93.500003181219,6|0,0:0|0:0,0:0:0:0:
377,215,391059,6,0,L|257:207,1,92.9999971618653,8|0,0:0|0:0,0:0:0:0:
252,199,391317,1,0,0:0:0:0:
224,182,391403,2,0,L|215:128,1,46.4999985809327,2|0,0:0|0:0,0:0:0:0:
203,252,391576,2,0,L|191:312,1,46.4999985809327,2|0,0:0|0:0,0:0:0:0:
55,201,391748,2,0,P|119:192|154:200,1,92.9999971618653,8|0,0:0|0:0,0:0:0:0:
379,260,392092,6,0,P|333:265|284:256,1,93.500003181219,2|0,0:0|0:0,0:0:0:0:
449,197,392438,1,8,0:0:0:0:
463,332,392610,1,0,0:0:0:0:
463,332,392697,1,0,0:0:0:0:
463,332,392783,2,0,L|452:265,1,46.4999985809327,2|0,0:0|0:0,0:0:0:0:
449,197,392955,2,0,L|438:130,1,46.4999985809327,2|0,0:0|0:0,0:0:0:0:
462,61,393128,2,0,P|417:79|364:66,1,92.9999971618653,8|0,0:0|0:0,0:0:0:0:
348,51,393386,1,0,0:0:0:0:
319,35,393472,6,0,L|221:42,1,92.9999971618653,2|0,0:0|0:0,0:0:0:0:
10,101,393817,1,8,0:0:0:0:
127,227,393990,1,0,0:0:0:0:
147,201,394076,1,0,0:0:0:0:
155,169,394162,1,2,0:0:0:0:
155,136,394248,1,0,0:0:0:0:
145,104,394335,1,2,0:0:0:0:
36,273,394507,1,8,0:0:0:0:
229,328,394679,6,0,L|225:282,1,46.4999985809327
271,221,394852,1,2,0:0:0:0:
142,320,395024,1,0,0:0:0:0:
382,350,395197,2,0,L|369:251,1,92.9999971618653,8|0,0:0|0:0,0:0:0:0:
355,228,395455,1,0,0:0:0:0:
337,200,395541,1,2,0:0:0:0:
335,167,395628,1,0,0:0:0:0:
343,135,395712,1,2,0:0:0:0:
330,104,395800,1,0,0:0:0:0:
304,83,395886,2,0,P|257:70|194:97,1,92.9999971618653,8|0,0:0|0:0,0:0:0:0:
191,103,396145,1,0,0:0:0:0:
164,121,396231,6,0,B|120:128|120:128|62:112,1,92.9999971618653,2|0,0:0|0:0,0:0:0:0:
276,203,396576,1,8,0:0:0:0:
157,298,396748,2,0,P|149:278|150:237,2,46.4999985809327,0|0|2,0:0|0:0|0:0,0:0:0:0:
169,328,397007,1,0,0:0:0:0:
180,353,397093,1,2,0:0:0:0:
326,280,397266,2,0,L|216:272,1,92.9999971618653,8|0,0:0|0:0,0:0:0:0:
31,208,397610,6,0,L|141:200,1,92.9999971618653,2|0,0:0|0:0,0:0:0:0:
352,175,397955,1,8,0:0:0:0:
245,32,398126,1,0,0:0:0:0:
229,55,398214,1,0,0:0:0:0:
227,82,398299,2,0,L|244:148,1,46.7500015906095,2|0,0:0|0:0,0:0:0:0:
235,206,398472,2,0,L|227:272,1,46.4999985809327,2|0,0:0|0:0,0:0:0:0:
175,319,398645,1,8,0:0:0:0:
114,158,398817,1,0,0:0:0:0:
114,158,398903,1,0,0:0:0:0:
114,158,398990,6,0,L|129:258,1,92.9999971618653,2|0,0:0|0:0,0:0:0:0:
160,83,399335,1,8,0:0:0:0:
50,230,399507,1,0,0:0:0:0:
47,257,399593,1,0,0:0:0:0:
45,284,399679,1,2,0:0:0:0:
43,312,399766,1,0,0:0:0:0:
40,339,399852,1,2,0:0:0:0:
235,206,400024,2,0,L|227:98,1,92.9999971618653,8|0,0:0|0:0,0:0:0:0:
135,323,400369,5,10,0:3:0:0:
157,338,400455,1,8,0:3:0:0:
184,343,400541,1,8,0:3:0:0:
211,335,400628,1,8,0:3:0:0:
241,310,400714,5,10,0:3:0:0:
269,286,400800,1,8,0:3:0:0:
304,273,400886,1,8,0:3:0:0:
340,278,400972,1,8,0:3:0:0:
375,308,401059,5,6,0:3:0:0:
419,320,401145,1,4,0:3:0:0:
460,298,401231,1,4,0:3:0:0:
490,263,401317,1,4,0:3:0:0:
494,193,401403,6,0,L|486:134,1,46.4999985809327,6|4,0:3|0:3,0:0:0:0:
428,40,401576,2,0,L|424:111,1,46.4999985809327,4|4,0:3|0:3,0:0:0:0:
334,199,401748,6,0,L|317:86,1,92.9999971618653,4|0,0:0|0:0,0:0:0:0:
