osu file format v14

[General]
AudioFilename: audio.mp3
AudioLeadIn: 0
PreviewTime: 71664
Countdown: 0
SampleSet: Soft
StackLeniency: 0.4
Mode: 0
LetterboxInBreaks: 0
WidescreenStoryboard: 0

[Editor]
Bookmarks: 37,22105,44174,66243,71761,93830,115899,137968,160037,182105,204174,226243,248312,253830,275899,297968,320037
DistanceSpacing: 0.6
BeatDivisor: 4
GridSize: 32
TimelineZoom: 2.6

[Metadata]
Title:Paperchase feat. Danny Byrd
TitleUnicode:Paperchase feat. Danny Byrd
Artist:Brookes Brothers
ArtistUnicode:Brookes Brothers
Creator:GRR SNARL GROWL
Version:$$$
Source:
Tags:dnb drum and bass breakbeat kaos liquid funk
BeatmapID:2153575
BeatmapSetID:1029926

[Difficulty]
HPDrainRate:5
CircleSize:4
OverallDifficulty:9.4
ApproachRate:9.4
SliderMultiplier:2
SliderTickRate:1

[Events]
//Background and Video events
0,0,"paperchase.jpg",0,0
//Break Periods
2,226434,230694
2,231779,236211
//Storyboard Layer 0 (Background)
//Storyboard Layer 1 (Fail)
//Storyboard Layer 2 (Pass)
//Storyboard Layer 3 (Foreground)
//Storyboard Layer 4 (Overlay)
//Storyboard Sound Samples

[TimingPoints]
27,344.827586206897,4,2,2,40,1,0
27,-166.666666666667,4,2,2,40,0,0
5544,-100,4,2,2,40,0,0
5889,-133.333333333333,4,2,2,40,0,0
11061,-111.111111111111,4,2,2,50,0,0
16233,-111.111111111111,4,2,2,55,0,0
16578,-285.714285714286,4,2,2,55,0,0
22440,-83.3333333333333,4,2,2,55,0,0
44164,-71.4285714285714,4,2,2,55,0,0
60716,-100,4,2,2,50,0,0
66233,-133.333333333333,4,2,2,30,0,0
66578,-133.333333333333,4,2,2,40,0,0
66923,-100,4,2,2,50,0,0
67268,-100,4,2,2,55,0,0
67613,-100,4,2,2,60,0,0
67958,-100,4,2,2,65,0,0
70371,-66.6666666666667,4,2,2,65,0,0
71751,-66.6666666666667,4,2,2,60,0,0
110371,-66.6666666666667,4,2,2,65,0,1
113130,-66.6666666666667,4,2,2,65,0,0
115889,-133.333333333333,4,2,2,50,0,0
121406,-133.333333333333,4,2,2,15,0,0
121492,-133.333333333333,4,2,2,25,0,0
121578,-133.333333333333,4,2,2,35,0,0
121664,-133.333333333333,4,2,2,45,0,0
121751,-133.333333333333,4,2,2,50,0,0
124682,-100,4,2,2,50,0,0
132440,-133.333333333333,4,2,2,40,0,0
133130,-100,4,2,2,40,0,0
133820,-100,4,2,2,45,0,0
135199,-100,4,2,2,50,0,0
136578,-100,4,2,2,60,0,0
137958,-62.5,4,2,2,65,0,1
176578,-133.333333333333,4,2,2,40,0,0
177958,-133.333333333333,4,2,2,45,0,0
178647,-133.333333333333,4,2,2,50,0,0
179337,-133.333333333333,4,2,2,55,0,0
180027,-133.333333333333,4,2,2,60,0,0
182095,-66.6666666666667,4,2,2,60,0,0
220716,-66.6666666666667,4,2,2,60,0,1
223475,-66.6666666666667,4,2,2,60,0,0
231233,-200,4,2,2,30,0,0
237268,-200,4,2,2,40,0,0
239337,-100,4,2,2,45,0,0
242785,-100,4,2,2,50,0,0
251061,-100,4,2,2,55,0,0
252440,-133.333333333333,4,2,2,60,0,0
253130,-100,4,2,2,65,0,0
253820,-66.6666666666667,4,2,2,60,0,0
292440,-66.6666666666667,4,2,2,65,0,1
297958,-333.333333333333,4,2,2,40,0,0
298302,-62.5,4,2,2,65,0,1
336578,-66.6666666666667,4,2,2,40,0,0

[Colours]
Combo1 : 37,194,116
Combo2 : 13,236,231
Combo3 : 247,111,226

[HitObjects]
147,144,28,6,0,P|176:133|219:149,1,59.9999981689454,4|0,0:2|0:0,0:0:0:0:
258,241,372,1,8,0:2:0:0:
258,241,544,2,0,B|263:194|263:194|278:181|278:181|283:121,1,119.999996337891,2|0,0:2|0:0,0:0:0:0:
356,64,1062,2,0,L|361:128,1,59.9999981689454,8|0,0:2|0:0,0:0:0:0:
411,235,1407,6,0,P|423:197|425:174,1,59.9999981689454,0|0,0:0|0:0,0:0:0:0:
508,185,1752,2,0,P|499:146|489:125,1,59.9999981689454,8|0,0:2|0:0,0:0:0:0:
491,127,2269,1,0,0:0:0:0:
432,74,2441,2,0,L|359:67,1,59.9999981689454,8|0,0:2|0:0,0:0:0:0:
290,26,2786,6,0,P|277:63|277:93,1,59.9999981689454,0|0,0:0|0:0,0:0:0:0:
185,72,3130,2,0,P|198:109|198:139,1,59.9999981689454,8|0,0:0|0:0,0:0:0:0:
198,129,3648,1,0,0:0:0:0:
278,165,3821,1,8,0:2:0:0:
167,222,3993,1,0,0:0:0:0:
314,244,4165,6,0,B|376:236|357:289|420:282,1,119.999996337891,0|8,0:0|0:2,0:0:0:0:
488,241,4683,1,0,0:0:0:0:
488,241,5028,1,0,0:0:0:0:
506,359,5200,2,0,B|479:356|479:356|473:361|473:361|452:359|452:359|447:364|447:364|420:362,1,89.9999972534181,8|0,0:2|0:0,0:0:0:0:
393,365,5545,5,4,0:2:0:0:
314,244,5717,1,0,0:0:0:0:
256,373,5890,1,8,0:2:0:0:
256,373,6062,2,0,L|83:357,1,150.000005722046,2|0,0:2|0:0,0:0:0:0:
76,267,6579,1,8,0:2:0:0:
11,338,6752,1,0,0:0:0:0:
11,197,6924,6,0,L|18:110,1,75.0000028610231,0|0,0:0|0:0,0:0:0:0:
45,32,7269,2,0,L|38:106,1,75.0000028610231,8|0,0:2|0:0,0:0:0:0:
38,106,7786,1,0,0:0:0:0:
97,187,7959,2,0,P|134:199|191:179,1,75.0000028610231,8|0,0:2|0:0,0:0:0:0:
297,135,8303,6,0,P|260:123|203:143,1,75.0000028610231,0|0,0:0|0:0,0:0:0:0:
317,244,8648,2,0,P|290:218|254:208,1,75.0000028610231,8|0,0:2|0:0,0:0:0:0:
254,208,9165,1,0,0:0:0:0:
379,108,9338,1,8,0:2:0:0:
403,266,9510,1,0,0:0:0:0:
339,194,9683,5,0,0:0:0:0:
347,188,9855,1,0,0:0:0:0:
348,198,10028,1,8,0:2:0:0:
285,119,10200,1,0,0:0:0:0:
379,108,10372,1,0,0:0:0:0:
244,44,10545,1,0,0:0:0:0:
338,33,10717,1,8,0:2:0:0:
228,45,10890,1,0,0:0:0:0:
94,0,11062,6,0,B|50:-6|50:-6|-1:31,1,89.9999972534181,4|0,0:2|0:0,0:0:0:0:
0,142,11407,1,8,0:2:0:0:
138,77,11579,1,2,0:2:0:0:
138,77,11924,1,0,0:0:0:0:
105,181,12096,2,0,L|96:278,1,89.9999972534181,8|0,0:2|0:0,0:0:0:0:
179,365,12441,5,0,0:0:0:0:
201,273,12614,1,0,0:0:0:0:
323,354,12786,1,8,0:2:0:0:
301,262,12959,1,0,0:0:0:0:
301,262,13303,1,0,0:0:0:0:
355,178,13476,2,0,P|361:144|353:75,1,89.9999972534181,8|0,0:2|0:0,0:0:0:0:
198,41,13821,5,0,0:0:0:0:
289,16,13993,1,0,0:0:0:0:
187,53,14165,1,8,0:2:0:0:
305,19,14338,1,0,0:0:0:0:
305,19,14683,1,0,0:0:0:0:
199,170,14855,1,8,0:2:0:0:
121,2,15028,1,0,0:0:0:0:
207,62,15200,6,0,L|306:131,1,89.9999972534181,0|0,0:0|0:0,0:0:0:0:
130,100,15545,1,8,0:2:0:0:
130,100,15717,1,0,0:0:0:0:
41,66,15890,2,0,P|35:88|39:116,1,44.999998626709,2|0,0:2|0:0,0:0:0:0:
65,182,16062,2,0,P|66:159|60:138,1,44.999998626709,2|0,0:2|0:0,0:0:0:0:
8,234,16234,1,8,0:2:0:0:
12,268,16321,1,8,0:2:0:0:
41,66,16579,6,0,B|97:98|222:143|205:31|205:31|123:0|95:79|159:183|159:183|243:192|289:93|289:93|498:178|419:366|241:345|256:181|375:171,1,1084.99996688843,2|0,0:2|0:0,0:0:0:0:
508,149,22096,5,0,1:2:0:0:
458,318,22269,1,0,0:0:0:0:
512,60,22441,2,0,L|383:48,1,119.999996337891,10|0,0:2|0:0,0:0:0:0:
392,49,22700,1,0,0:0:0:0:
392,49,22786,1,0,0:0:0:0:
157,113,22959,1,2,1:2:0:0:
326,277,23131,2,0,B|368:191|283:191|326:106,1,179.999994506836,8|0,0:2|0:0,0:0:0:0:
301,32,23476,6,0,P|247:15|179:41,1,119.999996337891,2|0,1:2|0:0,0:0:0:0:
142,210,23821,1,8,0:2:0:0:
97,11,23993,1,0,0:0:0:0:
73,10,24079,1,0,0:0:0:0:
49,8,24165,1,0,0:0:0:0:
24,6,24252,1,0,0:0:0:0:
0,4,24338,1,0,1:2:0:0:
0,202,24510,2,0,B|75:208|75:208|93:229|93:229|169:235,1,179.999994506836,10|0,0:2|0:0,0:0:0:0:
252,206,24855,5,0,1:2:0:0:
116,319,25028,1,0,0:0:0:0:
215,123,25200,1,10,0:2:0:0:
335,306,25372,2,0,L|329:370,1,59.9999981689454,0|0,0:0|0:0,0:0:0:0:
405,206,25545,2,0,L|410:265,1,59.9999981689454,0|0,0:0|0:0,0:0:0:0:
512,367,25717,1,2,1:2:0:0:
468,147,25890,2,0,P|426:120|347:146,1,119.999996337891,8|0,0:2|0:0,0:0:0:0:
214,87,26234,5,2,1:2:0:0:
171,98,26321,1,0,0:0:0:0:
127,90,26407,1,0,0:0:0:0:
91,63,26493,1,0,0:0:0:0:
72,22,26579,1,8,0:2:0:0:
95,40,26665,1,0,0:0:0:0:
108,67,26752,1,0,0:0:0:0:
108,96,26838,1,0,0:0:0:0:
95,123,26924,1,0,0:0:0:0:
71,141,27010,1,0,0:0:0:0:
58,168,27096,1,0,1:2:0:0:
58,197,27183,1,0,0:0:0:0:
71,224,27269,2,0,P|102:227|146:215,1,59.9999981689454,10|0,0:2|0:0,0:0:0:0:
206,342,27441,2,0,P|233:329|256:310,1,59.9999981689454,0|0,0:0|0:0,0:0:0:0:
330,90,27614,6,0,B|306:77|306:77|196:87,1,119.999996337891,0|0,1:2|0:0,0:0:0:0:
332,274,27959,1,10,0:2:0:0:
449,33,28131,1,0,0:0:0:0:
411,10,28217,1,0,0:0:0:0:
367,15,28303,1,0,0:0:0:0:
336,46,28390,1,0,0:0:0:0:
330,90,28476,1,2,1:2:0:0:
415,287,28648,2,0,B|421:211|421:211|442:193|442:193|448:117,1,179.999994506836,8|0,0:2|0:0,0:0:0:0:
449,33,28993,5,2,1:2:0:0:
327,214,29165,1,0,0:0:0:0:
254,13,29338,2,0,P|322:-4|386:34,1,119.999996337891,8|0,0:2|0:0,0:0:0:0:
366,14,29596,1,0,0:0:0:0:
366,14,29683,1,0,0:0:0:0:
210,105,29855,1,0,1:2:0:0:
448,117,30028,1,10,0:2:0:0:
192,106,30200,1,0,0:0:0:0:
421,225,30372,6,0,L|409:351,1,119.999996337891,0|0,1:2|0:0,0:0:0:0:
202,225,30717,2,0,L|191:105,1,119.999996337891,10|0,0:2|0:0,0:0:0:0:
214,86,30976,1,0,0:0:0:0:
243,78,31062,1,0,0:0:0:0:
273,81,31148,1,0,0:0:0:0:
299,95,31234,1,2,1:2:0:0:
224,306,31407,2,0,B|130:325|152:242|58:261,1,179.999994506836,8|0,0:2|0:0,0:0:0:0:
13,328,31752,6,0,L|24:198,1,119.999996337891,2|0,1:2|0:0,0:0:0:0:
152,29,32096,1,8,0:2:0:0:
0,129,32269,1,0,0:0:0:0:
0,129,32355,1,0,0:0:0:0:
0,129,32441,1,0,0:0:0:0:
164,184,32614,1,0,1:2:0:0:
63,46,32786,2,0,L|-11:39,1,59.9999981689454,10|0,0:2|0:0,0:0:0:0:
211,104,32959,2,0,L|285:97,1,59.9999981689454,0|0,0:0|0:0,0:0:0:0:
427,18,33131,6,0,L|440:169,1,119.999996337891,0|0,1:2|0:0,0:0:0:0:
243,241,33476,1,10,0:2:0:0:
238,6,33648,1,0,0:0:0:0:
260,7,33734,1,0,0:0:0:0:
284,8,33821,1,0,0:0:0:0:
307,10,33907,1,0,0:0:0:0:
330,12,33993,1,2,1:2:0:0:
334,272,34165,2,0,B|257:265|257:265|237:282|237:282|161:276,1,179.999994506836,8|0,0:2|0:0,0:0:0:0:
80,321,34510,6,0,P|73:252|124:193,1,119.999996337891,2|0,1:2|0:0,0:0:0:0:
293,181,34855,1,8,0:2:0:0:
160,366,35028,1,0,0:0:0:0:
153,143,35200,1,0,0:0:0:0:
153,143,35286,1,0,0:0:0:0:
153,143,35372,1,0,1:2:0:0:
160,366,35545,2,0,L|343:382,1,179.999994506836,10|0,0:2|0:0,0:0:0:0:
403,325,35890,5,0,1:2:0:0:
209,215,36062,1,0,0:0:0:0:
414,121,36234,2,0,L|405:245,1,119.999996337891,10|0,0:2|0:0,0:0:0:0:
381,245,36493,1,0,0:0:0:0:
357,250,36579,1,0,0:0:0:0:
333,255,36665,1,0,0:0:0:0:
309,260,36752,1,2,1:2:0:0:
156,123,36924,2,0,L|279:133,1,119.999996337891,8|0,0:2|0:0,0:0:0:0:
167,47,37269,5,2,1:2:0:0:
123,54,37355,1,0,0:0:0:0:
90,83,37441,1,0,0:0:0:0:
79,126,37528,1,0,0:0:0:0:
94,168,37614,1,8,0:0:0:0:
110,192,37700,1,0,0:0:0:0:
117,221,37786,1,0,0:0:0:0:
113,251,37872,1,0,0:0:0:0:
98,276,37958,1,0,0:0:0:0:
100,306,38045,1,0,0:0:0:0:
121,326,38131,1,0,1:0:0:0:
150,328,38217,1,0,0:0:0:0:
173,309,38303,2,0,L|253:315,1,59.9999981689454,8|0,0:0|0:0,0:0:0:0:
288,217,38476,2,0,L|208:223,1,59.9999981689454
365,354,38648,6,0,B|393:301|393:301|370:219,1,119.999996337891,0|0,1:2|0:0,0:0:0:0:
138,218,38993,2,0,B|110:271|110:271|133:353,1,119.999996337891,10|0,0:2|0:0,0:0:0:0:
288,217,39338,2,0,P|299:183|294:144,1,59.9999981689454,0|0,0:0|0:0,0:0:0:0:
153,121,39510,2,0,P|148:85|127:52,1,59.9999981689454,2|0,1:2|0:0,0:0:0:0:
18,228,39683,2,0,L|154:216,1,119.999996337891,8|0,0:2|0:0,0:0:0:0:
245,81,40028,5,2,1:2:0:0:
211,269,40200,1,0,0:0:0:0:
195,6,40372,1,8,0:2:0:0:
430,123,40545,1,0,0:0:0:0:
430,123,40631,1,0,0:0:0:0:
430,123,40717,2,0,L|503:129,1,59.9999981689454,0|0,0:0|0:0,0:0:0:0:
298,159,40890,2,0,L|224:165,1,59.9999981689454,0|0,1:2|0:0,0:0:0:0:
479,247,41062,2,0,L|491:105,1,119.999996337891,10|0,0:2|0:0,0:0:0:0:
301,19,41407,6,0,P|218:-1|147:34,1,119.999996337891,0|0,1:2|0:0,0:0:0:0:
129,244,41752,1,10,0:2:0:0:
278,199,41924,1,0,0:0:0:0:
298,159,42010,1,0,0:0:0:0:
290,115,42096,1,0,0:0:0:0:
259,85,42183,1,0,0:0:0:0:
215,79,42269,1,2,1:2:0:0:
215,261,42441,2,0,P|298:281|369:246,1,119.999996337891,8|0,0:2|0:0,0:0:0:0:
135,142,42786,5,2,1:2:0:0:
69,331,42959,1,0,0:0:0:0:
108,58,43131,1,8,0:2:0:0:
2,276,43303,1,0,0:0:0:0:
2,276,43390,1,0,0:0:0:0:
2,276,43476,1,0,0:0:0:0:
277,201,43648,1,0,1:2:0:0:
0,119,43821,2,0,L|10:-8,1,119.999996337891,10|0,0:2|0:0,0:0:0:0:
269,116,44165,6,0,B|341:101|324:165|397:150,1,139.999995727539,2|0,1:2|0:0,0:0:0:0:
441,376,44510,1,10,0:2:0:0:
231,280,44683,1,0,0:0:0:0:
201,237,44769,1,0,0:0:0:0:
198,186,44855,1,0,0:0:0:0:
223,141,44941,1,0,0:0:0:0:
269,116,45028,1,0,1:2:0:0:
458,296,45200,2,0,L|304:282,1,139.999995727539,10|0,0:2|0:0,0:0:0:0:
103,370,45545,6,0,L|117:216,1,139.999995727539,2|0,1:2|0:0,0:0:0:0:
203,58,45890,1,8,0:2:0:0:
17,123,46062,1,0,0:0:0:0:
13,158,46148,1,0,0:0:0:0:
10,193,46234,1,0,0:0:0:0:
7,228,46321,1,0,0:0:0:0:
4,263,46407,1,0,1:2:0:0:
195,374,46579,1,8,0:2:0:0:
210,165,46752,1,0,0:0:0:0:
135,288,46924,6,0,B|105:260|105:260|114:150,1,139.999995727539,2|0,1:2|0:0,0:0:0:0:
38,146,47183,2,0,P|71:134|114:154,1,69.9999978637696,2|8,0:0|0:2,0:0:0:0:
391,182,47441,6,0,P|325:162|303:231,1,139.999995727539,2|0,0:0|0:0,0:0:0:0:
306,306,47700,2,0,L|312:220,1,69.9999978637696,2|0,0:0|1:2,0:0:0:0:
139,59,47959,6,0,B|197:64|197:64|211:80|211:80|270:85,1,139.999995727539,10|0,0:2|0:0,0:0:0:0:
297,4,48217,2,0,P|295:60|274:93,1,69.9999978637696,2|0,0:0|1:2,0:0:0:0:
477,281,48476,6,0,L|486:175,1,69.9999978637696,2|0,0:0|0:0,0:0:0:0:
395,52,48648,1,10,0:0:0:0:
395,52,48734,1,2,0:0:0:0:
141,168,48993,6,0,P|184:155|225:174,1,69.9999978637696,2|0,0:0|0:0,0:0:0:0:
394,260,49165,1,2,1:2:0:0:
118,354,49338,6,0,P|161:367|202:348,1,69.9999978637696,10|0,0:2|0:0,0:0:0:0:
382,260,49510,1,2,0:0:0:0:
49,245,49683,6,0,L|35:94,1,139.999995727539,2|0,1:2|0:0,0:0:0:0:
240,75,50028,1,10,0:2:0:0:
158,286,50200,1,0,0:0:0:0:
154,251,50286,1,0,0:0:0:0:
151,216,50372,1,0,0:0:0:0:
148,181,50459,1,0,0:0:0:0:
145,146,50545,1,0,1:2:0:0:
267,327,50717,2,0,L|253:176,1,139.999995727539,10|0,0:2|0:0,0:0:0:0:
448,74,51062,5,2,1:2:0:0:
383,244,51234,1,0,0:0:0:0:
268,102,51407,1,8,0:2:0:0:
158,286,51579,2,0,L|151:363,1,69.9999978637696,0|0,0:0|0:0,0:0:0:0:
252,93,51752,2,0,L|245:23,1,69.9999978637696,0|0,0:0|0:0,0:0:0:0:
78,234,51924,1,0,1:2:0:0:
345,147,52096,1,8,0:2:0:0:
163,43,52269,1,0,0:0:0:0:
163,43,52355,1,0,0:0:0:0:
163,43,52441,6,0,B|95:24|95:24|15:50,1,139.999995727539,0|0,1:0|0:0,0:0:0:0:
203,209,52786,1,8,0:0:0:0:
352,25,52959,1,0,1:0:0:0:
325,23,53045,1,0,0:0:0:0:
299,21,53131,1,0,0:0:0:0:
272,19,53217,1,0,0:0:0:0:
245,18,53303,1,0,0:0:0:0:
448,172,53476,2,0,P|436:202|412:234,1,69.9999978637696,8|0,0:0|0:0,0:0:0:0:
369,118,53648,2,0,P|343:137|306:153,1,69.9999978637696,0|0,0:0|0:0,0:0:0:0:
103,203,53821,6,0,P|192:179|240:223,1,139.999995727539,0|0,1:0|0:0,0:0:0:0:
281,376,54165,1,8,0:0:0:0:
173,282,54338,1,0,0:0:0:0:
173,282,54424,1,0,0:0:0:0:
173,282,54510,1,0,0:0:0:0:
386,329,54683,1,0,1:0:0:0:
171,384,54855,1,8,0:0:0:0:
19,268,55028,1,0,0:0:0:0:
19,268,55114,1,0,0:0:0:0:
19,268,55200,6,0,B|-4:235|-4:235|6:128,1,139.999995727539,2|0,1:2|0:0,0:0:0:0:
188,75,55545,2,0,B|211:108|211:108|201:215,1,139.999995727539,10|0,0:2|0:0,0:0:0:0:
201,207,55803,1,0,0:0:0:0:
201,207,55890,1,0,0:0:0:0:
76,41,56062,1,0,1:2:0:0:
277,14,56234,2,0,L|424:26,1,139.999995727539,10|0,0:2|0:0,0:0:0:0:
512,0,56493,1,0,0:0:0:0:
512,0,56579,6,0,L|498:157,1,139.999995727539,2|0,1:2|0:0,0:0:0:0:
442,362,56924,1,8,0:2:0:0:
334,162,57096,1,0,0:0:0:0:
369,124,57183,1,0,0:0:0:0:
420,113,57269,1,0,0:0:0:0:
468,133,57355,1,0,0:0:0:0:
496,176,57441,1,0,1:2:0:0:
327,302,57614,2,0,L|186:289,1,139.999995727539,8|0,0:2|0:0,0:0:0:0:
28,154,57959,6,0,P|90:111|143:158,1,139.999995727539,2|0,1:2|0:0,0:0:0:0:
119,232,58217,2,0,L|125:151,1,69.9999978637696,2|8,0:0|0:2,0:0:0:0:
375,38,58476,6,0,B|301:26|322:89|249:78,1,139.999995727539,2|0,0:0|0:0,0:0:0:0:
167,48,58734,2,0,L|262:56,1,69.9999978637696,2|0,0:0|1:2,0:0:0:0:
231,377,58993,6,0,B|225:318|225:318|209:304|209:304|204:245,1,139.999995727539,10|0,0:2|0:0,0:0:0:0:
220,158,59252,2,0,P|232:194|210:241,1,69.9999978637696,2|0,0:0|1:2,0:0:0:0:
419,112,59510,6,0,P|446:115|489:153,1,69.9999978637696,2|0,0:0|0:0,0:0:0:0:
307,265,59683,1,10,0:0:0:0:
307,265,59769,1,2,0:0:0:0:
78,46,60028,6,0,L|70:132,1,69.9999978637696,2|0,0:0|0:0,0:0:0:0:
124,310,60200,1,2,1:2:0:0:
117,325,60372,6,0,L|109:238,1,69.9999978637696,10|0,0:2|0:0,0:0:0:0:
163,61,60545,1,2,0:0:0:0:
371,324,60717,6,0,P|296:349|220:247,1,200,2|0,1:2|1:2,0:0:0:0:
392,191,61234,6,0,B|385:267|385:267|402:287|402:287|394:383,1,200,2|0,1:2|1:2,0:0:0:0:
277,172,61752,6,0,L|483:153,1,200,2|0,1:2|1:2,0:0:0:0:
233,96,62269,6,0,B|127:82|158:171|53:157,1,200,2|0,1:2|1:2,0:0:0:0:
250,309,62786,6,0,L|374:319,1,100,2|0,1:2|0:0,0:0:0:0:
394,384,63131,1,0,1:2:0:0:
337,238,63303,1,0,1:2:0:0:
239,307,63476,6,0,L|363:317,1,100,2|0,1:2|0:0,0:0:0:0:
383,382,63821,1,0,1:2:0:0:
326,236,63993,1,0,1:2:0:0:
228,305,64165,6,0,L|352:315,1,100,2|0,1:2|0:0,0:0:0:0:
372,380,64510,1,0,1:2:0:0:
315,234,64682,1,0,1:2:0:0:
217,303,64855,6,0,L|341:313,1,100,2|0,1:2|0:0,0:0:0:0:
361,378,65200,1,0,1:2:0:0:
304,232,65372,1,0,1:2:0:0:
206,301,65545,6,0,L|330:311,1,100,2|0,1:2|0:0,0:0:0:0:
350,376,65890,1,0,1:2:0:0:
293,230,66062,1,0,1:2:0:0:
206,301,66234,6,0,P|199:321|201:347,3,37.5000014305115,0|0|0|0,1:2|1:2|1:2|1:2,0:0:0:0:
157,231,66579,2,0,P|164:211|162:185,3,37.5000014305115,0|0|0|0,1:2|1:2|1:2|1:2,0:0:0:0:
77,311,66924,6,0,L|72:365,3,50,0|0|0|0,1:2|1:2|1:2|1:2,0:0:0:0:
25,211,67269,2,0,L|20:156,3,50,0|0|0|0,1:2|1:2|1:2|1:2,0:0:0:0:
83,68,67614,5,0,1:2:0:0:
114,47,67700,1,0,1:2:0:0:
150,42,67786,1,0,1:2:0:0:
186,55,67872,1,0,1:2:0:0:
212,81,67958,1,0,1:2:0:0:
243,101,68045,1,0,1:2:0:0:
279,106,68131,1,0,1:2:0:0:
315,93,68217,1,0,1:2:0:0:
341,67,68303,5,0,1:2:0:0:
292,59,68389,1,0,1:2:0:0:
248,81,68475,1,0,1:2:0:0:
224,124,68561,1,0,1:2:0:0:
230,173,68647,1,0,1:2:0:0:
262,209,68734,1,0,1:2:0:0:
310,221,68820,1,0,1:2:0:0:
356,202,68906,1,0,1:2:0:0:
383,161,68992,5,0,1:2:0:0:
428,146,69079,1,0,1:2:0:0:
469,171,69165,1,0,1:2:0:0:
476,219,69251,1,0,1:2:0:0:
442,255,69337,1,0,1:2:0:0:
398,274,69424,1,0,1:2:0:0:
383,320,69510,1,0,1:2:0:0:
408,361,69596,1,0,1:2:0:0:
455,370,69683,5,0,1:2:0:0:
448,309,69769,1,0,1:2:0:0:
402,268,69855,1,0,1:2:0:0:
341,266,69941,1,0,1:2:0:0:
293,305,70027,1,0,1:2:0:0:
247,346,70114,1,0,1:2:0:0:
186,348,70200,1,0,1:2:0:0:
138,310,70286,1,0,1:2:0:0:
110,260,70372,6,0,L|118:168,1,75.0000028610231,0|0,1:2|1:2,0:0:0:0:
136,94,70545,2,0,L|129:168,1,75.0000028610231,0|0,1:2|1:2,0:0:0:0:
216,267,70717,6,0,L|224:175,1,75.0000028610231,0|0,1:2|1:2,0:0:0:0:
266,48,70890,2,0,L|259:122,1,75.0000028610231,0|0,1:2|1:2,0:0:0:0:
322,274,71062,6,0,L|330:182,1,75.0000028610231,0|0,1:2|1:2,0:0:0:0:
396,2,71234,2,0,L|389:76,1,75.0000028610231,0|0,1:2|1:2,0:0:0:0:
428,281,71407,5,0,1:2:0:0:
136,94,71752,6,0,L|122:250,1,150.000005722046,2|0,1:2|0:0,0:0:0:0:
45,380,72096,1,10,0:2:0:0:
23,163,72269,1,0,0:0:0:0:
26,134,72355,1,0,0:0:0:0:
30,104,72441,2,0,L|37:20,1,75.0000028610231,0|0,0:0|0:0,0:0:0:0:
250,38,72614,2,0,L|243:112,1,75.0000028610231,0|0,1:2|0:0,0:0:0:0:
122,243,72786,2,0,B|200:231|178:298|257:286,1,150.000005722046,10|0,0:2|0:0,0:0:0:0:
366,332,73045,1,0,0:0:0:0:
359,307,73131,6,0,P|287:305|269:384,1,150.000005722046,2|0,1:2|0:0,0:0:0:0:
487,220,73476,1,8,0:2:0:0:
277,62,73648,1,0,0:0:0:0:
272,118,73734,1,0,0:0:0:0:
267,174,73820,1,0,0:0:0:0:
262,230,73906,1,0,0:0:0:0:
257,286,73993,2,0,P|217:288|174:270,1,75.0000028610231,0|0,1:2|0:0,0:0:0:0:
118,142,74165,2,0,P|139:175|145:221,1,75.0000028610231,8|0,0:2|0:0,0:0:0:0:
63,335,74338,2,0,P|81:299|118:271,1,75.0000028610231,0|0,0:0|0:0,0:0:0:0:
268,166,74510,6,0,B|273:102|273:102|259:85|259:85|264:22,1,150.000005722046,2|0,1:2|0:0,0:0:0:0:
363,143,74769,1,2,0:0:0:0:
367,169,74855,2,0,L|358:259,1,75.0000028610231,8|0,0:2|0:0,0:0:0:0:
184,276,75028,6,0,P|265:255|289:317,1,150.000005722046,2|0,0:0|0:0,0:0:0:0:
182,373,75286,1,2,0:0:0:0:
172,356,75372,2,0,P|165:330|172:276,1,75.0000028610231,0|0,1:2|0:0,0:0:0:0:
0,224,75545,6,0,B|26:190|26:190|146:200,1,150.000005722046,10|0,0:2|0:0,0:0:0:0:
106,112,75804,1,2,0:0:0:0:
80,116,75890,2,0,L|-10:107,1,75.0000028610231,0|0,1:2|0:0,0:0:0:0:
13,308,76062,6,0,L|90:301,1,75.0000028610231,2|0,0:0|0:0,0:0:0:0:
189,128,76234,1,10,0:0:0:0:
218,130,76321,1,2,0:0:0:0:
247,133,76407,1,2,0:0:0:0:
461,359,76579,6,0,P|436:324|429:269,1,75.0000028610231,2|0,0:0|0:0,0:0:0:0:
355,89,76752,1,2,1:2:0:0:
249,371,76924,6,0,P|274:336|281:281,1,75.0000028610231,10|0,0:2|0:0,0:0:0:0:
355,101,77097,1,2,0:0:0:0:
137,57,77269,6,0,P|103:117|134:201,1,150.000005722046,2|0,1:2|0:0,0:0:0:0:
124,191,77528,1,0,0:0:0:0:
124,191,77614,1,10,0:2:0:0:
399,136,77786,1,0,0:0:0:0:
355,101,77872,1,0,0:0:0:0:
300,99,77958,1,0,0:0:0:0:
254,129,78045,1,0,0:0:0:0:
235,181,78131,2,0,L|241:260,1,75.0000028610231,0|0,1:2|0:0,0:0:0:0:
489,164,78303,2,0,L|495:89,1,75.0000028610231,10|0,0:2|0:0,0:0:0:0:
391,326,78476,1,0,0:0:0:0:
391,326,78562,1,0,0:0:0:0:
391,326,78648,6,0,B|296:317|296:317|270:339|270:339|175:331,1,225.000008583069,2|0,1:2|0:0,0:0:0:0:
97,295,78993,2,0,P|91:332|96:370,1,75.0000028610231,8|0,0:2|0:0,0:0:0:0:
337,240,79165,1,0,0:0:0:0:
281,235,79251,1,0,0:0:0:0:
225,230,79337,1,0,0:0:0:0:
169,226,79423,1,0,0:0:0:0:
113,221,79510,2,0,L|121:122,1,75.0000028610231,0|0,1:2|0:0,0:0:0:0:
202,5,79683,2,0,L|208:79,1,75.0000028610231,8|0,0:2|0:0,0:0:0:0:
281,235,79855,2,0,L|289:136,1,75.0000028610231,0|0,0:0|0:0,0:0:0:0:
480,62,80028,6,0,P|380:53|390:109,1,150.000005722046,2|0,1:2|0:0,0:0:0:0:
393,188,80286,1,2,0:0:0:0:
400,164,80372,2,0,L|393:84,1,75.0000028610231,8|0,0:2|0:0,0:0:0:0:
500,267,80545,6,0,B|450:262|450:262|395:272|395:272|337:267,1,150.000005722046,2|0,0:0|0:0,0:0:0:0:
240,298,80803,1,2,0:0:0:0:
259,280,80890,2,0,P|298:272|333:305,1,75.0000028610231,0|0,1:2|0:0,0:0:0:0:
88,384,81062,6,0,L|102:215,1,150.000005722046,10|0,0:2|0:0,0:0:0:0:
204,205,81321,1,2,0:0:0:0:
185,223,81408,2,0,P|146:231|111:198,1,75.0000028610231,0|0,1:2|0:0,0:0:0:0:
295,110,81579,6,0,L|284:226,1,75.0000028610231,2|0,0:0|0:0,0:0:0:0:
63,154,81752,1,10,0:0:0:0:
34,156,81839,1,2,0:0:0:0:
5,159,81925,1,2,0:0:0:0:
266,24,82096,6,0,L|272:103,1,75.0000028610231,2|0,0:0|0:0,0:0:0:0:
181,310,82269,1,2,1:2:0:0:
191,326,82441,6,0,L|197:246,1,75.0000028610231,10|0,0:2|0:0,0:0:0:0:
106,40,82614,1,2,0:0:0:0:
308,207,82786,6,0,L|482:222,1,150.000005722046,2|0,1:2|0:0,0:0:0:0:
512,279,83045,1,0,0:0:0:0:
498,290,83131,2,0,L|489:377,1,75.0000028610231,10|0,0:2|0:0,0:0:0:0:
382,132,83303,1,0,0:0:0:0:
382,132,83390,1,0,0:0:0:0:
382,132,83476,1,0,0:0:0:0:
398,360,83648,1,0,1:2:0:0:
468,131,83821,2,0,P|481:93|475:44,1,75.0000028610231,10|0,0:2|0:0,0:0:0:0:
305,180,83993,2,0,P|292:142|298:93,1,75.0000028610231,0|0,0:0|0:0,0:0:0:0:
512,200,84165,5,2,1:2:0:0:
266,334,84338,1,0,0:0:0:0:
493,206,84510,1,8,0:2:0:0:
207,117,84683,1,0,0:0:0:0:
202,173,84769,1,0,0:0:0:0:
197,229,84855,1,0,0:0:0:0:
192,285,84941,1,0,0:0:0:0:
186,341,85028,2,0,L|100:332,1,75.0000028610231,0|0,1:2|0:0,0:0:0:0:
0,353,85200,2,0,L|50:283,1,75.0000028610231,8|0,0:2|0:0,0:0:0:0:
82,185,85372,2,0,L|116:263,1,75.0000028610231,0|0,0:0|0:0,0:0:0:0:
315,378,85545,6,0,B|271:319|271:319|299:232,1,150.000005722046,2|0,1:2|0:0,0:0:0:0:
302,147,85803,1,2,0:0:0:0:
321,165,85890,2,0,P|331:216|316:250,1,75.0000028610231,8|0,0:2|0:0,0:0:0:0:
505,69,86062,6,0,P|432:26|371:68,1,150.000005722046,2|0,0:0|0:0,0:0:0:0:
257,44,86321,1,2,0:0:0:0:
276,61,86407,2,0,L|354:67,1,75.0000028610231,0|0,1:2|0:0,0:0:0:0:
182,220,86579,6,0,B|146:148|217:148|182:77,1,150.000005722046,10|0,0:2|0:0,0:0:0:0:
92,2,86838,1,2,0:0:0:0:
97,30,86924,2,0,P|123:62|162:62,1,75.0000028610231,0|0,1:2|0:0,0:0:0:0:
78,201,87096,6,0,P|92:162|73:128,1,75.0000028610231,2|0,0:0|0:0,0:0:0:0:
0,280,87269,1,10,0:0:0:0:
28,282,87355,1,2,0:0:0:0:
57,285,87441,1,2,0:0:0:0:
279,366,87614,6,0,P|270:328|283:283,1,75.0000028610231,2|0,0:0|0:0,0:0:0:0:
379,84,87786,1,2,1:2:0:0:
381,370,87959,6,0,P|390:332|377:287,1,75.0000028610231,10|0,0:2|0:0,0:0:0:0:
281,88,88131,1,2,0:0:0:0:
106,377,88303,6,0,B|81:307|81:307|109:229,1,150.000005722046,2|0,1:2|0:0,0:0:0:0:
281,88,88648,1,10,0:2:0:0:
29,89,88821,1,0,0:0:0:0:
2,137,88907,1,0,0:0:0:0:
10,191,88993,1,0,0:0:0:0:
50,229,89079,1,0,0:0:0:0:
105,234,89165,2,0,P|139:229|188:191,1,75.0000028610231,0|0,1:2|0:0,0:0:0:0:
303,109,89338,2,0,P|288:143|262:170,1,75.0000028610231,10|0,0:2|0:0,0:0:0:0:
245,339,89510,2,0,P|239:305|257:246,1,75.0000028610231,0|0,0:0|0:0,0:0:0:0:
237,13,89683,6,0,B|326:20|326:20|369:45|369:45|474:54,1,225.000008583069,2|0,1:2|0:0,0:0:0:0:
512,142,90028,2,0,L|429:134,1,75.0000028610231,8|0,0:2|0:0,0:0:0:0:
271,149,90200,1,0,0:0:0:0:
327,153,90286,1,0,0:0:0:0:
383,158,90372,1,0,0:0:0:0:
439,163,90458,1,0,0:0:0:0:
495,168,90544,1,0,1:2:0:0:
278,237,90717,2,0,L|124:223,1,150.000005722046,8|0,0:2|0:0,0:0:0:0:
0,3,91062,6,0,B|78:-8|56:58|134:46,1,150.000005722046,2|0,1:2|0:0,0:0:0:0:
151,143,91321,1,2,0:0:0:0:
165,114,91407,2,0,L|172:31,1,75.0000028610231,8|0,0:2|0:0,0:0:0:0:
460,79,91579,6,0,P|365:42|331:78,1,150.000005722046,2|0,0:0|0:0,0:0:0:0:
353,201,91838,1,2,0:0:0:0:
339,172,91924,2,0,L|331:89,1,75.0000028610231,0|0,1:2|0:0,0:0:0:0:
412,327,92096,6,0,B|417:261|417:261|431:250|431:250|437:184,1,150.000005722046,10|0,0:2|0:0,0:0:0:0:
474,49,92355,1,2,0:0:0:0:
460,79,92441,2,0,L|453:157,1,75.0000028610231,0|0,1:2|0:0,0:0:0:0:
326,285,92614,6,0,P|275:294|218:259,1,75.0000028610231,2|0,0:0|0:0,0:0:0:0:
146,59,92786,1,10,0:0:0:0:
149,88,92872,1,2,0:0:0:0:
151,116,92959,2,0,L|142:208,1,75.0000028610231,2|0,0:0|0:0,0:0:0:0:
32,352,93131,5,2,0:0:0:0:
242,166,93303,1,2,1:2:0:0:
300,212,93389,1,0,1:2:0:0:
316,283,93476,1,10,0:2:0:0:
284,350,93561,1,0,1:2:0:0:
218,382,93647,1,2,1:2:0:0:
241,46,93821,6,0,L|407:60,1,150.000005722046,0|0,1:0|0:0,0:0:0:0:
511,213,94165,1,8,1:2:0:0:
326,285,94338,1,0,0:0:0:0:
329,247,94424,1,0,0:0:0:0:
332,210,94510,1,0,0:0:0:0:
336,172,94596,1,0,0:0:0:0:
339,135,94682,1,0,1:0:0:0:
464,368,94855,2,0,L|314:381,1,150.000005722046,8|0,1:2|0:0,0:0:0:0:
151,326,95114,1,0,0:0:0:0:
156,320,95200,6,0,B|234:309|211:376|290:366,1,150.000005722046,0|0,1:0|0:0,0:0:0:0:
242,131,95545,1,8,1:2:0:0:
57,292,95717,2,0,L|49:377,1,75.0000028610231,0|0,0:0|0:0,0:0:0:0:
224,212,95890,2,0,L|217:137,1,75.0000028610231,0|0,0:0|0:0,0:0:0:0:
11,39,96062,1,0,1:0:0:0:
135,235,96234,1,8,1:2:0:0:
133,0,96407,1,0,0:0:0:0:
133,0,96493,1,0,0:0:0:0:
133,0,96579,6,0,B|189:4|189:4|216:28|216:28|275:33,1,150.000005722046,0|0,1:0|0:0,0:0:0:0:
438,21,96838,1,0,0:0:0:0:
444,30,96924,2,0,P|453:68|428:119,1,75.0000028610231,8|0,1:2|0:0,0:0:0:0:
299,325,97096,1,0,0:0:0:0:
301,302,97183,1,0,0:0:0:0:
303,279,97269,1,0,0:0:0:0:
306,256,97355,1,0,0:0:0:0:
309,233,97441,1,0,1:0:0:0:
359,62,97614,1,8,1:2:0:0:
502,179,97786,1,0,0:0:0:0:
505,202,97872,1,0,0:0:0:0:
508,225,97959,6,0,P|445:237|391:172,1,150.000005722046,0|0,1:0|0:0,0:0:0:0:
224,41,98303,2,0,P|265:89|236:168,1,150.000005722046,8|0,1:2|0:0,0:0:0:0:
205,177,98562,1,0,0:0:0:0:
168,177,98648,1,0,0:0:0:0:
133,163,98734,1,0,0:0:0:0:
99,150,98820,1,0,1:0:0:0:
61,151,98907,1,0,0:0:0:0:
26,164,98993,2,0,L|18:253,1,75.0000028610231,8|0,1:2|0:0,0:0:0:0:
174,348,99165,1,0,0:0:0:0:
194,307,99252,1,0,0:0:0:0:
189,262,99338,5,0,1:0:0:0:
12,80,99510,1,0,0:0:0:0:
241,164,99683,2,0,L|405:149,1,150.000005722046,8|0,1:2|0:0,0:0:0:0:
460,263,99941,1,0,0:0:0:0:
468,260,100028,2,0,P|477:248|468:185,1,75.0000028610231,0|0,0:0|0:0,0:0:0:0:
306,249,100200,2,0,P|297:261|306:324,1,75.0000028610231,0|0,1:0|0:0,0:0:0:0:
468,103,100372,1,8,1:2:0:0:
190,9,100545,1,0,0:0:0:0:
190,9,100631,1,0,0:0:0:0:
190,9,100717,6,0,P|137:80|179:161,1,150.000005722046,0|0,1:0|0:0,0:0:0:0:
414,21,101062,1,8,1:2:0:0:
150,134,101234,1,0,0:0:0:0:
153,171,101320,1,0,0:0:0:0:
157,208,101406,1,0,0:0:0:0:
160,246,101492,1,0,0:0:0:0:
164,283,101578,1,0,1:0:0:0:
292,106,101752,2,0,B|228:111|228:111|214:128|214:128|151:134,1,150.000005722046,8|0,1:2|0:0,0:0:0:0:
7,217,102010,1,0,0:0:0:0:
0,209,102096,6,0,L|12:49,1,150.000005722046,0|0,1:0|0:0,0:0:0:0:
77,300,102441,1,8,1:2:0:0:
230,55,102614,1,0,0:0:0:0:
262,98,102700,1,0,0:0:0:0:
245,150,102786,1,0,0:0:0:0:
194,166,102872,1,0,0:0:0:0:
150,134,102959,2,0,P|131:102|141:57,1,75.0000028610231,0|0,1:0|0:0,0:0:0:0:
346,84,103131,2,0,P|348:46|382:15,1,75.0000028610231,8|0,1:2|0:0,0:0:0:0:
486,232,103303,1,0,0:0:0:0:
486,232,103390,1,0,0:0:0:0:
486,232,103476,6,0,L|472:403,1,150.000005722046,0|0,1:0|0:0,0:0:0:0:
245,150,103821,1,8,0:0:0:0:
493,28,103993,1,0,0:0:0:0:
497,84,104079,1,0,0:0:0:0:
502,140,104165,1,0,0:0:0:0:
507,196,104251,1,0,0:0:0:0:
512,252,104337,1,0,1:0:0:0:
472,275,104424,1,0,0:0:0:0:
427,267,104510,1,8,1:2:0:0:
213,71,104683,1,0,0:0:0:0:
258,63,104769,1,0,0:0:0:0:
298,86,104855,6,0,P|329:162|290:221,1,150.000005722046,0|0,1:0|0:0,0:0:0:0:
297,215,105114,1,0,0:0:0:0:
297,215,105200,1,8,1:2:0:0:
73,169,105372,1,0,0:0:0:0:
120,141,105458,1,0,0:0:0:0:
175,148,105544,1,0,0:0:0:0:
215,187,105630,1,0,0:0:0:0:
222,242,105716,1,0,1:0:0:0:
22,233,105890,2,0,L|38:49,1,150.000005722046,8|0,1:2|0:0,0:0:0:0:
149,58,106148,1,0,0:0:0:0:
156,67,106234,6,0,L|250:59,1,75.0000028610231,0|0,1:0|0:0,0:0:0:0:
372,122,106407,2,0,L|277:114,1,75.0000028610231,0|0,0:0|0:0,0:0:0:0:
511,29,106579,1,8,1:2:0:0:
457,273,106752,1,0,0:0:0:0:
460,235,106838,1,0,0:0:0:0:
463,198,106924,1,0,0:0:0:0:
466,160,107010,1,0,0:0:0:0:
470,123,107096,1,0,1:0:0:0:
512,362,107269,2,0,L|315:343,1,150.000005722046,8|0,1:2|0:0,0:0:0:0:
209,290,107528,1,0,0:0:0:0:
216,280,107614,6,0,B|294:269|271:336|350:326,1,150.000005722046,0|0,1:0|0:0,0:0:0:0:
193,191,107959,1,8,1:2:0:0:
2,338,108131,1,0,0:0:0:0:
58,343,108217,1,0,0:0:0:0:
114,348,108303,1,0,0:0:0:0:
170,353,108389,1,0,0:0:0:0:
226,358,108475,1,0,1:0:0:0:
273,130,108648,1,8,1:2:0:0:
88,268,108821,1,0,0:0:0:0:
88,268,108907,1,0,0:0:0:0:
88,268,108993,6,0,P|70:184|104:110,1,150.000005722046,0|0,1:0|0:0,0:0:0:0:
308,26,109338,2,0,P|326:97|304:168,1,150.000005722046,8|0,1:2|0:0,0:0:0:0:
266,164,109597,1,0,0:0:0:0:
229,161,109683,1,0,0:0:0:0:
197,146,109769,1,0,0:0:0:0:
166,132,109855,1,0,1:0:0:0:
129,128,109942,1,0,0:0:0:0:
91,125,110028,2,0,L|-6:116,1,75.0000028610231,8|0,1:2|0:0,0:0:0:0:
244,249,110200,1,0,0:0:0:0:
281,253,110287,1,0,0:0:0:0:
319,256,110372,5,2,1:2:0:0:
366,227,110458,1,2,0:2:0:0:
386,176,110544,1,2,0:2:0:0:
371,123,110630,1,2,0:2:0:0:
326,91,110716,1,10,1:2:0:0:
327,146,110803,1,2,0:2:0:0:
363,187,110889,1,2,0:2:0:0:
417,197,110975,1,2,0:2:0:0:
465,169,111061,5,2,0:2:0:0:
489,219,111148,1,2,0:2:0:0:
489,275,111234,1,2,1:2:0:0:
467,326,111320,1,2,0:2:0:0:
425,363,111406,1,10,1:2:0:0:
371,379,111493,1,2,0:2:0:0:
316,370,111579,1,2,0:2:0:0:
269,340,111665,1,2,0:2:0:0:
253,287,111751,5,2,1:2:0:0:
262,233,111838,1,2,0:2:0:0:
230,188,111924,1,2,0:2:0:0:
176,181,112010,1,2,0:2:0:0:
132,214,112096,1,10,1:2:0:0:
89,246,112183,1,2,0:2:0:0:
35,239,112269,1,2,0:2:0:0:
3,194,112355,1,2,0:2:0:0:
12,141,112442,5,2,0:2:0:0:
68,145,112528,1,2,0:2:0:0:
124,150,112614,1,2,1:2:0:0:
180,155,112700,1,2,0:2:0:0:
236,160,112786,1,10,1:2:0:0:
292,155,112873,1,2,0:2:0:0:
348,150,112959,1,2,0:2:0:0:
404,145,113045,1,2,0:2:0:0:
460,141,113131,5,2,1:2:0:0:
310,0,113303,1,0,0:0:0:0:
512,53,113476,1,8,1:2:0:0:
428,239,113648,2,0,L|329:247,1,75.0000028610231
437,46,113821,6,0,L|535:54,1,75.0000028610231
236,160,113993,1,0,1:0:0:0:
512,208,114165,1,8,1:2:0:0:
311,322,114338,1,0,0:0:0:0:
356,74,114510,5,8,0:0:0:0:
44,53,114683,5,8,0:0:0:0:
41,96,114769,1,8,0:0:0:0:
37,140,114855,1,8,0:0:0:0:
148,60,115027,5,8,0:0:0:0:
145,103,115114,1,8,0:0:0:0:
141,147,115200,1,8,0:0:0:0:
252,67,115372,5,8,0:0:0:0:
249,110,115458,1,8,0:0:0:0:
245,154,115544,1,8,0:0:0:0:
356,74,115718,5,8,0:0:0:0:
353,117,115804,1,8,0:0:0:0:
349,161,115890,6,0,B|419:196|419:125|490:161,1,150.000005722046,0|10,1:0|0:0,0:0:0:0:
329,243,116407,1,0,1:0:0:0:
329,243,116579,2,0,L|248:235,1,75.0000028610231,2|10,0:0|0:0,0:0:0:0:
69,248,116924,1,2,1:2:0:0:
133,159,117096,2,0,P|159:188|160:233,1,75.0000028610231,2|0,0:0|1:2,0:0:0:0:
64,341,117441,6,0,B|43:302|43:302|56:197,1,150.000005722046,10|2,0:0|1:2,0:0:0:0:
9,129,117959,2,0,L|1:54,1,75.0000028610231,8|0,0:0|0:0,0:0:0:0:
82,1,118303,1,8,0:0:0:0:
224,110,118476,5,2,1:2:0:0:
237,123,118648,1,2,1:2:0:0:
219,127,118821,1,2,0:2:0:0:
298,12,118993,1,10,0:2:0:0:
341,172,119165,1,0,1:2:0:0:
438,56,119338,2,0,L|449:188,1,112.500004291535,2|0,1:2|0:0,0:0:0:0:
443,195,119683,1,10,0:2:0:0:
354,87,119855,1,0,1:2:0:0:
301,252,120028,6,0,L|128:236,1,150.000005722046,2|10,1:2|0:2,0:0:0:0:
150,147,120545,1,0,1:2:0:0:
62,252,120717,2,0,P|83:299|66:348,1,75.0000028610231,2|0,1:2|0:0,0:0:0:0:
0,184,121062,1,8,0:2:0:0:
364,323,121407,6,0,L|361:342,7,18.7500007152558,0|0|0|0|0|0|0|0,1:0|1:0|1:0|1:0|1:0|1:0|1:0|1:0,0:0:0:0:
385,300,121752,1,2,1:2:0:0:
506,201,121924,1,8,0:2:0:0:
506,201,122096,1,2,0:2:0:0:
319,125,122269,1,8,0:2:0:0:
406,207,122441,1,2,1:2:0:0:
406,207,122614,1,2,0:2:0:0:
506,49,122786,5,8,0:2:0:0:
419,12,122959,2,0,P|359:-7|254:27,1,150.000005722046,2|10,1:2|0:2,0:0:0:0:
226,104,123476,2,0,P|257:57|260:27,1,75.0000028610231,0|0,1:2|0:0,0:0:0:0:
140,61,123821,1,8,0:2:0:0:
263,210,123993,5,2,1:2:0:0:
276,197,124165,1,2,1:2:0:0:
258,193,124338,1,2,0:2:0:0:
66,183,124510,1,10,0:2:0:0:
210,296,124683,2,0,B|294:303|294:303|313:326|313:326|398:333,1,200,2|2,1:2|0:2,0:0:0:0:
425,319,125114,1,2,0:2:0:0:
433,290,125200,1,2,0:2:0:0:
329,145,125372,1,2,1:2:0:0:
510,200,125545,5,0,1:2:0:0:
510,200,125631,1,0,1:2:0:0:
363,234,125803,1,0,1:2:0:0:
363,234,125890,1,8,0:2:0:0:
406,105,126062,1,0,1:2:0:0:
439,107,126148,1,8,0:2:0:0:
472,110,126234,1,0,1:2:0:0:
505,113,126320,1,8,0:2:0:0:
370,31,126493,1,0,1:2:0:0:
337,34,126579,2,0,L|172:19,1,150,8|0,0:2|1:2,0:0:0:0:
19,29,126924,6,0,P|98:19|119:-27,1,100,0|0,1:2|0:0,0:0:0:0:
192,107,127269,1,10,0:0:0:0:
170,220,127441,2,0,L|187:16,1,200,0|10,1:0|0:0,0:0:0:0:
275,206,127959,1,2,1:2:0:0:
275,206,128131,1,2,0:0:0:0:
56,296,128303,5,0,1:2:0:0:
120,233,128476,2,0,B|225:219|194:308|299:294,1,200,10|2,0:0|1:2,0:0:0:0:
450,261,128993,2,0,P|365:231|332:257,1,100,8|0,0:0|0:0,0:0:0:0:
496,335,129338,1,8,0:0:0:0:
383,144,129510,5,2,1:2:0:0:
453,75,129683,1,2,1:2:0:0:
477,170,129855,1,2,0:2:0:0:
288,43,130028,1,10,0:2:0:0:
395,6,130200,1,0,1:2:0:0:
268,54,130372,2,0,L|150:43,1,100,2|0,1:2|0:0,0:0:0:0:
19,159,130717,1,10,0:2:0:0:
95,0,130890,1,0,1:2:0:0:
250,133,131062,5,2,1:2:0:0:
257,149,131148,1,0,0:0:0:0:
262,168,131234,1,0,0:0:0:0:
262,186,131320,1,0,0:0:0:0:
259,205,131406,1,10,0:2:0:0:
122,282,131579,1,0,1:2:0:0:
135,295,131665,1,0,0:0:0:0:
151,305,131752,2,0,L|256:295,1,100,2|0,1:2|0:0,0:0:0:0:
346,143,132096,1,8,0:2:0:0:
346,143,132441,6,0,L|434:135,1,75.0000028610231,2|0,1:2|0:0,0:0:0:0:
512,162,132786,2,0,L|423:154,1,75.0000028610231,0|0,0:0|0:0,0:0:0:0:
289,240,133131,6,0,L|416:228,1,100,2|0,1:2|1:2,0:0:0:0:
512,257,133476,2,0,L|410:248,1,100,0|0,1:2|1:2,0:0:0:0:
186,312,133821,5,2,1:2:0:0:
258,158,133993,1,0,1:2:0:0:
316,363,134165,1,0,1:2:0:0:
255,141,134338,1,0,1:2:0:0:
118,384,134510,5,2,1:2:0:0:
328,247,134683,1,0,1:2:0:0:
106,226,134855,1,0,1:2:0:0:
316,363,135028,1,0,1:2:0:0:
441,106,135200,5,2,1:2:0:0:
254,297,135372,1,0,1:2:0:0:
443,295,135545,1,0,1:2:0:0:
252,108,135717,1,0,1:2:0:0:
134,366,135890,5,2,1:2:0:0:
399,197,136062,1,0,1:2:0:0:
113,210,136234,1,0,1:2:0:0:
378,41,136406,1,0,1:2:0:0:
401,370,136579,5,2,1:2:0:0:
252,108,136752,1,0,1:2:0:0:
407,382,136924,1,0,1:2:0:0:
495,77,137096,1,0,1:2:0:0:
104,46,137269,5,2,1:2:0:0:
499,236,137441,1,0,1:2:0:0:
499,236,137959,6,0,B|415:224|440:296|355:284,1,160,2|0,1:2|0:0,0:0:0:0:
140,103,138303,1,10,0:0:0:0:
172,366,138476,1,0,0:0:0:0:
228,350,138562,1,0,0:0:0:0:
263,303,138648,1,2,0:0:0:0:
259,244,138734,1,0,0:0:0:0:
219,201,138821,2,0,L|128:194,1,80,2|0,1:2|0:0,0:0:0:0:
88,348,138993,2,0,L|8:354,1,80,10|0,0:0|0:0,0:0:0:0:
0,154,139165,1,2,0:0:0:0:
172,366,139338,5,0,1:2:0:0:
340,263,139510,2,0,L|348:164,1,80,2|0,0:0|0:0,0:0:0:0:
140,103,139683,1,8,0:0:0:0:
447,35,139855,1,2,0:0:0:0:
444,74,139941,1,0,0:0:0:0:
441,114,140027,1,0,0:0:0:0:
437,154,140113,1,0,0:0:0:0:
434,194,140199,1,0,1:2:0:0:
277,58,140372,1,8,0:0:0:0:
249,267,140545,6,0,P|258:305|293:337,1,80,2|0,0:0|0:0,0:0:0:0:
143,204,140717,2,0,P|128:240|138:286,1,80,2|0,1:2|0:0,0:0:0:0:
92,91,140890,2,0,P|59:112|41:156,1,80,2|0,0:0|0:0,0:0:0:0:
335,149,141062,6,0,P|240:130|241:190,1,160,10|0,0:0|0:0,0:0:0:0:
362,44,141321,1,0,0:0:0:0:
362,44,141407,2,0,L|460:52,1,80,2|0,0:0|0:0,0:0:0:0:
355,237,141579,1,0,1:2:0:0:
196,43,141752,1,10,0:0:0:0:
510,138,141924,1,0,0:0:0:0:
510,138,142010,1,0,0:0:0:0:
510,138,142096,6,0,B|504:202|504:202|486:218|486:218|479:295,1,160,2|0,1:2|0:0,0:0:0:0:
152,333,142441,2,0,B|145:261|145:261|127:246|127:246|122:181,1,160,10|0,0:0|0:0,0:0:0:0:
154,158,142701,1,0,0:0:0:0:
193,152,142787,1,2,0:0:0:0:
231,164,142873,1,0,0:0:0:0:
259,192,142959,1,0,1:2:0:0:
272,229,143046,1,0,0:0:0:0:
267,269,143132,1,8,0:0:0:0:
67,123,143303,1,0,0:0:0:0:
72,74,143390,1,0,0:0:0:0:
77,27,143476,6,0,L|244:41,1,160,2|0,1:2|0:0,0:0:0:0:
463,105,143821,1,10,0:0:0:0:
340,325,143993,1,0,0:0:0:0:
340,325,144079,1,0,0:0:0:0:
340,325,144165,2,0,L|347:238,1,80,2|0,0:0|0:0,0:0:0:0:
194,126,144338,2,0,L|186:212,1,80,2|0,1:2|0:0,0:0:0:0:
45,343,144510,2,0,L|37:256,1,80,10|0,0:0|0:0,0:0:0:0:
0,42,144683,1,2,0:0:0:0:
287,128,144855,6,0,B|370:116|346:188|430:177,1,160,0|2,1:2|0:0,0:0:0:0:
476,84,145114,1,0,0:0:0:0:
463,105,145200,2,0,L|455:190,1,80,8|0,0:0|0:0,0:0:0:0:
253,345,145372,1,2,0:0:0:0:
257,296,145459,1,0,0:0:0:0:
262,248,145545,1,0,0:0:0:0:
267,200,145631,1,0,0:0:0:0:
272,152,145717,1,0,1:2:0:0:
449,363,145890,1,8,0:0:0:0:
118,328,146062,6,0,B|94:297|94:297|93:242,1,80,2|0,0:0|0:0,0:0:0:0:
43,106,146234,2,0,B|81:100|81:100|129:127,1,80,2|0,1:2|0:0,0:0:0:0:
272,152,146407,2,0,B|257:188|257:188|210:216,1,80,2|0,0:0|0:0,0:0:0:0:
3,199,146579,1,10,0:0:0:0:
230,24,146752,1,2,0:0:0:0:
285,3,146838,1,0,0:0:0:0:
340,22,146924,1,0,0:0:0:0:
371,72,147010,1,0,0:0:0:0:
363,130,147096,1,2,1:2:0:0:
135,26,147269,1,10,0:0:0:0:
346,218,147441,1,0,0:0:0:0:
120,370,147614,6,0,L|104:195,1,160,0|0,1:2|0:0,0:0:0:0:
246,84,147959,1,8,0:0:0:0:
24,146,148131,1,0,0:0:0:0:
74,127,148217,1,0,1:2:0:0:
127,126,148303,1,0,0:0:0:0:
177,146,148389,1,0,0:0:0:0:
226,165,148475,1,0,1:2:0:0:
279,164,148562,1,0,0:0:0:0:
329,145,148648,2,0,P|373:139|422:162,1,80,8|0,0:0|1:2,0:0:0:0:
243,343,148821,1,0,0:0:0:0:
219,301,148907,1,0,0:0:0:0:
227,253,148993,6,0,P|296:261|319:346,1,160,2|0,1:2|0:0,0:0:0:0:
512,196,149338,2,0,P|470:251|385:229,1,160,10|0,0:0|0:0,0:0:0:0:
484,113,149596,1,0,0:0:0:0:
492,94,149683,2,0,L|499:10,1,80,2|0,0:0|0:0,0:0:0:0:
322,65,149855,2,0,L|329:148,1,80,2|0,1:2|0:0,0:0:0:0:
153,93,150028,2,0,L|160:9,1,80,10|0,0:0|0:0,0:0:0:0:
32,221,150200,1,2,0:0:0:0:
32,221,150286,1,0,0:0:0:0:
32,221,150372,6,0,B|89:226|89:226|115:254|115:254|185:260,1,160,0|2,1:2|0:0,0:0:0:0:
413,346,150717,1,8,0:0:0:0:
236,90,150890,1,2,0:0:0:0:
231,128,150976,1,0,0:0:0:0:
227,167,151062,2,0,L|315:174,1,80,0|0,0:0|0:0,0:0:0:0:
109,343,151234,2,0,L|20:350,1,80,0|0,1:2|0:0,0:0:0:0:
370,260,151407,1,8,0:0:0:0:
126,150,151579,6,0,P|105:132|96:72,1,80,2|0,0:0|0:0,0:0:0:0:
215,240,151752,2,0,P|208:213|235:158,1,80,2|0,1:2|0:0,0:0:0:0:
236,364,151924,2,0,P|245:338|299:309,1,80,2|0,0:0|0:0,0:0:0:0:
441,185,152096,6,0,B|365:159|365:159|308:219,1,160,10|0,0:0|0:0,0:0:0:0:
487,337,152355,1,0,0:0:0:0:
487,337,152441,2,0,L|495:244,1,80,2|0,0:0|0:0,0:0:0:0:
292,95,152614,1,0,1:2:0:0:
386,356,152786,1,10,0:0:0:0:
512,109,152959,1,0,0:0:0:0:
512,109,153045,1,0,0:0:0:0:
512,109,153131,6,0,P|444:52|373:103,1,160,2|0,1:2|0:0,0:0:0:0:
249,298,153476,2,0,P|176:321|124:266,1,160,8|0,0:0|0:0,0:0:0:0:
123,226,153734,1,0,0:0:0:0:
136,188,153820,1,2,0:0:0:0:
163,158,153906,1,0,0:0:0:0:
189,128,153992,1,0,1:2:0:0:
202,91,154079,1,0,0:0:0:0:
201,51,154165,2,0,P|180:37|124:41,1,80,8|0,0:0|0:0,0:0:0:0:
0,138,154338,1,0,0:0:0:0:
37,151,154424,1,0,0:0:0:0:
73,135,154510,5,2,1:2:0:0:
160,354,154683,1,0,0:0:0:0:
295,201,154855,2,0,L|127:186,1,160,10|0,0:0|0:0,0:0:0:0:
135,187,155114,1,0,0:0:0:0:
135,187,155200,1,2,0:0:0:0:
378,150,155373,2,0,L|460:157,1,80,2|0,1:2|0:0,0:0:0:0:
202,91,155545,2,0,L|119:83,1,80,10|0,0:0|0:0,0:0:0:0:
387,46,155717,2,0,L|470:54,1,80,2|0,0:0|0:0,0:0:0:0:
443,263,155890,5,0,1:2:0:0:
302,75,156062,2,0,P|295:50|314:-6,1,80,2|0,0:0|0:0,0:0:0:0:
212,278,156234,1,8,0:0:0:0:
457,156,156407,1,2,0:0:0:0:
397,161,156493,1,0,0:0:0:0:
337,166,156579,1,0,0:0:0:0:
277,171,156665,1,0,0:0:0:0:
217,176,156751,1,0,1:2:0:0:
26,384,156924,1,8,0:0:0:0:
100,50,157096,6,0,L|93:129,1,80,2|0,0:0|0:0,0:0:0:0:
212,278,157269,2,0,L|205:198,1,80,2|0,1:2|0:0,0:0:0:0:
319,57,157441,2,0,L|325:136,1,80,2|0,0:0|0:0,0:0:0:0:
449,342,157614,6,0,B|411:266|486:266|449:190,1,160,8|0,0:0|0:0,0:0:0:0:
278,348,157872,1,0,0:0:0:0:
278,348,157959,2,0,P|343:359|371:339,1,80,2|0,0:0|0:0,0:0:0:0:
414,97,158131,1,0,1:2:0:0:
212,278,158303,1,10,0:0:0:0:
423,11,158476,1,0,1:2:0:0:
423,11,158562,1,0,0:0:0:0:
423,11,158648,5,2,1:2:0:0:
240,93,158821,1,0,1:2:0:0:
322,276,158993,1,10,0:0:0:0:
505,194,159165,1,0,1:2:0:0:
240,93,159338,5,2,1:2:0:0:
169,61,159424,1,0,0:0:0:0:
100,96,159510,1,0,1:2:0:0:
83,171,159596,1,0,0:0:0:0:
132,232,159682,1,10,0:0:0:0:
414,97,159855,1,0,1:2:0:0:
374,100,159941,1,0,0:0:0:0:
333,104,160028,6,0,B|307:139|307:139|318:260,1,160,2|0,1:2|0:0,0:0:0:0:
512,331,160372,1,10,1:2:0:0:
472,334,160458,1,2,0:0:0:0:
432,337,160544,1,2,0:0:0:0:
392,341,160630,1,2,0:0:0:0:
352,344,160717,2,0,L|343:247,1,80,2|0,0:0|0:0,0:0:0:0:
500,153,160890,2,0,L|493:232,1,80,0|0,1:2|0:0,0:0:0:0:
294,106,161062,2,0,L|390:97,1,80,10|0,1:2|0:0,0:0:0:0:
192,272,161234,1,2,0:0:0:0:
192,272,161321,1,0,0:0:0:0:
192,272,161407,6,0,P|162:199|216:126,1,160,0|2,1:2|0:0,0:0:0:0:
284,4,161665,1,0,0:0:0:0:
269,25,161752,2,0,P|241:31|193:14,1,80,8|0,1:2|0:0,0:0:0:0:
49,85,161924,2,0,P|85:69|124:74,1,80,2|0,0:0|0:0,0:0:0:0:
255,206,162096,1,2,0:0:0:0:
19,342,162269,1,0,1:2:0:0:
232,122,162441,6,0,B|296:127|296:127|315:150|315:150|380:156,1,160,8|2,1:2|0:0,0:0:0:0:
469,84,162700,1,2,0:0:0:0:
455,72,162786,2,0,L|463:167,1,80,2|0,1:2|0:0,0:0:0:0:
416,308,162959,2,0,L|422:228,1,80,2|0,0:0|0:0,0:0:0:0:
325,44,163131,2,0,L|146:28,1,160,10|0,1:2|0:0,0:0:0:0:
173,38,163390,1,0,0:0:0:0:
173,38,163476,2,0,L|82:45,1,80,2|0,0:0|0:0,0:0:0:0:
30,238,163648,1,0,1:2:0:0:
245,281,163821,2,0,L|230:111,1,160,10|0,1:2|0:0,0:0:0:0:
141,257,164079,1,0,0:0:0:0:
120,272,164165,6,0,P|115:341|203:354,1,160,2|0,1:2|0:0,0:0:0:0:
388,309,164510,1,10,1:2:0:0:
354,262,164596,1,2,0:0:0:0:
296,261,164682,1,2,0:0:0:0:
262,308,164768,1,2,0:0:0:0:
279,363,164855,2,0,P|315:382|361:378,1,80,2|0,0:0|0:0,0:0:0:0:
326,178,165028,1,0,1:2:0:0:
328,121,165114,1,0,0:0:0:0:
332,66,165200,1,8,1:2:0:0:
22,109,165372,1,0,0:0:0:0:
26,164,165458,1,0,0:0:0:0:
28,221,165545,6,0,B|154:237|117:130|243:146,1,240,2|0,1:2|0:0,0:0:0:0:
326,178,165890,2,0,L|222:168,1,80,10|0,1:2|0:0,0:0:0:0:
98,58,166062,2,0,L|201:67,1,80,2|0,0:0|0:0,0:0:0:0:
205,271,166234,1,2,0:0:0:0:
205,271,166321,1,0,0:0:0:0:
205,271,166407,1,0,1:2:0:0:
359,93,166579,2,0,L|367:2,1,80,10|0,1:2|0:0,0:0:0:0:
298,277,166752,2,0,L|305:356,1,80,2|0,0:0|0:0,0:0:0:0:
266,62,166924,5,0,1:2:0:0:
468,250,167096,1,2,0:0:0:0:
483,264,167183,2,0,P|492:294|481:361,1,80,2|8,0:0|0:0,0:0:0:0:
417,148,167354,1,2,0:0:0:0:
431,133,167441,2,0,P|461:124|528:135,1,80,2|0,0:0|0:0,0:0:0:0:
355,244,167614,2,0,L|313:240,3,40,2|2|2|2,0:0|0:0|0:0|0:0,0:0:0:0:
301,255,167786,2,0,L|293:169,1,80,2|0,1:2|0:0,0:0:0:0:
173,21,167959,2,0,B|232:67|232:67|212:158,1,160,10|2,1:2|0:0,0:0:0:0:
71,59,168217,1,2,0:0:0:0:
90,38,168303,6,0,B|84:105|84:105|65:120|65:120|59:188,1,160,0|0,1:2|0:0,0:0:0:0:
170,376,168648,1,10,1:2:0:0:
192,321,168734,1,2,0:0:0:0:
170,267,168820,1,2,0:0:0:0:
116,245,168906,1,2,0:0:0:0:
62,267,168992,1,2,0:0:0:0:
108,285,169079,1,2,0:0:0:0:
157,284,169165,1,2,1:2:0:0:
203,264,169251,1,0,0:0:0:0:
238,229,169337,1,10,1:2:0:0:
433,128,169510,1,2,0:0:0:0:
433,128,169596,1,2,0:0:0:0:
433,128,169683,6,0,L|495:133,7,40,2|2|2|2|2|2|2|2,1:2|0:0|1:2|0:0|0:0|0:0|0:0|0:0,0:0:0:0:
426,158,170028,2,0,L|247:142,1,160,10|0,1:2|1:2,0:0:0:0:
192,119,170286,1,0,1:2:0:0:
190,157,170372,1,0,0:0:0:0:
187,197,170459,1,0,0:0:0:0:
183,236,170545,1,0,1:2:0:0:
181,274,170631,1,0,1:2:0:0:
178,314,170718,1,8,0:0:0:0:
421,384,170890,1,8,0:0:0:0:
424,344,170977,1,0,1:2:0:0:
426,306,171062,6,0,B|463:230|388:230|426:154,1,160,2|0,1:2|0:0,0:0:0:0:
271,31,171407,1,10,1:2:0:0:
195,190,171579,1,0,0:0:0:0:
219,229,171665,1,0,0:0:0:0:
261,244,171752,2,0,P|300:229|307:170,1,80,2|0,0:0|0:0,0:0:0:0:
98,219,171924,2,0,P|91:260|139:295,1,80,2|0,1:2|0:0,0:0:0:0:
201,90,172096,2,0,P|168:63|113:87,1,80,10|0,1:2|0:0,0:0:0:0:
207,331,172269,1,2,0:0:0:0:
302,99,172441,5,0,1:2:0:0:
79,135,172614,2,0,L|0:141,1,80,2|0,0:0|0:0,0:0:0:0:
261,244,172786,1,8,1:2:0:0:
341,20,172959,1,2,0:0:0:0:
282,12,173045,1,0,0:0:0:0:
232,44,173131,1,0,0:0:0:0:
214,100,173217,1,0,0:0:0:0:
234,155,173303,2,0,P|273:169|318:178,1,80,2|0,1:2|0:0,0:0:0:0:
472,89,173476,2,0,P|432:97|395:111,1,80,10|0,1:2|0:0,0:0:0:0:
484,338,173648,1,2,0:0:0:0:
488,282,173734,1,2,0:0:0:0:
494,225,173821,6,0,L|405:217,1,80,2|0,1:2|0:0,0:0:0:0:
179,372,173993,1,2,0:0:0:0:
175,316,174079,1,2,0:0:0:0:
169,259,174166,2,0,L|257:251,1,80,10|0,1:2|0:0,0:0:0:0:
375,359,174338,2,0,L|286:351,1,80,0|0,0:0|0:0,0:0:0:0:
146,166,174510,1,2,0:0:0:0:
345,270,174683,1,0,1:2:0:0:
63,222,174855,2,0,L|48:58,1,160,10|0,1:2|0:0,0:0:0:0:
379,132,175200,5,2,1:2:0:0:
307,164,175286,1,2,0:0:0:0:
230,148,175372,1,2,0:0:0:0:
179,89,175458,1,2,0:0:0:0:
173,10,175545,2,0,L|266:18,1,80,10|2,1:2|0:0,0:0:0:0:
467,94,175717,1,0,0:0:0:0:
380,314,175890,1,2,0:0:0:0:
383,274,175976,1,0,0:0:0:0:
386,234,176062,1,0,1:2:0:0:
390,194,176148,1,0,0:0:0:0:
393,154,176234,1,8,1:2:0:0:
479,262,176407,1,0,0:0:0:0:
302,368,176579,6,0,P|244:378|175:301,1,150.000005722046,2|0,0:0|0:0,0:0:0:0:
270,107,177269,2,0,P|328:97|397:174,1,150.000005722046,2|0,0:0|0:0,0:0:0:0:
81,124,177959,6,0,P|72:74|78:44,1,75.0000028610231,2|0,1:2|1:2,0:0:0:0:
264,33,178303,2,0,P|273:83|267:113,1,75.0000028610231,0|0,1:2|1:2,0:0:0:0:
130,260,178648,6,0,P|121:310|127:340,1,75.0000028610231,2|0,1:2|1:2,0:0:0:0:
313,351,178994,2,0,P|322:301|316:271,1,75.0000028610231,0|0,1:2|1:0,0:0:0:0:
175,113,179338,5,2,1:2:0:0:
222,308,179510,1,0,1:2:0:0:
348,164,179683,1,0,1:2:0:0:
214,330,179855,1,0,1:2:0:0:
285,62,180028,5,2,1:2:0:0:
415,222,180200,1,0,1:2:0:0:
430,77,180372,1,0,1:2:0:0:
270,207,180544,1,0,1:2:0:0:
13,76,180717,5,0,1:2:0:0:
211,25,180889,1,0,1:2:0:0:
261,223,181061,1,0,1:2:0:0:
65,272,181234,1,2,1:2:0:0:
80,3,181407,5,0,1:2:0:0:
230,313,181579,1,0,1:2:0:0:
230,313,182096,6,0,L|416:329,1,150.000005722046,2|0,1:2|0:0,0:0:0:0:
248,125,182441,1,10,0:2:0:0:
13,235,182614,1,0,0:0:0:0:
10,264,182700,1,0,0:0:0:0:
6,294,182786,2,0,L|-1:378,1,75.0000028610231,0|0,0:0|0:0,0:0:0:0:
110,152,182959,2,0,L|103:77,1,75.0000028610231,0|0,1:2|0:0,0:0:0:0:
279,219,183131,2,0,L|465:235,1,150.000005722046,10|0,0:2|0:0,0:0:0:0:
280,132,183390,1,0,0:0:0:0:
248,125,183476,6,0,B|169:115|193:182|114:173,1,150.000005722046,2|0,1:2|0:0,0:0:0:0:
0,0,183821,1,8,0:2:0:0:
292,38,183993,1,0,0:0:0:0:
343,58,184079,1,0,0:0:0:0:
374,104,184165,1,0,0:0:0:0:
375,159,184251,1,0,0:0:0:0:
344,204,184338,2,0,L|231:215,1,75.0000028610231,0|0,1:2|0:0,0:0:0:0:
98,264,184510,2,0,L|210:274,1,75.0000028610231,8|0,0:2|0:0,0:0:0:0:
372,297,184683,2,0,L|259:307,1,75.0000028610231,0|0,0:0|0:0,0:0:0:0:
59,336,184855,6,0,P|16:264|64:191,1,150.000005722046,2|0,1:2|0:0,0:0:0:0:
149,155,185114,1,2,0:0:0:0:
129,174,185200,2,0,L|46:166,1,75.0000028610231,8|0,0:2|0:0,0:0:0:0:
220,102,185372,6,0,B|283:107|283:107|297:124|297:124|360:130,1,150.000005722046,2|0,0:0|0:0,0:0:0:0:
433,38,185631,1,2,0:0:0:0:
409,47,185717,2,0,P|393:89|422:144,1,75.0000028610231,0|0,1:2|0:0,0:0:0:0:
369,350,185890,6,0,B|333:279|404:279|369:208,1,150.000005722046,10|0,0:2|0:0,0:0:0:0:
498,204,186148,1,2,0:0:0:0:
479,186,186234,2,0,L|388:193,1,75.0000028610231,0|0,1:2|0:0,0:0:0:0:
193,330,186407,6,0,L|267:336,1,75.0000028610231,2|0,0:0|0:0,0:0:0:0:
134,186,186579,1,10,0:0:0:0:
96,189,186665,1,2,0:0:0:0:
58,193,186752,1,2,0:0:0:0:
348,126,186924,6,0,P|349:88|337:54,1,75.0000028610231,2|0,0:0|0:0,0:0:0:0:
193,330,187096,1,2,1:2:0:0:
34,110,187269,6,0,P|33:72|46:38,1,75.0000028610231,10|0,0:2|0:0,0:0:0:0:
190,314,187441,1,2,0:0:0:0:
348,126,187614,6,0,L|505:139,1,150.000005722046,2|0,1:2|0:0,0:0:0:0:
497,139,187872,1,0,0:0:0:0:
497,139,187959,1,10,0:2:0:0:
273,12,188131,1,0,0:0:0:0:
268,68,188217,1,0,0:0:0:0:
263,124,188303,1,0,0:0:0:0:
258,180,188389,1,0,0:0:0:0:
253,236,188476,2,0,L|262:345,1,75.0000028610231,0|0,1:2|0:0,0:0:0:0:
180,32,188648,2,0,L|173:106,1,75.0000028610231,10|0,0:2|0:0,0:0:0:0:
82,298,188821,1,0,0:0:0:0:
82,298,188907,1,0,0:0:0:0:
82,298,188993,6,0,P|62:210|168:226,1,225.000008583069,2|0,1:2|0:0,0:0:0:0:
179,319,189338,2,0,P|161:275|164:234,1,75.0000028610231,8|0,0:2|0:0,0:0:0:0:
388,222,189510,1,0,0:0:0:0:
352,263,189596,1,0,0:0:0:0:
297,269,189682,1,0,0:0:0:0:
253,236,189768,1,0,0:0:0:0:
244,182,189855,2,0,P|268:150|318:138,1,75.0000028610231,0|0,1:2|0:0,0:0:0:0:
73,107,190028,2,0,P|73:69|93:38,1,75.0000028610231,8|0,0:2|0:0,0:0:0:0:
161,248,190200,2,0,P|139:278|105:292,1,75.0000028610231,0|0,0:0|0:0,0:0:0:0:
282,54,190372,6,0,B|345:59|345:59|359:76|359:76|422:82,1,150.000005722046,2|0,1:2|0:0,0:0:0:0:
424,198,190631,1,2,0:0:0:0:
440,169,190717,2,0,P|450:143|444:86,1,75.0000028610231,8|0,0:2|0:0,0:0:0:0:
213,3,190890,6,0,P|197:76|243:132,1,150.000005722046,2|0,0:0|0:0,0:0:0:0:
253,236,191148,1,2,0:0:0:0:
260,208,191234,2,0,L|267:118,1,75.0000028610231,0|0,1:2|0:0,0:0:0:0:
0,181,191407,6,0,B|26:147|26:147|146:157,1,150.000005722046,10|0,0:2|0:0,0:0:0:0:
123,281,191665,1,2,0:0:0:0:
139,252,191751,2,0,P|149:226|143:169,1,75.0000028610231,0|0,1:2|0:0,0:0:0:0:
415,290,191924,6,0,L|310:280,1,75.0000028610231,2|0,0:0|0:0,0:0:0:0:
98,359,192096,1,10,0:0:0:0:
136,362,192182,1,2,0:0:0:0:
174,366,192269,1,2,0:0:0:0:
0,181,192441,6,0,L|8:87,1,75.0000028610231,2|0,0:0|0:0,0:0:0:0:
226,22,192614,1,2,1:2:0:0:
214,46,192786,6,0,L|222:139,1,75.0000028610231,10|0,0:2|0:0,0:0:0:0:
440,205,192959,1,2,0:0:0:0:
174,366,193131,6,0,L|187:207,1,150.000005722046,2|0,1:2|0:0,0:0:0:0:
306,107,193390,1,0,0:0:0:0:
322,126,193476,2,0,L|314:213,1,75.0000028610231,10|0,0:2|0:0,0:0:0:0:
125,43,193648,1,0,0:0:0:0:
125,43,193734,1,0,0:0:0:0:
125,43,193821,1,0,0:0:0:0:
90,255,193993,1,0,1:2:0:0:
211,16,194165,2,0,L|306:24,1,75.0000028610231,10|0,0:2|0:0,0:0:0:0:
79,126,194338,2,0,L|-16:134,1,75.0000028610231,0|0,0:0|0:0,0:0:0:0:
373,47,194510,5,2,1:2:0:0:
288,234,194683,1,0,0:0:0:0:
464,67,194855,1,8,0:2:0:0:
188,101,195028,1,0,0:0:0:0:
192,157,195114,1,0,0:0:0:0:
197,213,195200,1,0,0:0:0:0:
201,269,195286,1,0,0:0:0:0:
206,325,195372,2,0,P|230:345|288:352,1,75.0000028610231,0|0,1:2|0:0,0:0:0:0:
301,214,195545,2,0,P|332:216|383:189,1,75.0000028610231,8|0,0:2|0:0,0:0:0:0:
315,68,195717,2,0,P|342:52|368:0,1,75.0000028610231,0|0,0:0|0:0,0:0:0:0:
113,125,195890,6,0,B|87:156|87:156|101:310,1,150.000005722046,2|0,1:2|0:0,0:0:0:0:
121,132,196148,1,2,0:0:0:0:
121,132,196234,2,0,L|113:50,1,75.0000028610231,8|0,0:2|0:0,0:0:0:0:
315,68,196407,6,0,P|237:106|199:53,1,150.000005722046,2|0,0:0|0:0,0:0:0:0:
323,75,196665,1,2,0:0:0:0:
323,75,196752,2,0,P|361:58|405:68,1,75.0000028610231,0|0,1:2|0:0,0:0:0:0:
356,290,196924,6,0,L|369:141,1,150.000005722046,10|0,0:2|0:0,0:0:0:0:
364,298,197183,1,2,0:0:0:0:
364,298,197269,2,0,L|371:377,1,75.0000028610231,0|0,1:2|0:0,0:0:0:0:
134,366,197441,6,0,L|140:291,1,75.0000028610231,2|0,0:0|0:0,0:0:0:0:
457,196,197614,1,10,0:0:0:0:
454,234,197700,1,2,0:0:0:0:
450,272,197787,1,2,0:0:0:0:
92,226,197959,6,0,P|143:208|188:233,1,75.0000028610231,2|0,0:0|0:0,0:0:0:0:
364,298,198131,1,2,1:2:0:0:
103,79,198303,6,0,P|154:97|199:72,1,75.0000028610231,10|0,0:2|0:0,0:0:0:0:
372,6,198475,1,2,0:0:0:0:
256,297,198648,6,0,B|261:233|261:233|278:219|278:219|284:156,1,150.000005722046,2|0,1:2|0:0,0:0:0:0:
153,10,198993,1,10,0:2:0:0:
429,123,199165,1,0,0:0:0:0:
425,160,199251,1,0,0:0:0:0:
422,197,199337,1,0,0:0:0:0:
419,235,199423,1,0,0:0:0:0:
415,272,199510,2,0,L|331:278,1,75.0000028610231,0|0,1:2|0:0,0:0:0:0:
187,335,199683,2,0,L|223:259,1,75.0000028610231,10|0,0:2|0:0,0:0:0:0:
246,106,199855,2,0,L|293:175,1,75.0000028610231,0|0,0:0|0:0,0:0:0:0:
275,374,200028,6,0,B|186:367|186:367|143:342|143:342|38:333,1,225.000008583069,2|0,1:2|0:0,0:0:0:0:
0,245,200373,2,0,L|83:253,1,75.0000028610231,8|0,0:2|0:0,0:0:0:0:
233,234,200545,1,0,0:0:0:0:
177,230,200631,1,0,0:0:0:0:
121,225,200717,1,0,0:0:0:0:
65,220,200803,1,0,0:0:0:0:
9,215,200889,1,0,1:2:0:0:
288,167,201062,2,0,L|442:181,1,150.000005722046,8|0,0:2|0:0,0:0:0:0:
173,57,201407,6,0,B|94:46|117:113|38:103,1,150.000005722046,2|0,1:2|0:0,0:0:0:0:
181,65,201665,1,2,0:0:0:0:
181,65,201752,2,0,P|225:78|244:107,1,75.0000028610231,8|0,0:2|0:0,0:0:0:0:
291,311,201924,6,0,B|296:247|296:247|282:230|282:230|287:167,1,150.000005722046,2|0,0:0|0:0,0:0:0:0:
299,319,202183,1,2,0:0:0:0:
299,319,202269,2,0,L|389:326,1,75.0000028610231,0|0,1:2|0:0,0:0:0:0:
446,63,202441,6,0,P|368:94|387:163,1,150.000005722046,10|0,0:2|0:0,0:0:0:0:
454,71,202700,1,2,0:0:0:0:
454,71,202786,2,0,P|479:48|491:6,1,75.0000028610231,0|0,1:2|0:0,0:0:0:0:
428,217,202959,6,0,P|438:252|465:278,1,75.0000028610231,2|0,0:0|0:0,0:0:0:0:
273,29,203131,1,10,0:0:0:0:
276,58,203217,1,2,0:0:0:0:
278,86,203304,2,0,L|269:178,1,75.0000028610231,2|0,0:0|0:0,0:0:0:0:
176,361,203476,5,2,0:0:0:0:
54,136,203648,1,2,1:2:0:0:
100,78,203734,1,0,1:2:0:0:
171,62,203820,1,10,0:2:0:0:
238,94,203906,1,0,1:2:0:0:
270,160,203992,1,2,1:2:0:0:
166,376,204165,6,0,L|0:362,1,150.000005722046,0|0,1:0|0:0,0:0:0:0:
54,136,204509,1,8,1:2:0:0:
256,292,204683,1,0,0:0:0:0:
218,289,204768,1,0,0:0:0:0:
181,286,204854,1,0,0:0:0:0:
143,282,204940,1,0,0:0:0:0:
106,279,205028,1,0,1:0:0:0:
171,62,205199,2,0,L|321:49,1,150.000005722046,8|0,1:2|0:0,0:0:0:0:
493,93,205458,1,0,0:0:0:0:
479,110,205544,6,0,B|401:121|424:54|345:64,1,150.000005722046,0|0,1:0|0:0,0:0:0:0:
256,292,205890,1,8,0:0:0:0:
163,136,206062,2,0,L|171:51,1,75.0000028610231,0|0,0:0|0:0,0:0:0:0:
357,145,206235,2,0,L|364:220,1,75.0000028610231,0|0,0:0|0:0,0:0:0:0:
153,241,206407,1,0,1:0:0:0:
343,64,206579,1,8,1:2:0:0:
396,324,206752,1,0,0:0:0:0:
396,324,206838,1,0,0:0:0:0:
396,324,206924,6,0,B|340:320|340:320|313:296|313:296|254:291,1,150.000005722046,0|0,1:0|0:0,0:0:0:0:
87,294,207183,1,0,0:0:0:0:
64,274,207269,2,0,L|72:174,1,75.0000028610231,8|0,0:0|0:0,0:0:0:0:
218,43,207441,1,0,0:0:0:0:
223,97,207527,1,0,0:0:0:0:
190,141,207613,1,0,0:0:0:0:
135,151,207699,1,0,0:0:0:0:
89,121,207785,1,0,1:0:0:0:
290,0,207959,1,8,1:2:0:0:
449,220,208131,1,0,0:0:0:0:
417,239,208217,1,0,0:0:0:0:
379,240,208303,6,0,P|381:165|466:136,1,150.000005722046,0|0,1:0|0:0,0:0:0:0:
222,223,208648,2,0,P|285:262|268:350,1,150.000005722046,8|0,0:0|0:0,0:0:0:0:
246,326,208907,1,0,0:0:0:0:
209,323,208993,1,0,0:0:0:0:
175,332,209079,1,0,0:0:0:0:
142,341,209165,1,0,1:0:0:0:
104,338,209252,1,0,0:0:0:0:
67,335,209338,2,0,L|58:242,1,75.0000028610231,8|0,1:2|0:0,0:0:0:0:
216,139,209510,1,0,0:0:0:0:
253,135,209597,1,0,0:0:0:0:
290,132,209683,5,0,1:0:0:0:
97,7,209855,1,0,0:0:0:0:
143,209,210028,2,0,B|168:239|168:239|281:230,1,150.000005722046,8|0,0:0|0:0,0:0:0:0:
363,71,210286,1,0,0:0:0:0:
384,85,210372,2,0,L|375:185,1,75.0000028610231,0|0,0:0|0:0,0:0:0:0:
362,326,210545,2,0,L|368:251,1,75.0000028610231,0|0,1:0|0:0,0:0:0:0:
279,47,210717,1,8,1:2:0:0:
472,199,210890,1,0,0:0:0:0:
472,199,210976,1,0,0:0:0:0:
472,199,211062,6,0,L|456:373,1,150.000005722046,0|0,1:0|0:0,0:0:0:0:
278,230,211407,1,8,0:0:0:0:
114,377,211579,1,0,0:0:0:0:
151,373,211665,1,0,0:0:0:0:
188,370,211751,1,0,0:0:0:0:
226,366,211837,1,0,0:0:0:0:
263,363,211923,1,0,1:0:0:0:
216,139,212096,2,0,L|42:123,1,150.000005722046,8|0,1:2|0:0,0:0:0:0:
0,238,212355,1,0,0:0:0:0:
19,255,212441,6,0,P|54:174|24:110,1,150.000005722046,0|0,1:0|0:0,0:0:0:0:
168,22,212786,1,8,0:0:0:0:
333,230,212959,1,0,0:0:0:0:
309,201,213045,1,0,0:0:0:0:
298,165,213131,1,0,0:0:0:0:
301,128,213217,1,0,0:0:0:0:
318,95,213303,2,0,L|415:103,1,75.0000028610231,0|0,1:0|0:0,0:0:0:0:
272,300,213476,2,0,L|174:308,1,75.0000028610231,8|0,1:2|0:0,0:0:0:0:
191,57,213648,1,0,0:0:0:0:
191,57,213734,1,0,0:0:0:0:
191,57,213821,6,0,B|269:67|246:0|325:10,1,150.000005722046,0|0,1:0|0:0,0:0:0:0:
429,198,214165,1,8,0:0:0:0:
155,234,214338,1,0,0:0:0:0:
106,241,214424,1,0,0:0:0:0:
66,212,214510,1,0,0:0:0:0:
58,163,214596,1,0,0:0:0:0:
86,123,214682,1,0,1:0:0:0:
133,113,214769,1,0,0:0:0:0:
174,140,214855,1,8,1:2:0:0:
379,293,215028,1,0,0:0:0:0:
426,303,215115,1,0,0:0:0:0:
467,276,215200,6,0,L|453:115,1,150.000005722046,0|0,1:0|0:0,0:0:0:0:
454,126,215459,1,0,0:0:0:0:
454,126,215545,1,8,0:0:0:0:
233,205,215717,1,0,0:0:0:0:
237,242,215803,1,0,0:0:0:0:
240,279,215889,1,0,0:0:0:0:
243,317,215975,1,0,0:0:0:0:
246,354,216061,1,0,1:0:0:0:
377,68,216234,2,0,L|221:52,1,150.000005722046,8|0,1:2|0:0,0:0:0:0:
37,113,216493,1,0,0:0:0:0:
52,135,216579,6,0,P|102:143|144:95,1,75.0000028610231,0|0,1:0|0:0,0:0:0:0:
303,207,216752,2,0,P|268:194|232:204,1,75.0000028610231,0|0,0:0|0:0,0:0:0:0:
67,343,216924,1,8,0:0:0:0:
362,338,217096,1,0,0:0:0:0:
319,301,217182,1,0,0:0:0:0:
265,289,217268,1,0,0:0:0:0:
211,304,217354,1,0,0:0:0:0:
170,342,217440,1,0,1:0:0:0:
395,243,217614,2,0,P|416:184|388:84,1,150.000005722046,8|0,1:2|0:0,0:0:0:0:
248,20,217872,1,0,0:0:0:0:
232,43,217959,6,0,B|295:48|295:48|309:65|309:65|372:71,1,150.000005722046,0|0,1:0|0:0,0:0:0:0:
512,239,218303,1,8,1:2:0:0:
304,378,218476,1,0,0:0:0:0:
308,321,218562,1,0,0:0:0:0:
313,265,218648,1,0,0:0:0:0:
318,209,218734,1,0,0:0:0:0:
323,153,218820,1,0,1:0:0:0:
512,0,218993,1,8,1:2:0:0:
236,43,219165,1,0,0:0:0:0:
236,43,219252,1,0,0:0:0:0:
236,43,219338,6,0,P|152:25|78:59,1,150.000005722046,0|0,1:0|0:0,0:0:0:0:
1,338,219683,2,0,P|72:356|143:334,1,150.000005722046,8|0,0:0|0:0,0:0:0:0:
139,296,219942,1,0,0:0:0:0:
136,259,220028,1,0,0:0:0:0:
121,227,220114,1,0,0:0:0:0:
107,196,220200,1,0,1:0:0:0:
103,159,220287,1,0,0:0:0:0:
100,121,220373,2,0,L|91:24,1,75.0000028610231,8|0,1:2|0:0,0:0:0:0:
223,263,220545,1,0,0:0:0:0:
227,300,220632,1,0,0:0:0:0:
230,338,220717,5,2,1:2:0:0:
281,318,220803,1,2,0:2:0:0:
308,270,220889,1,2,0:2:0:0:
299,215,220975,1,2,0:2:0:0:
257,179,221061,1,10,1:2:0:0:
215,142,221148,1,2,0:2:0:0:
205,88,221234,1,2,0:2:0:0:
233,40,221320,1,2,0:2:0:0:
284,20,221406,5,2,0:2:0:0:
336,38,221493,1,2,0:2:0:0:
374,79,221579,1,2,1:2:0:0:
388,133,221665,1,2,0:2:0:0:
376,187,221751,1,10,1:2:0:0:
340,230,221838,1,2,0:2:0:0:
288,251,221924,1,2,0:2:0:0:
233,246,222010,1,2,0:2:0:0:
186,215,222096,5,2,1:2:0:0:
212,167,222182,1,2,0:2:0:0:
264,146,222268,1,2,0:2:0:0:
316,164,222354,1,2,0:2:0:0:
344,212,222440,1,10,1:2:0:0:
372,259,222528,1,2,0:2:0:0:
424,277,222614,1,2,0:2:0:0:
476,257,222700,1,2,0:2:0:0:
502,209,222786,5,2,0:2:0:0:
445,204,222872,1,2,0:2:0:0:
389,199,222958,1,2,1:2:0:0:
333,194,223044,1,2,0:2:0:0:
277,189,223130,1,10,1:2:0:0:
221,184,223217,1,2,0:2:0:0:
165,179,223303,1,2,0:2:0:0:
109,174,223389,1,2,0:2:0:0:
53,169,223476,6,0,P|38:97|63:13,1,150.000005722046,0|0,1:0|0:0,0:0:0:0:
284,18,223821,1,8,1:2:0:0:
159,254,223993,1,0,0:0:0:0:
162,216,224079,1,0,0:0:0:0:
165,179,224165,1,0,0:0:0:0:
168,141,224251,1,0,0:0:0:0:
172,104,224337,1,0,1:0:0:0:
262,296,224510,1,8,1:2:0:0:
410,84,224683,1,0,0:0:0:0:
410,84,224769,1,0,0:0:0:0:
410,84,224855,6,0,B|350:89|350:89|325:110|325:110|260:116,1,150.000005722046,0|0,1:0|0:0,0:0:0:0:
488,163,225200,1,8,1:2:0:0:
352,315,225372,1,0,0:0:0:0:
356,278,225459,1,0,0:0:0:0:
361,240,225545,1,0,0:0:0:0:
396,230,225631,1,0,0:0:0:0:
433,238,225717,1,0,1:0:0:0:
461,262,225803,1,0,0:0:0:0:
474,297,225889,1,8,1:2:0:0:
276,371,226062,1,0,0:0:0:0:
229,355,226148,1,0,0:0:0:0:
182,369,226234,5,0,1:0:0:0:
186,152,231234,5,0,0:0:0:0:
254,91,231407,1,0,1:0:0:0:
263,86,231493,2,0,L|259:130,1,25,0|0,1:0|0:0,0:0:0:0:
391,229,236751,5,0,0:0:0:0:
323,168,236924,1,0,1:0:0:0:
314,163,237010,2,0,L|317:207,1,25,0|0,1:0|0:0,0:0:0:0:
461,277,237269,6,0,B|342:217|342:336|223:277,1,250,0|0,0:0|0:0,0:0:0:0:
100,293,238303,2,0,P|139:269|160:272,1,50,8|0,0:0|1:0,0:0:0:0:
20,349,238648,5,0,1:0:0:0:
20,349,238734,1,0,1:0:0:0:
20,349,238821,2,0,L|23:309,1,25,0|0,1:0|0:0,0:0:0:0:
58,222,238993,1,0,1:0:0:0:
58,222,239079,1,0,1:0:0:0:
58,222,239166,2,0,L|54:182,1,25,0|0,1:0|0:0,0:0:0:0:
13,107,239338,6,0,L|135:117,1,100,0|0,1:0|0:0,0:0:0:0:
237,86,239683,2,0,L|114:96,1,100,8|0,0:0|1:0,0:0:0:0:
305,164,240028,5,0,1:0:0:0:
314,151,240114,2,0,P|321:119|310:88,1,50,0|0,1:0|0:0,0:0:0:0:
297,25,240286,1,0,1:2:0:0:
321,25,240372,1,8,1:2:0:0:
346,25,240459,1,0,1:2:0:0:
370,25,240545,1,0,1:2:0:0:
503,142,240717,2,0,P|517:196|488:259,1,100,0|0,1:0|0:0,0:0:0:0:
315,246,241062,2,0,P|301:192|330:129,1,100,8|0,0:0|0:0,0:0:0:0:
383,352,241407,5,0,1:0:0:0:
241,298,241579,1,0,1:0:0:0:
438,287,241752,1,8,0:0:0:0:
186,363,241924,1,0,1:0:0:0:
315,246,242096,5,0,1:0:0:0:
383,352,242269,1,0,1:0:0:0:
225,231,242441,1,8,0:0:0:0:
222,206,242528,1,8,0:0:0:0:
220,181,242614,1,8,0:0:0:0:
163,299,242786,6,0,P|238:324|314:222,1,200,2|0,1:2|1:2,0:0:0:0:
128,173,243303,6,0,B|135:249|135:249|118:269|118:269|126:365,1,200,2|0,1:2|1:2,0:0:0:0:
254,152,243821,6,0,L|48:133,1,200,2|0,1:2|1:2,0:0:0:0:
298,76,244338,6,0,B|404:62|373:151|478:137,1,200,2|0,1:2|1:2,0:0:0:0:
240,273,244855,6,0,L|116:283,1,100,2|0,1:2|0:0,0:0:0:0:
96,348,245200,1,0,1:2:0:0:
153,202,245372,1,0,1:2:0:0:
251,271,245545,6,0,L|127:281,1,100,2|0,1:2|0:0,0:0:0:0:
107,346,245890,1,0,1:2:0:0:
164,200,246062,1,0,1:2:0:0:
262,269,246234,6,0,L|138:279,1,100,2|0,1:2|0:0,0:0:0:0:
118,344,246579,1,0,1:2:0:0:
175,198,246751,1,0,1:2:0:0:
273,267,246924,6,0,L|149:277,1,100,2|0,1:2|0:0,0:0:0:0:
129,342,247269,1,0,1:2:0:0:
186,196,247441,1,0,1:2:0:0:
284,265,247614,6,0,L|160:275,1,100,2|0,1:2|0:0,0:0:0:0:
140,340,247959,1,0,1:2:0:0:
197,194,248131,1,0,1:2:0:0:
329,342,248302,5,2,1:2:0:0:
357,317,248389,1,2,1:2:0:0:
371,283,248475,1,2,1:2:0:0:
369,246,248561,1,2,1:2:0:0:
350,214,248647,1,2,1:2:0:0:
331,182,248735,1,2,1:2:0:0:
329,145,248821,1,2,1:2:0:0:
343,111,248907,1,2,1:2:0:0:
371,86,248993,5,2,1:2:0:0:
393,142,249079,1,2,1:2:0:0:
367,197,249165,1,2,1:2:0:0:
309,215,249251,1,2,1:2:0:0:
256,184,249337,1,2,1:2:0:0:
203,153,249424,1,2,1:2:0:0:
145,171,249510,1,2,1:2:0:0:
119,226,249596,1,2,1:2:0:0:
142,283,249683,5,2,1:2:0:0:
173,253,249769,1,2,1:2:0:0:
186,212,249855,1,2,1:2:0:0:
175,170,249941,1,2,1:2:0:0:
145,140,250027,1,2,1:2:0:0:
103,129,250114,1,2,1:2:0:0:
62,141,250200,1,2,1:2:0:0:
33,173,250286,1,2,1:2:0:0:
24,216,250372,5,2,1:2:0:0:
72,253,250458,1,2,1:2:0:0:
134,255,250544,1,2,1:2:0:0:
185,221,250630,1,2,1:2:0:0:
207,163,250716,1,2,1:2:0:0:
228,105,250804,1,2,1:2:0:0:
279,71,250890,1,2,1:2:0:0:
341,73,250976,1,2,1:2:0:0:
390,110,251062,5,2,1:2:0:0:
400,170,251148,1,2,1:2:0:0:
375,227,251234,1,2,1:2:0:0:
324,261,251320,1,2,1:2:0:0:
262,262,251406,1,2,1:2:0:0:
291,207,251493,1,2,1:2:0:0:
346,179,251579,1,2,1:2:0:0:
407,187,251665,1,2,1:2:0:0:
452,229,251751,5,2,1:2:0:0:
402,265,251838,1,2,1:2:0:0:
341,269,251924,1,2,1:2:0:0:
287,238,252010,1,2,1:2:0:0:
259,183,252096,1,2,1:2:0:0:
231,128,252183,1,2,1:2:0:0:
177,97,252269,1,2,1:2:0:0:
116,101,252355,1,2,1:2:0:0:
67,138,252441,6,0,P|68:163|72:173,7,18.7500007152558,0|0|0|0|0|0|0|0,1:2|1:0|1:2|1:0|1:2|1:0|1:2|1:0,1:0:0:0:
10,217,252786,2,0,P|10:242|6:252,7,18.7500007152558,0|0|0|0|0|0|0|0,1:2|1:0|1:2|1:0|1:2|1:0|1:2|1:0,1:0:0:0:
85,314,253131,6,0,L|81:275,7,25,0|0|0|0|0|0|0|0,1:2|1:0|1:2|1:0|1:2|1:0|1:2|1:0,1:0:0:0:
0,384,253476,1,0,1:2:0:0:
206,231,253821,6,0,B|284:219|262:286|341:274,1,150.000005722046,2|0,1:2|0:0,0:0:0:0:
213,107,254165,1,10,0:2:0:0:
187,323,254338,1,0,0:0:0:0:
187,323,254424,1,0,0:0:0:0:
187,323,254510,2,0,L|194:239,1,75.0000028610231,0|0,0:0|0:0,0:0:0:0:
360,182,254683,2,0,L|353:266,1,75.0000028610231,0|0,1:2|0:0,0:0:0:0:
213,107,254855,2,0,L|57:121,1,150.000005722046,10|0,0:2|0:0,0:0:0:0:
50,234,255114,1,0,0:0:0:0:
72,240,255200,6,0,P|95:186|29:123,1,150.000005722046,2|0,1:2|0:0,0:0:0:0:
308,101,255545,1,8,0:2:0:0:
264,332,255717,1,0,0:0:0:0:
207,327,255803,1,0,0:0:0:0:
151,322,255889,1,0,0:0:0:0:
95,317,255975,1,0,0:0:0:0:
39,312,256062,2,0,P|16:342|19:397,1,75.0000028610231,0|0,1:2|0:0,0:0:0:0:
45,173,256234,2,0,P|68:203|65:258,1,75.0000028610231,8|0,0:2|0:0,0:0:0:0:
38,34,256407,2,0,P|15:63|11:100,1,75.0000028610231,0|0,0:0|0:0,0:0:0:0:
254,232,256579,6,0,B|249:296|249:296|263:313|263:313|258:376,1,150.000005722046,2|0,1:2|0:0,0:0:0:0:
159,255,256838,1,2,0:0:0:0:
155,229,256924,2,0,L|164:139,1,75.0000028610231,8|0,0:2|0:0,0:0:0:0:
328,108,257097,6,0,P|247:129|223:67,1,150.000005722046,2|0,0:0|0:0,0:0:0:0:
330,11,257355,1,2,0:0:0:0:
340,28,257441,2,0,P|347:54|340:108,1,75.0000028610231,0|0,1:2|0:0,0:0:0:0:
512,160,257614,6,0,B|486:194|486:194|366:184,1,150.000005722046,10|0,0:2|0:0,0:0:0:0:
406,272,257873,1,2,0:0:0:0:
432,268,257959,2,0,L|522:277,1,75.0000028610231,0|0,1:2|0:0,0:0:0:0:
499,76,258131,6,0,L|422:83,1,75.0000028610231,2|0,0:0|0:0,0:0:0:0:
323,256,258303,1,10,0:0:0:0:
294,254,258390,1,2,0:0:0:0:
264,245,258476,1,2,0:0:0:0:
51,25,258648,6,0,P|76:60|83:115,1,75.0000028610231,2|0,0:0|0:0,0:0:0:0:
157,295,258821,1,2,1:2:0:0:
263,13,258993,6,0,P|238:48|231:103,1,75.0000028610231,10|0,0:2|0:0,0:0:0:0:
157,283,259166,1,2,0:0:0:0:
506,179,259338,6,0,L|350:165,1,150.000005722046,2|0,1:2|0:0,0:0:0:0:
356,165,259597,1,0,0:0:0:0:
356,165,259683,1,10,0:2:0:0:
144,204,259855,1,0,0:0:0:0:
172,157,259941,1,0,0:0:0:0:
225,141,260027,1,0,0:0:0:0:
274,166,260113,1,0,0:0:0:0:
294,217,260200,2,0,L|284:321,1,75.0000028610231,0|0,1:2|0:0,0:0:0:0:
85,133,260372,2,0,L|91:54,1,75.0000028610231,10|0,0:2|0:0,0:0:0:0:
3,361,260545,1,0,0:0:0:0:
3,361,260631,1,0,0:0:0:0:
3,361,260717,6,0,B|98:370|98:370|124:348|124:348|219:356,1,225.000008583069,2|0,1:2|0:0,0:0:0:0:
321,364,261062,2,0,L|242:358,1,75.0000028610231,8|0,0:2|0:0,0:0:0:0:
459,203,261234,1,0,0:0:0:0:
455,240,261320,1,0,0:0:0:0:
452,277,261406,1,0,0:0:0:0:
449,315,261492,1,0,0:0:0:0:
445,352,261579,2,0,P|478:377|519:385,1,75.0000028610231,0|0,1:2|0:0,0:0:0:0:
382,250,261752,2,0,P|423:251|461:234,1,75.0000028610231,8|0,0:2|0:0,0:0:0:0:
271,202,261924,2,0,P|305:179|327:143,1,75.0000028610231,0|0,0:0|0:0,0:0:0:0:
135,314,262097,6,0,P|87:363|32:322,1,150.000005722046,2|0,1:2|0:0,0:0:0:0:
54,200,262355,1,2,0:0:0:0:
61,224,262441,2,0,L|54:298,1,75.0000028610231,8|0,0:2|0:0,0:0:0:0:
12,117,262614,6,0,B|62:122|62:122|117:112|117:112|175:117,1,150.000005722046,2|0,0:0|0:0,0:0:0:0:
272,86,262872,1,2,0:0:0:0:
253,104,262959,2,0,P|214:112|179:79,1,75.0000028610231,0|0,1:2|0:0,0:0:0:0:
424,0,263131,6,0,L|410:169,1,150.000005722046,10|0,0:2|0:0,0:0:0:0:
308,179,263390,1,2,0:0:0:0:
327,161,263477,2,0,P|366:153|401:186,1,75.0000028610231,0|0,1:2|0:0,0:0:0:0:
217,274,263648,6,0,L|228:158,1,75.0000028610231,2|0,0:0|0:0,0:0:0:0:
449,230,263821,1,10,0:0:0:0:
478,228,263908,1,2,0:0:0:0:
507,225,263994,1,2,0:0:0:0:
246,360,264165,6,0,L|240:281,1,75.0000028610231,2|0,0:0|0:0,0:0:0:0:
331,74,264338,1,2,1:2:0:0:
321,58,264510,6,0,L|315:138,1,75.0000028610231,10|0,0:2|0:0,0:0:0:0:
406,344,264683,1,2,0:0:0:0:
211,109,264855,6,0,P|152:77|70:129,1,150.000005722046,2|0,1:2|0:0,0:0:0:0:
125,255,265114,1,0,0:0:0:0:
138,234,265200,2,0,L|146:160,1,75.0000028610231,10|0,0:2|0:0,0:0:0:0:
15,375,265372,1,0,0:0:0:0:
15,375,265459,1,0,0:0:0:0:
15,375,265545,1,0,0:0:0:0:
222,274,265717,1,0,1:2:0:0:
81,108,265890,2,0,L|6:115,1,75.0000028610231,10|0,0:2|0:0,0:0:0:0:
243,260,266062,2,0,L|317:267,1,75.0000028610231,0|0,0:0|0:0,0:0:0:0:
15,375,266234,5,2,1:2:0:0:
146,160,266407,1,0,0:0:0:0:
266,380,266579,1,8,0:2:0:0:
231,135,266752,1,0,0:0:0:0:
174,130,266838,1,0,0:0:0:0:
118,125,266924,1,0,0:0:0:0:
62,120,267010,1,0,0:0:0:0:
6,115,267096,2,0,L|12:37,1,75.0000028610231,0|0,1:2|0:0,0:0:0:0:
231,135,267269,2,0,L|224:209,1,75.0000028610231,8|0,0:2|0:0,0:0:0:0:
11,307,267441,2,0,L|17:232,1,75.0000028610231,0|0,0:0|0:0,0:0:0:0:
233,4,267614,6,0,B|277:63|277:63|249:150,1,150.000005722046,2|0,1:2|0:0,0:0:0:0:
243,227,267872,1,2,0:0:0:0:
224,209,267959,2,0,P|214:158|229:124,1,75.0000028610231,8|0,0:2|0:0,0:0:0:0:
11,307,268131,6,0,P|84:350|145:308,1,150.000005722046,2|0,0:0|0:0,0:0:0:0:
259,332,268390,1,2,0:0:0:0:
240,315,268476,2,0,L|162:309,1,75.0000028610231,0|0,1:2|0:0,0:0:0:0:
330,164,268648,6,0,B|366:236|295:236|330:307,1,150.000005722046,10|0,0:2|0:0,0:0:0:0:
420,382,268907,1,2,0:0:0:0:
415,354,268993,2,0,P|389:322|350:322,1,75.0000028610231,0|0,1:2|0:0,0:0:0:0:
434,183,269165,6,0,P|420:222|439:256,1,75.0000028610231,2|0,0:0|0:0,0:0:0:0:
512,104,269338,1,10,0:0:0:0:
484,102,269424,1,2,0:0:0:0:
455,99,269510,1,2,0:0:0:0:
233,18,269683,6,0,P|242:56|229:101,1,75.0000028610231,2|0,0:0|0:0,0:0:0:0:
169,312,269855,1,2,1:2:0:0:
131,14,270028,6,0,P|122:52|135:97,1,75.0000028610231,10|0,0:2|0:0,0:0:0:0:
168,330,270200,1,2,0:0:0:0:
18,119,270372,6,0,P|90:100|175:152,1,150.000005722046,2|0,1:2|0:0,0:0:0:0:
271,287,270717,1,10,0:2:0:0:
233,18,270890,1,0,0:0:0:0:
270,22,270976,1,0,0:0:0:0:
307,25,271062,1,0,0:0:0:0:
345,28,271148,1,0,0:0:0:0:
382,32,271234,2,0,L|466:24,1,75.0000028610231,0|0,1:2|0:0,0:0:0:0:
338,160,271407,2,0,L|253:152,1,75.0000028610231,10|0,0:2|0:0,0:0:0:0:
412,301,271579,2,0,L|496:293,1,75.0000028610231,0|0,0:0|0:0,0:0:0:0:
260,375,271752,6,0,B|171:368|171:368|128:343|128:343|23:334,1,225.000008583069,2|0,1:2|0:0,0:0:0:0:
7,241,272096,2,0,L|13:320,1,75.0000028610231,8|0,0:2|0:0,0:0:0:0:
235,288,272269,1,0,0:0:0:0:
231,232,272355,1,0,0:0:0:0:
193,192,272441,1,0,0:0:0:0:
139,183,272527,1,0,0:0:0:0:
91,211,272613,1,0,1:2:0:0:
344,158,272786,2,0,B|398:153|398:153|424:138|424:138|489:132,1,150.000005722046,8|0,0:2|0:0,0:0:0:0:
512,381,273131,6,0,B|434:392|456:326|378:338,1,150.000005722046,2|0,1:2|0:0,0:0:0:0:
361,241,273390,1,2,0:0:0:0:
347,270,273476,2,0,L|340:353,1,75.0000028610231,8|0,0:2|0:0,0:0:0:0:
52,305,273648,6,0,P|147:342|181:306,1,150.000005722046,2|0,0:0|0:0,0:0:0:0:
159,183,273907,1,2,0:0:0:0:
173,212,273993,2,0,L|181:295,1,75.0000028610231,0|0,1:2|0:0,0:0:0:0:
100,57,274165,6,0,B|95:123|95:123|81:134|81:134|75:200,1,150.000005722046,10|0,0:2|0:0,0:0:0:0:
38,335,274424,1,2,0:0:0:0:
52,305,274510,2,0,L|59:227,1,75.0000028610231,0|0,1:2|0:0,0:0:0:0:
186,99,274683,6,0,P|237:90|294:125,1,75.0000028610231,2|0,0:0|0:0,0:0:0:0:
366,325,274855,1,10,0:0:0:0:
363,296,274941,1,2,0:0:0:0:
361,268,275028,2,0,L|370:176,1,75.0000028610231,2|0,0:0|0:0,0:0:0:0:
470,30,275200,5,2,0:0:0:0:
260,216,275372,1,2,1:2:0:0:
202,170,275458,1,0,1:2:0:0:
186,99,275544,1,10,0:2:0:0:
218,32,275630,1,0,1:2:0:0:
284,0,275716,1,2,1:2:0:0:
211,294,275890,6,0,L|29:278,1,150.000005722046,0|0,1:0|0:0,0:0:0:0:
186,99,276234,1,8,1:2:0:0:
361,235,276407,1,0,0:0:0:0:
357,272,276493,1,0,0:0:0:0:
354,309,276579,1,0,0:0:0:0:
351,347,276665,1,0,0:0:0:0:
347,384,276751,1,0,1:0:0:0:
503,189,276924,2,0,L|487:7,1,150.000005722046,8|0,1:2|0:0,0:0:0:0:
319,61,277183,1,0,0:0:0:0:
327,83,277269,6,0,P|368:91|413:86,1,75.0000028610231,0|0,1:0|0:0,0:0:0:0:
237,37,277441,2,0,P|196:29|151:34,1,75.0000028610231,0|0,0:0|0:0,0:0:0:0:
193,222,277614,2,0,P|268:175|233:115,1,150.000005722046,8|0,1:2|0:0,0:0:0:0:
218,116,277872,1,0,0:0:0:0:
181,111,277958,1,0,0:0:0:0:
144,114,278044,1,0,0:0:0:0:
108,125,278130,1,0,1:0:0:0:
155,330,278303,1,8,1:2:0:0:
391,222,278476,1,0,0:0:0:0:
391,222,278562,1,0,0:0:0:0:
391,222,278648,6,0,B|322:189|322:189|213:218,1,150.000005722046,0|0,1:0|0:0,0:0:0:0:
250,207,278907,1,0,0:0:0:0:
250,207,278993,1,8,1:2:0:0:
422,320,279165,1,0,0:0:0:0:
463,283,279251,1,0,0:0:0:0:
481,230,279337,1,0,0:0:0:0:
471,175,279423,1,0,0:0:0:0:
436,132,279509,1,0,1:0:0:0:
178,282,279683,2,0,B|247:315|247:315|318:296,1,150.000005722046,8|0,1:2|0:0,0:0:0:0:
348,384,279941,1,0,0:0:0:0:
335,370,280028,6,0,L|343:278,1,75.0000028610231,0|0,1:0|0:0,0:0:0:0:
339,136,280200,2,0,L|345:210,1,75.0000028610231,0|0,0:0|0:0,0:0:0:0:
499,42,280372,2,0,L|312:25,1,150.000005722046,8|0,1:2|0:0,0:0:0:0:
311,24,280631,1,0,0:0:0:0:
274,21,280717,1,0,0:0:0:0:
240,30,280803,1,0,0:0:0:0:
207,39,280889,1,0,1:0:0:0:
169,36,280976,1,0,0:0:0:0:
132,32,281062,2,0,L|52:25,1,75.0000028610231,8|0,1:2|0:0,0:0:0:0:
180,260,281234,1,0,0:0:0:0:
217,256,281321,1,0,0:0:0:0:
254,253,281407,5,0,1:0:0:0:
43,123,281579,1,0,0:0:0:0:
36,371,281752,1,8,1:2:0:0:
127,189,281924,2,0,P|135:159|127:107,1,75.0000028610231,0|0,0:0|0:0,0:0:0:0:
254,253,282096,2,0,P|248:289|257:326,1,75.0000028610231,0|0,0:0|0:0,0:0:0:0:
318,110,282269,1,0,1:0:0:0:
490,298,282441,2,0,L|318:283,1,150.000005722046,8|0,1:2|0:0,0:0:0:0:
405,179,282700,1,0,0:0:0:0:
425,195,282786,6,0,L|499:201,1,75.0000028610231,0|0,1:0|0:0,0:0:0:0:
318,110,282959,2,0,L|243:116,1,75.0000028610231,0|0,0:0|0:0,0:0:0:0:
489,28,283131,1,8,1:2:0:0:
237,12,283303,1,0,0:0:0:0:
201,15,283389,1,0,0:0:0:0:
164,18,283475,1,0,0:0:0:0:
126,21,283561,1,0,0:0:0:0:
89,25,283647,1,0,1:0:0:0:
41,257,283821,1,8,1:2:0:0:
243,116,283993,1,0,0:0:0:0:
243,116,284079,1,0,0:0:0:0:
243,116,284165,6,0,P|268:185|224:272,1,150.000005722046,0|0,1:0|0:0,0:0:0:0:
135,384,284510,1,8,1:2:0:0:
242,254,284683,1,0,0:0:0:0:
274,235,284769,1,0,0:0:0:0:
311,229,284855,1,0,0:0:0:0:
347,235,284941,1,0,0:0:0:0:
380,254,285027,1,0,1:0:0:0:
144,281,285200,1,8,1:2:0:0:
425,336,285372,1,0,0:0:0:0:
425,336,285459,1,0,0:0:0:0:
425,336,285545,6,0,L|409:159,1,150.000005722046,0|0,1:0|0:0,0:0:0:0:
233,21,285890,2,0,L|219:170,1,150.000005722046,8|0,0:0|0:0,0:0:0:0:
191,194,286148,1,0,0:0:0:0:
155,198,286234,1,0,0:0:0:0:
122,181,286320,1,0,0:0:0:0:
104,149,286406,1,0,1:0:0:0:
107,112,286493,1,0,0:0:0:0:
131,83,286579,2,0,L|137:6,1,75.0000028610231,8|0,1:2|0:0,0:0:0:0:
315,182,286752,1,0,0:0:0:0:
325,216,286838,1,0,0:0:0:0:
313,251,286925,5,0,1:0:0:0:
170,353,287096,1,0,0:0:0:0:
423,374,287269,1,8,1:2:0:0:
214,261,287441,1,0,0:0:0:0:
172,263,287527,1,0,0:0:0:0:
130,267,287613,1,0,0:0:0:0:
89,271,287699,1,0,0:0:0:0:
49,274,287785,1,0,1:0:0:0:
315,182,287959,2,0,L|491:197,1,150.000005722046,8|0,1:2|0:0,0:0:0:0:
328,93,288217,1,0,0:0:0:0:
299,108,288303,6,0,P|288:143|302:189,1,75.0000028610231,0|0,1:0|0:0,0:0:0:0:
422,99,288476,2,0,P|430:62|419:27,1,75.0000028610231,0|0,0:0|0:0,0:0:0:0:
215,64,288648,2,0,P|292:71|335:9,1,150.000005722046,8|0,1:2|0:0,0:0:0:0:
314,15,288907,1,0,0:0:0:0:
296,12,288993,1,0,0:0:0:0:
278,8,289079,1,0,0:0:0:0:
259,5,289165,1,0,1:0:0:0:
61,114,289338,1,8,1:2:0:0:
249,251,289510,1,0,0:0:0:0:
249,251,289596,1,0,0:0:0:0:
249,251,289683,6,0,L|264:76,1,150.000005722046,0|0,1:0|0:0,0:0:0:0:
97,251,290028,1,8,1:2:0:0:
330,358,290200,1,0,0:0:0:0:
308,307,290286,1,0,0:0:0:0:
259,281,290372,1,0,0:0:0:0:
205,291,290458,1,0,0:0:0:0:
170,334,290544,1,0,1:0:0:0:
438,334,290717,1,8,1:2:0:0:
301,122,290890,1,0,0:0:0:0:
301,122,290976,1,0,0:0:0:0:
301,122,291062,6,0,P|214:95|119:146,1,150.000005722046,0|0,1:0|0:0,0:0:0:0:
0,344,291407,2,0,P|87:371|182:320,1,150.000005722046,8|0,1:2|0:0,0:0:0:0:
173,336,291665,1,0,0:0:0:0:
209,324,291751,1,0,0:0:0:0:
246,320,291837,1,0,0:0:0:0:
283,324,291923,1,0,1:0:0:0:
319,336,292010,1,0,0:0:0:0:
351,354,292096,2,0,P|379:363|435:357,1,75.0000028610231,8|0,0:2|0:0,0:0:0:0:
512,181,292269,1,0,0:0:0:0:
475,177,292355,1,0,0:0:0:0:
438,181,292441,5,2,1:2:0:0:
411,207,292527,1,2,0:2:0:0:
376,219,292613,1,2,0:2:0:0:
339,214,292699,1,2,0:2:0:0:
308,194,292785,1,10,1:2:0:0:
276,173,292873,1,2,0:2:0:0:
240,169,292959,1,2,0:2:0:0:
204,180,293045,1,2,0:2:0:0:
178,207,293131,5,2,0:2:0:0:
205,231,293217,1,2,0:2:0:0:
241,240,293303,1,2,1:2:0:0:
277,232,293389,1,2,0:2:0:0:
306,209,293475,1,10,1:2:0:0:
321,174,293562,1,2,0:2:0:0:
318,137,293648,1,2,0:2:0:0:
299,106,293734,1,2,0:2:0:0:
267,86,293820,5,2,1:2:0:0:
218,65,293907,1,2,0:2:0:0:
216,12,293993,1,2,0:2:0:0:
264,0,294079,1,2,0:2:0:0:
306,19,294165,1,10,1:2:0:0:
250,24,294251,1,2,0:2:0:0:
194,29,294337,1,2,0:2:0:0:
138,34,294423,1,2,0:2:0:0:
82,39,294509,5,2,0:2:0:0:
36,69,294596,1,2,0:2:0:0:
24,123,294682,1,2,1:2:0:0:
53,170,294768,1,2,0:2:0:0:
106,184,294854,1,10,1:2:0:0:
159,198,294942,1,2,0:2:0:0:
187,245,295028,1,2,0:2:0:0:
175,299,295114,1,2,0:2:0:0:
130,330,295201,5,2,1:2:0:0:
258,142,295372,1,0,1:2:0:0:
307,384,295545,1,10,0:0:0:0:
41,275,295717,1,0,1:2:0:0:
336,287,295890,5,2,1:2:0:0:
5,370,296062,1,0,1:2:0:0:
116,110,296234,1,10,0:0:0:0:
209,384,296407,1,0,1:2:0:0:
407,126,296579,5,2,1:2:0:0:
175,299,296752,1,0,1:2:0:0:
470,321,296924,1,10,0:0:0:0:
317,67,297096,1,0,1:2:0:0:
336,365,297269,5,2,1:2:0:0:
485,40,297441,1,0,1:2:0:0:
130,74,297614,2,0,L|112:273,1,150.000005722046,10|0,0:0|0:0,0:0:0:0:
507,223,297959,6,0,L|502:175,1,44.999998626709,2|0,0:0|0:0,0:0:0:0:
425,136,298303,6,0,B|341:124|365:196|281:185,1,160,10|0,0:0|0:0,0:0:0:0:
248,182,298562,1,0,0:0:0:0:
216,179,298648,1,2,0:0:0:0:
419,221,298821,2,0,L|410:315,1,80,2|0,1:2|0:0,0:0:0:0:
286,100,298993,2,0,L|277:5,1,80,10|0,0:0|0:0,0:0:0:0:
91,248,299166,1,2,0:0:0:0:
125,252,299252,1,0,0:0:0:0:
157,255,299338,5,0,1:2:0:0:
377,382,299510,2,0,P|416:385|455:377,1,80,2|0,0:0|0:0,0:0:0:0:
271,309,299683,1,8,0:0:0:0:
119,165,299855,2,0,P|79:161|40:169,1,80,2|0,0:0|0:0,0:0:0:0:
72,341,300028,2,0,P|110:349|150:345,1,80,2|0,0:0|0:0,0:0:0:0:
185,85,300200,1,0,1:2:0:0:
393,188,300372,2,0,P|288:203|230:179,1,160,8|2,0:0|0:0,0:0:0:0:
263,18,300631,1,2,0:0:0:0:
282,0,300717,6,0,B|321:-11|321:-11|361:2,1,80,2|0,1:2|0:0,0:0:0:0:
512,77,300890,2,0,B|474:89|474:89|435:78,1,80,2|0,0:0|0:0,0:0:0:0:
177,17,301062,2,0,B|182:84|182:84|201:99|201:99|207:167,1,160,10|0,0:0|0:0,0:0:0:0:
172,318,301321,1,0,0:0:0:0:
149,304,301407,2,0,L|140:209,1,80,2|0,0:0|0:0,0:0:0:0:
290,92,301579,2,0,L|296:171,1,80,0|0,1:2|0:0,0:0:0:0:
70,174,301752,2,0,L|55:6,1,160,10|0,0:0|0:0,0:0:0:0:
404,280,302096,5,2,1:2:0:0:
330,277,302182,1,2,0:0:0:0:
274,230,302268,1,2,0:0:0:0:
258,158,302354,1,2,0:0:0:0:
290,92,302440,1,10,0:0:0:0:
319,94,302527,1,2,0:0:0:0:
349,97,302613,1,2,0:0:0:0:
379,100,302699,1,2,0:0:0:0:
409,103,302785,1,2,0:0:0:0:
178,4,302959,1,0,1:2:0:0:
148,6,303045,1,0,0:0:0:0:
118,9,303131,1,8,0:0:0:0:
40,172,303303,1,0,0:0:0:0:
70,174,303389,1,0,0:0:0:0:
100,177,303476,6,0,B|225:158|190:266|316:247,1,240,2|0,1:2|0:0,0:0:0:0:
414,228,303821,2,0,P|347:246|365:348,1,160,8|2,0:0|0:0,0:0:0:0:
474,291,304079,1,0,0:0:0:0:
490,269,304165,2,0,P|498:231|492:191,1,80,2|0,0:0|0:0,0:0:0:0:
347,187,304338,2,0,P|375:212|413:227,1,80,2|0,1:2|0:0,0:0:0:0:
489,104,304510,2,0,P|452:116|420:141,1,80,10|0,0:0|0:0,0:0:0:0:
253,274,304683,1,2,0:0:0:0:
253,274,304769,1,0,0:0:0:0:
253,274,304855,6,0,L|261:174,1,80,0|0,1:2|0:0,0:0:0:0:
247,25,305028,1,2,0:0:0:0:
228,43,305114,2,0,L|221:122,1,80,2|8,0:0|0:0,0:0:0:0:
145,288,305286,1,2,0:0:0:0:
164,270,305372,2,0,L|170:190,1,80,2|0,0:0|0:0,0:0:0:0:
147,64,305545,2,0,L|141:127,3,40,2|2|2|2,0:0|0:0|0:0|0:0,0:0:0:0:
131,42,305717,2,0,L|122:141,1,80,2|0,1:2|0:0,0:0:0:0:
26,173,305890,2,0,B|102:148|102:148|170:189,1,160,10|2,0:0|0:0,0:0:0:0:
257,275,306148,1,2,0:0:0:0:
279,297,306234,6,0,P|296:234|274:126,1,160,2|0,1:2|0:0,0:0:0:0:
60,357,306579,1,8,0:0:0:0:
139,363,306665,1,0,0:0:0:0:
219,370,306751,1,2,0:0:0:0:
299,377,306837,1,2,0:0:0:0:
378,384,306923,1,2,0:0:0:0:
414,368,307010,1,2,0:0:0:0:
438,337,307096,1,2,1:2:0:0:
444,298,307182,1,0,0:0:0:0:
430,261,307269,2,0,P|422:217|439:174,1,80,10|0,0:0|0:0,0:0:0:0:
506,56,307441,1,2,0:0:0:0:
506,56,307528,1,0,0:0:0:0:
506,56,307614,6,0,L|447:50,7,40,2|2|2|2|2|2|2|2,1:2|0:0|0:0|0:0|0:0|0:0|0:0|0:0,0:0:0:0:
512,83,307959,2,0,L|337:66,1,160,8|0,0:0|0:0,0:0:0:0:
243,0,308217,1,0,1:2:0:0:
261,23,308303,2,0,L|269:115,1,80,0|0,0:0|0:0,0:0:0:0:
158,242,308476,1,0,1:2:0:0:
124,173,308562,1,0,1:2:0:0:
168,111,308648,1,8,0:0:0:0:
244,119,308734,1,0,1:2:0:0:
273,189,308820,1,0,1:2:0:0:
248,384,308993,5,2,1:2:0:0:
2,242,309165,1,0,0:0:0:0:
15,191,309252,1,0,0:0:0:0:
24,140,309338,2,0,L|14:35,1,80,10|0,0:0|0:0,0:0:0:0:
281,197,309510,1,0,0:0:0:0:
281,197,309597,1,0,0:0:0:0:
281,197,309683,2,0,L|271:301,1,80,2|0,0:0|0:0,0:0:0:0:
158,137,309855,2,0,L|151:57,1,80,2|0,1:2|0:0,0:0:0:0:
414,199,310028,2,0,L|408:279,1,80,10|0,0:0|0:0,0:0:0:0:
163,318,310200,2,0,L|156:238,1,80,2|0,0:0|0:0,0:0:0:0:
324,21,310372,5,0,1:2:0:0:
490,189,310545,2,0,P|456:202|403:195,1,80,2|0,0:0|0:0,0:0:0:0:
475,0,310717,1,8,0:0:0:0:
304,193,310890,2,0,P|338:206|391:199,1,80,2|0,0:0|0:0,0:0:0:0:
332,28,311062,1,0,0:0:0:0:
332,28,311148,1,0,0:0:0:0:
332,28,311234,2,0,P|298:15|245:22,1,80,2|0,1:2|0:0,0:0:0:0:
41,165,311407,1,8,0:0:0:0:
91,196,311493,1,0,0:0:0:0:
150,197,311579,1,2,0:0:0:0:
201,166,311665,1,2,0:0:0:0:
228,114,311752,6,0,L|135:105,1,80,0|0,1:2|0:0,0:0:0:0:
26,295,311924,1,2,0:0:0:0:
101,287,312010,1,2,0:0:0:0:
176,280,312096,2,0,L|268:271,1,80,10|0,0:0|0:0,0:0:0:0:
412,137,312269,2,0,L|319:128,1,80,0|0,0:0|0:0,0:0:0:0:
504,305,312441,2,0,L|497:384,1,80,2|0,0:0|0:0,0:0:0:0:
343,224,312614,1,0,1:2:0:0:
499,49,312786,2,0,L|512:208,1,160,10|0,0:0|0:0,0:0:0:0:
163,68,313131,5,2,1:2:0:0:
230,44,313217,1,2,0:0:0:0:
302,49,313303,1,2,0:0:0:0:
366,81,313389,1,2,0:0:0:0:
412,137,313475,1,10,0:0:0:0:
373,128,313562,1,2,0:0:0:0:
347,98,313648,1,2,0:0:0:0:
343,59,313734,1,2,0:0:0:0:
362,25,313820,1,2,0:0:0:0:
276,194,313993,1,0,1:2:0:0:
311,210,314079,1,0,0:0:0:0:
331,243,314165,1,8,0:0:0:0:
228,84,314338,1,0,0:0:0:0:
197,106,314424,1,0,0:0:0:0:
158,107,314510,6,0,P|84:92|92:219,1,240,2|0,1:2|0:0,0:0:0:0:
174,267,314855,2,0,P|148:229|100:221,1,80,10|0,0:0|0:0,0:0:0:0:
320,325,315028,2,0,P|365:321|396:283,1,80,2|0,0:0|0:0,0:0:0:0:
184,294,315200,2,0,L|172:421,1,80,2|0,0:0|0:0,0:0:0:0:
417,294,315372,1,2,1:2:0:0:
417,294,315459,1,0,0:0:0:0:
417,294,315545,2,0,L|410:214,1,80,10|0,0:0|0:0,0:0:0:0:
374,52,315717,2,0,L|362:179,1,80,2|0,0:0|0:0,0:0:0:0:
505,239,315890,5,0,1:2:0:0:
479,7,316062,1,2,0:0:0:0:
456,32,316148,2,0,P|415:39|355:22,1,80,2|8,0:0|0:0,0:0:0:0:
312,194,316321,1,2,0:0:0:0:
289,169,316407,2,0,P|248:162|188:179,1,80,2|0,0:0|0:0,0:0:0:0:
230,322,316579,2,0,P|243:325|273:314,3,40,2|2|2|2,0:0|0:0|0:0|0:0,0:0:0:0:
207,314,316752,2,0,P|233:281|248:221,1,80,2|0,1:2|0:0,0:0:0:0:
122,170,316924,2,0,P|136:209|181:252,1,80,10|0,0:0|0:0,0:0:0:0:
253,74,317096,1,2,0:0:0:0:
220,76,317183,1,0,0:0:0:0:
188,79,317269,6,0,B|163:94|163:94|20:82,1,160,2|0,1:2|0:0,0:0:0:0:
288,0,317614,1,10,0:0:0:0:
330,40,317700,1,2,0:0:0:0:
336,98,317786,1,2,0:0:0:0:
301,146,317872,1,2,0:0:0:0:
244,159,317958,1,2,0:0:0:0:
186,172,318045,1,2,0:0:0:0:
152,219,318131,1,2,1:2:0:0:
158,277,318217,1,0,0:0:0:0:
200,318,318303,2,0,L|303:308,1,80,10|0,0:0|0:0,0:0:0:0:
471,263,318476,1,2,0:0:0:0:
465,205,318562,1,2,0:0:0:0:
423,163,318648,6,0,L|359:168,7,40,2|2|2|2|2|2|2|2,1:2|0:0|1:2|0:0|0:0|0:0|0:0|0:0,0:0:0:0:
441,135,318993,2,0,L|449:34,1,80,8|0,0:0|0:0,0:0:0:0:
195,144,319165,1,0,0:0:0:0:
245,173,319251,1,0,1:2:0:0:
301,157,319337,1,0,0:0:0:0:
328,105,319423,1,0,0:0:0:0:
309,50,319509,1,0,1:2:0:0:
236,44,319596,1,0,1:2:0:0:
163,38,319683,1,8,0:0:0:0:
186,260,319855,1,0,0:0:0:0:
186,260,319941,1,0,0:0:0:0:
186,260,320028,6,0,B|269:248|245:320|329:309,1,160,2|0,1:2|0:0,0:0:0:0:
481,365,320286,1,0,0:0:0:0:
497,384,320372,2,0,P|509:341|494:281,1,80,10|0,0:0|0:0,0:0:0:0:
423,186,320545,1,0,0:0:0:0:
423,186,320631,1,0,0:0:0:0:
423,186,320717,2,0,P|411:229|426:289,1,80,2|0,0:0|0:0,0:0:0:0:
301,157,320890,2,0,P|269:125|210:108,1,80,2|0,1:2|0:0,0:0:0:0:
387,65,321062,2,0,P|430:53|474:10,1,80,10|0,0:0|0:0,0:0:0:0:
223,23,321234,2,0,P|186:39|159:68,1,80,2|0,0:0|0:0,0:0:0:0:
503,119,321407,5,0,1:2:0:0:
217,205,321579,2,0,L|132:197,1,80,2|0,0:0|0:0,0:0:0:0:
397,369,321752,1,8,0:0:0:0:
302,163,321924,1,2,0:0:0:0:
305,123,322010,1,0,0:0:0:0:
308,83,322096,1,0,0:0:0:0:
312,43,322182,1,0,0:0:0:0:
315,3,322269,2,0,L|432:13,1,80,2|0,1:2|0:0,0:0:0:0:
409,270,322441,1,10,0:0:0:0:
360,297,322527,1,2,0:0:0:0:
305,296,322613,1,2,0:0:0:0:
258,265,322699,1,2,0:0:0:0:
235,215,322786,5,2,1:2:0:0:
204,149,322873,1,2,0:0:0:0:
143,108,322959,1,2,0:0:0:0:
70,107,323045,1,2,0:0:0:0:
6,143,323131,2,0,L|-4:263,1,80,10|0,0:0|0:0,0:0:0:0:
186,382,323303,2,0,L|179:302,1,80,0|0,0:0|0:0,0:0:0:0:
341,131,323476,2,0,L|334:210,1,80,2|0,0:0|0:0,0:0:0:0:
112,202,323648,1,0,1:2:0:0:
276,30,323821,2,0,L|453:45,1,160,10|0,0:0|0:0,0:0:0:0:
352,223,324165,5,2,1:2:0:0:
272,216,324251,1,2,0:0:0:0:
192,209,324337,1,2,0:0:0:0:
112,202,324423,1,2,0:0:0:0:
33,195,324509,1,10,0:0:0:0:
13,160,324596,1,2,0:0:0:0:
6,121,324682,1,2,0:0:0:0:
11,81,324768,1,2,0:0:0:0:
28,45,324855,2,0,P|63:30|131:51,1,80,2|0,0:0|0:0,0:0:0:0:
359,23,325028,1,0,1:2:0:0:
354,63,325114,1,0,0:0:0:0:
337,99,325201,2,0,P|302:114|234:93,1,80,0|0,0:0|0:0,0:0:0:0:
112,202,325372,1,0,0:0:0:0:
112,202,325459,1,0,0:0:0:0:
112,202,325545,6,0,P|169:135|254:244,1,240,2|0,1:2|0:0,0:0:0:0:
261,324,325890,2,0,L|268:237,1,80,8|0,0:0|0:0,0:0:0:0:
15,176,326062,2,0,L|21:255,1,80,2|0,0:0|0:0,0:0:0:0:
183,110,326234,2,0,L|190:23,1,80,2|0,0:0|0:0,0:0:0:0:
369,192,326407,1,2,1:2:0:0:
169,335,326579,2,0,L|72:326,1,80,10|0,0:0|0:0,0:0:0:0:
371,293,326752,2,0,L|467:284,1,80,2|0,0:0|0:0,0:0:0:0:
297,96,326924,5,0,1:2:0:0:
293,375,327096,1,2,0:0:0:0:
273,350,327183,2,0,P|266:316|273:255,1,80,2|8,0:0|0:0,0:0:0:0:
164,93,327355,1,2,0:0:0:0:
184,118,327442,2,0,P|191:152|184:213,1,80,2|0,0:0|0:0,0:0:0:0:
52,21,327614,2,0,L|99:16,3,40,2|2|2|2,0:0|0:0|0:0|0:0,0:0:0:0:
30,43,327786,2,0,P|23:77|30:138,1,80,2|0,1:2|0:0,0:0:0:0:
311,86,327959,2,0,P|314:46|306:7,1,80,10|0,0:0|0:0,0:0:0:0:
31,211,328131,1,2,0:0:0:0:
65,214,328217,1,2,0:0:0:0:
100,217,328303,6,0,B|171:194|171:194|282:221,1,160,2|0,1:2|0:0,0:0:0:0:
452,331,328648,1,10,0:0:0:0:
423,303,328734,1,2,0:0:0:0:
385,293,328820,1,2,0:0:0:0:
347,303,328906,1,2,0:0:0:0:
319,332,328992,1,2,0:0:0:0:
325,257,329079,1,2,0:0:0:0:
331,184,329165,1,2,1:2:0:0:
337,111,329251,1,0,0:0:0:0:
343,39,329338,2,0,L|466:28,1,80,10|0,0:0|0:0,0:0:0:0:
149,10,329510,1,2,0:0:0:0:
101,15,329596,1,2,0:0:0:0:
52,21,329683,6,0,L|47:69,7,40,2|2|2|2|2|2|2|2,1:2|0:0|0:0|0:0|0:0|0:0|0:0|0:0,0:0:0:0:
33,13,330028,2,0,L|23:118,1,80,8|0,0:0|0:0,0:0:0:0:
12,281,330200,1,2,0:0:0:0:
49,217,330286,1,2,1:2:0:0:
112,181,330372,1,2,0:0:0:0:
186,185,330458,1,2,0:0:0:0:
246,226,330544,1,2,1:2:0:0:
306,267,330631,1,2,1:2:0:0:
380,271,330717,1,10,0:0:0:0:
443,235,330803,1,2,1:2:0:0:
480,171,330890,2,0,P|489:126|483:86,1,80,2|0,1:2|0:0,0:0:0:0:
341,350,331062,6,0,B|273:355|273:355|258:374|258:374|190:380,1,160,2|0,1:2|0:0,0:0:0:0:
18,377,331321,1,0,0:0:0:0:
31,348,331407,2,0,P|64:336|114:344,1,80,10|0,0:0|0:0,0:0:0:0:
186,185,331579,1,0,0:0:0:0:
186,185,331665,1,0,0:0:0:0:
186,185,331752,2,0,L|194:83,1,80,2|0,0:0|0:0,0:0:0:0:
480,171,331924,2,0,L|486:250,1,80,2|0,1:2|0:0,0:0:0:0:
194,275,332096,2,0,L|202:173,1,80,10|0,0:0|0:0,0:0:0:0:
471,260,332269,2,0,L|477:339,1,80,2|0,0:0|0:0,0:0:0:0:
341,105,332441,5,0,1:2:0:0:
194,275,332614,2,0,L|104:267,1,80,2|0,0:0|0:0,0:0:0:0:
349,229,332786,1,8,0:0:0:0:
74,174,332959,1,2,0:0:0:0:
31,215,333045,1,0,0:0:0:0:
17,273,333131,1,0,0:0:0:0:
36,329,333217,1,0,0:0:0:0:
82,366,333303,2,0,L|171:358,1,80,2|0,1:2|0:0,0:0:0:0:
189,103,333476,1,10,0:0:0:0:
149,99,333562,1,2,0:0:0:0:
109,95,333648,1,2,0:0:0:0:
69,91,333734,1,2,0:0:0:0:
29,87,333820,5,2,1:2:0:0:
67,41,333907,1,2,0:0:0:0:
120,14,333993,1,2,0:0:0:0:
179,11,334079,1,2,0:0:0:0:
235,33,334165,2,0,P|278:41|341:34,1,80,10|0,0:0|0:0,0:0:0:0:
510,215,334338,2,0,P|467:207|404:214,1,80,0|0,0:0|0:0,0:0:0:0:
246,320,334510,1,2,0:0:0:0:
405,95,334683,1,0,1:2:0:0:
329,365,334855,2,0,L|119:346,1,160,10|0,0:0|0:0,0:0:0:0:
24,269,335114,1,0,0:0:0:0:
46,241,335200,6,0,L|55:137,1,80,2|0,1:2|0:0,0:0:0:0:
186,27,335372,2,0,L|192:106,1,80,0|0,0:0|0:0,0:0:0:0:
13,12,335545,1,10,0:0:0:0:
192,248,335717,1,0,0:0:0:0:
251,242,335803,1,0,0:0:0:0:
311,237,335889,1,2,0:0:0:0:
371,232,335975,1,0,0:0:0:0:
439,235,336061,1,0,1:2:0:0:
439,235,336148,1,0,0:0:0:0:
439,235,336234,1,8,0:0:0:0:
220,371,336407,1,0,0:0:0:0:
220,371,336579,5,2,0:0:0:0:
256,192,336665,12,0,341752,0:0:0:0:
