osu file format v14

[General]
AudioFilename: audio.mp3
AudioLeadIn: 0
PreviewTime: 71741
Countdown: 1
SampleSet: Soft
StackLeniency: 0.7
Mode: 0
LetterboxInBreaks: 0
WidescreenStoryboard: 0

[Editor]
Bookmarks: 16611,22128,44197,60749,71784,93853,115922,137991,160060,182128,204197,226266,237301,242818,248335,253853,275922,297991,320060,341611
DistanceSpacing: 0.7
BeatDivisor: 4
GridSize: 4
TimelineZoom: 2.3

[Metadata]
Title:Paperchase (feat. Danny Byrd)
TitleUnicode:Paperchase (feat. Danny Byrd)
Artist:Brookes Brothers
ArtistUnicode:Brookes Brothers
Creator:Secretpipe
Version:behind the sheets
Source:
Tags:dnb drum and bass
BeatmapID:1413540
BeatmapSetID:668098

[Difficulty]
HPDrainRate:7
CircleSize:4.5
OverallDifficulty:8.7
ApproachRate:9.2
SliderMultiplier:1.6
SliderTickRate:1

[Events]
//Background and Video events
0,0,"thumb-1920-817525.jpg",0,0
//Break Periods
//Storyboard Layer 0 (Background)
//Storyboard Layer 1 (Fail)
//Storyboard Layer 2 (Pass)
//Storyboard Layer 3 (Foreground)
//Storyboard Sound Samples

[TimingPoints]
60,344.827586206897,4,2,0,20,1,0
60,-133.333333333333,4,2,0,20,0,0
22128,-100,4,2,0,20,0,0
27301,-133.333333333333,4,2,0,20,0,0
27646,-100,4,2,0,20,0,0
32818,-133.333333333333,4,2,0,20,0,0
33163,-100,4,2,0,20,0,0
38335,-133.333333333333,4,2,0,20,0,0
38680,-100,4,2,0,20,0,0
43853,-133.333333333333,4,2,0,20,0,0
44197,-90.9090909090909,4,2,0,20,0,0
49370,-133.333333333333,4,2,0,20,0,0
49715,-90.9090909090909,4,2,0,20,0,0

[HitObjects]
95,255,60,6,0,P|78:231|89:178,2,60.0000022888184
252,221,577,2,0,P|201:191|139:214,1,120.000004577637
314,315,1094,2,0,P|346:324|388:306,1,60.0000022888184
368,198,1439,6,0,P|345:223|339:261,1,60.0000022888184
429,157,1784,2,0,L|408:73,2,60.0000022888184
483,68,2301,1,0,0:0:0:0:
294,58,2473,2,0,L|370:46,1,60.0000022888184
214,106,2818,6,0,L|139:94,1,60.0000022888184
275,232,3163,2,0,P|285:198|268:162,2,60.0000022888184
211,335,3680,1,0,0:0:0:0:
88,279,3853,2,0,P|125:275|159:290,1,60.0000022888184
324,334,4197,6,0,P|278:351|197:324,2,120.000004577637
403,258,5060,1,0,0:0:0:0:
280,171,5232,2,0,L|271:133,3,30.0000011444092
333,90,5577,6,0,L|343:27,1,60.0000022888184
375,164,5922,1,0,0:0:0:0:
148,83,6094,2,0,P|209:47|264:85,1,120.000004577637
115,155,6611,1,0,0:0:0:0:
65,84,6784,1,0,0:0:0:0:
206,153,6956,6,0,L|200:235,1,60.0000022888184
261,336,7301,2,0,P|265:296|245:268,2,60.0000022888184
170,275,7818,1,0,0:0:0:0:
316,216,7991,2,0,L|397:225,1,60.0000022888184
484,313,8335,6,0,L|419:327,1,60.0000022888184
266,269,8680,2,0,P|237:213|271:149,1,120.000004577637
332,82,9197,1,0,0:0:0:0:
173,49,9370,2,0,L|185:117,1,60.0000022888184
115,223,9715,2,0,L|129:154,1,60.0000022888184
159,337,10060,1,0,0:0:0:0:
47,259,10232,5,0,0:0:0:0:
183,260,10404,1,0,0:0:0:0:
68,338,10577,1,0,0:0:0:0:
173,185,10749,1,0,0:0:0:0:
236,326,10922,1,0,0:0:0:0:
93,147,11094,6,0,L|82:88,2,60.0000022888184
259,69,11611,2,0,P|198:64|158:125,1,120.000004577637
322,181,12128,2,0,L|323:114,1,60.0000022888184
260,260,12473,6,0,L|254:339,1,60.0000022888184
114,212,12818,2,0,P|147:199|187:209,2,60.0000022888184
179,284,13335,1,0,0:0:0:0:
238,146,13508,2,0,L|227:67,1,60.0000022888184
298,212,13853,6,0,P|330:218|361:213,1,60.0000022888184
492,161,14197,2,0,P|462:152|418:162,2,60.0000022888184
356,214,14715,1,0,0:0:0:0:
366,108,14887,1,0,0:0:0:0:
430,259,15060,1,0,0:0:0:0:
229,146,15232,6,0,L|303:151,1,60.0000022888184
156,97,15577,2,0,B|136:148|136:148|158:229,1,120.000004577637
206,307,16094,1,0,0:0:0:0:
404,230,16266,5,0,0:0:0:0:
411,200,16353,6,0,L|411:140,1,60.0000022888184
256,192,16611,12,0,21784,0:0:0:0:
232,162,22128,6,0,L|276:173,1,40
371,221,22301,2,0,L|327:225,1,40
179,107,22473,2,0,P|156:169|171:201,1,80
163,207,22732,1,0,0:0:0:0:
171,233,22818,1,0,0:0:0:0:
291,127,22991,1,0,0:0:0:0:
75,39,23163,2,0,P|91:75|87:135,1,80
30,280,23508,6,0,L|42:196,1,80
159,363,23853,1,0,0:0:0:0:
231,250,24025,1,0,0:0:0:0:
231,250,24111,1,0,0:0:0:0:
231,250,24197,1,0,0:0:0:0:
120,271,24370,1,0,0:0:0:0:
311,310,24542,2,0,L|304:218,1,80
271,116,24887,6,0,L|223:124,1,40
349,145,25060,2,0,L|393:160,1,40
302,42,25232,2,0,L|191:57,1,80
194,56,25491,1,0,0:0:0:0:
166,59,25577,1,0,0:0:0:0:
262,190,25749,1,0,0:0:0:0:
76,251,25922,2,0,P|67:213|89:156,1,80
184,284,26266,6,0,L|194:337,2,53.3333333333333
262,190,26611,2,0,L|266:136,2,53.3333333333333
337,292,26956,1,0,0:0:0:0:
395,194,27128,1,0,0:0:0:0:
160,49,27301,2,0,L|177:160,1,90.0000034332277
149,208,27646,6,0,B|97:214|97:214|60:198,1,80
244,304,27991,1,0,0:0:0:0:
323,236,28163,2,0,L|313:189,2,40
365,131,28508,1,0,0:0:0:0:
237,38,28680,2,0,B|213:104|253:99|226:157,1,120
184,215,29025,5,0,0:0:0:0:
304,76,29197,1,0,0:0:0:0:
28,98,29370,2,0,L|114:107,1,80
134,112,29628,1,0,0:0:0:0:
161,117,29715,1,0,0:0:0:0:
80,28,29887,1,0,0:0:0:0:
23,262,30060,2,0,L|163:254,1,120
212,242,30404,5,0,0:0:0:0:
131,173,30577,1,0,0:0:0:0:
221,333,30749,2,0,P|280:341|326:314,1,80
321,318,31008,1,0,0:0:0:0:
343,302,31094,2,0,L|431:313,1,80
237,197,31439,2,0,L|111:210,1,120
59,253,31784,6,0,P|51:304|73:336,1,80
141,130,32128,1,0,0:0:0:0:
35,180,32301,1,0,0:0:0:0:
35,180,32387,1,0,0:0:0:0:
35,180,32473,1,0,0:0:0:0:
163,251,32646,1,0,0:0:0:0:
238,67,32818,2,0,L|248:172,1,90.0000034332277
261,229,33163,6,0,L|248:362,1,120
181,321,33508,1,0,0:0:0:0:
350,242,33680,1,0,0:0:0:0:
350,242,33766,1,0,0:0:0:0:
350,242,33853,2,0,L|344:191,2,40
247,32,34197,2,0,B|244:63|226:81|226:81|246:115|231:155,1,120
204,212,34542,5,0,0:0:0:0:
126,120,34715,1,0,0:0:0:0:
19,298,34887,2,0,L|112:286,1,80
125,281,35146,1,0,0:0:0:0:
152,279,35232,1,0,0:0:0:0:
84,364,35404,1,0,0:0:0:0:
204,212,35577,2,0,L|329:222,1,120
375,272,35922,5,0,0:0:0:0:
289,333,36094,1,0,0:0:0:0:
380,156,36266,2,0,P|384:112|353:70,1,80
343,67,36525,1,0,0:0:0:0:
316,58,36611,2,0,L|221:70,1,80
170,210,36956,2,0,P|218:172|162:145,1,120
114,125,37301,6,0,L|96:65,2,53.3333333333333
67,221,37646,2,0,L|49:161,2,53.3333333333333
46,298,37991,1,0,0:0:0:0:
156,348,38163,1,0,0:0:0:0:
323,247,38335,2,0,P|276:233|222:254,1,90.0000034332277
177,278,38680,6,0,L|187:182,1,80
86,49,39025,2,0,P|120:62|182:57,1,80
190,55,39284,1,0,0:0:0:0:
216,47,39370,2,0,L|272:37,1,40
362,95,39542,2,0,L|322:90,1,40
426,44,39715,2,0,P|452:95|430:149,1,120
371,187,40060,5,0,0:0:0:0:
440,319,40232,1,0,0:0:0:0:
367,180,40404,2,0,L|261:192,1,80
259,191,40663,1,0,0:0:0:0:
231,191,40749,2,0,L|176:184,2,40
115,47,41094,2,0,B|99:89|99:89|122:175,1,120
124,235,41439,6,0,L|116:287,1,40
53,360,41611,2,0,L|41:315,1,40
189,345,41784,2,0,P|231:353|277:335,1,80
289,327,42042,1,0,0:0:0:0:
307,306,42128,2,0,L|300:245,2,40
444,156,42473,2,0,P|392:177|320:145,1,120
272,119,42818,5,0,0:0:0:0:
390,76,42991,1,0,0:0:0:0:
386,347,43163,2,0,L|366:257,1,80
346,250,43422,1,0,0:0:0:0:
323,233,43508,1,0,0:0:0:0:
441,278,43680,1,0,0:0:0:0:
208,283,43853,6,0,L|221:168,1,90.0000034332277
289,92,44197,6,0,P|302:141|281:180,1,88.000002685547
167,351,44542,2,0,P|136:315|140:266,1,88.000002685547
174,210,44801,1,0,0:0:0:0:
174,210,44887,2,0,P|142:230|82:227,1,88.000002685547
64,82,45232,2,0,B|114:84|114:84|146:107,1,88.000002685547
335,227,45577,2,0,B|293:243|293:243|246:231,1,88.000002685547
206,38,45922,6,0,L|309:47,1,88.000002685547
322,56,46179,1,0,0:0:0:0:
349,69,46266,2,0,L|397:72,2,44.0000013427735
511,211,46611,1,0,0:0:0:0:
456,140,46784,1,0,0:0:0:0:
456,140,46870,1,0,0:0:0:0:
456,140,46956,6,0,P|422:185|422:234,1,88.000002685547
468,359,47301,1,0,0:0:0:0:
354,282,47473,2,0,L|306:286,2,44.0000013427735
505,278,47818,1,0,0:0:0:0:
322,184,47991,2,0,P|247:189|206:251,1,132.00000402832
203,305,48335,6,0,B|195:257|195:257|163:221,1,88.000002685547
27,104,48680,1,0,0:0:0:0:
13,299,48853,1,0,0:0:0:0:
38,296,48939,1,0,0:0:0:0:
64,294,49025,2,0,L|133:287,2,44.0000013427735
153,135,49370,2,0,P|203:146|259:119,1,90.0000034332277
315,82,49715,6,0,B|301:112|301:112|315:168,1,88.000002685547
92,228,50060,2,0,B|133:213|133:213|196:222,1,88.000002685547
242,257,50318,1,0,0:0:0:0:
242,257,50404,2,0,L|329:249,1,88.000002685547
306,30,50749,2,0,P|281:63|294:117,1,88.000002685547
395,218,51094,6,0,L|386:175,2,44.0000013427735
473,42,51439,1,0,0:0:0:0:
478,195,51611,1,0,0:0:0:0:
470,224,51697,1,0,0:0:0:0:
463,254,51783,1,0,0:0:0:0:
455,283,51869,1,0,0:0:0:0:
446,312,51955,1,0,0:0:0:0:
236,161,52128,1,0,0:0:0:0:
192,305,52301,2,0,L|183:353,1,44.0000013427735
236,246,52473,6,0,B|224:198|224:198|236:162,1,88.000002685547
280,20,52818,1,0,0:0:0:0:
442,128,52991,1,0,0:0:0:0:
442,128,53077,1,0,0:0:0:0:
442,128,53163,2,0,P|396:108|352:113,1,88.000002685547
120,156,53508,1,0,0:0:0:0:
216,205,53680,1,0,0:0:0:0:
108,64,53853,5,0,0:0:0:0:
145,222,54025,1,0,0:0:0:0:
295,51,54197,1,0,0:0:0:0:
69,221,54370,1,0,0:0:0:0:
63,251,54456,1,0,0:0:0:0:
56,281,54542,1,0,0:0:0:0:
188,136,54714,1,0,0:0:0:0:
454,266,54887,2,0,P|443:221|371:177,1,132.00000402832
309,216,55232,6,0,L|297:119,1,88.000002685547
349,337,55577,2,0,B|313:349|313:349|249:333,1,88.000002685547
198,302,55835,1,0,0:0:0:0:
198,302,55922,2,0,B|159:293|159:293|106:305,1,88.000002685547
409,233,56266,2,0,B|421:185|421:185|405:133,1,88.000002685547
163,135,56611,6,0,L|151:76,2,44.0000013427735
56,275,56956,1,0,0:0:0:0:
256,180,57128,1,0,0:0:0:0:
268,151,57214,1,0,0:0:0:0:
267,119,57301,2,0,L|257:68,2,44.0000013427735
79,30,57646,1,0,0:0:0:0:
56,275,57818,1,0,0:0:0:0:
82,289,57904,1,0,0:0:0:0:
111,298,57991,6,0,L|210:286,1,88.000002685547
431,301,58335,1,0,0:0:0:0:
402,180,58508,2,0,L|411:134,2,44.0000013427735
474,21,58853,1,0,0:0:0:0:
170,158,59025,2,0,P|214:166|262:154,1,88.000002685547
326,129,59284,1,0,0:0:0:0:
326,129,59370,6,0,B|338:81|338:81|318:35,1,88.000002685547
247,326,59715,1,0,0:0:0:0:
366,210,59887,1,0,0:0:0:0:
366,210,59973,1,0,0:0:0:0:
366,210,60060,2,0,P|414:202|458:210,1,88.000002685547
247,326,60404,2,0,P|199:334|155:326,1,88.000002685547
