osu file format v14

[General]
AudioFilename: audio.mp3
AudioLeadIn: 0
PreviewTime: 131055
Countdown: 0
SampleSet: Normal
StackLeniency: 0.7
Mode: 0
LetterboxInBreaks: 0
WidescreenStoryboard: 0

[Editor]
Bookmarks: 21773,33124,44158,55193,66227,77262,88296,99331,110365,121400,132434,151745,154503,154676,156572,176572,187090,187262,193124,195193,195538,195883,198641,208986,220710,237262,242779,264848,284158,286917,306227,308986,319331,328296,331055,342090,353124
DistanceSpacing: 1.1
BeatDivisor: 4
GridSize: 4
TimelineZoom: 2.899999

[Metadata]
Title:Not Just Yet (Original Mix)
TitleUnicode:Not Just Yet (Original Mix)
Artist:Brookes Brothers
ArtistUnicode:Brookes Brothers
Creator:Secretpipe
Version:Endless
Source:
Tags:drum and bass brookes brothers album
BeatmapID:1183556
BeatmapSetID:559633

[Difficulty]
HPDrainRate:6
CircleSize:4.3
OverallDifficulty:8.5
ApproachRate:9.2
SliderMultiplier:1.5
SliderTickRate:1

[Events]
//Background and Video events
0,0,"Secret_mieux_pwet.jpg",0,0
//Break Periods
2,66312,76662
2,220910,225627
2,226427,230800
//Storyboard Layer 0 (Background)
//Storyboard Layer 1 (Fail)
//Storyboard Layer 2 (Pass)
//Storyboard Layer 3 (Foreground)
//Storyboard Sound Samples

[TimingPoints]
21773,316.622691292876,4,1,1,30,1,0
21773,-133.333333333333,4,1,1,30,0,0
22090,344.827586206897,4,1,1,30,1,0
22090,-133.333333333333,4,1,1,30,0,0
44158,-100,4,1,1,30,0,0
44848,-133.333333333333,4,1,1,30,0,0
46917,-100,4,1,1,30,0,0
50365,-133.333333333333,4,1,1,30,0,0
56572,-100,4,1,1,30,0,0
57262,-133.333333333333,4,1,1,30,0,0
60710,-100,4,1,1,30,0,0
61227,-133.333333333333,4,1,1,30,0,0
63469,-100,4,1,1,30,0,0
64158,-90.9090909090909,4,1,1,30,0,0
64848,-83.3333333333333,4,1,1,30,0,0
77262,-200,4,1,2,25,0,0
88296,-133.333333333333,4,1,1,40,0,0
89934,-95.2380952380952,4,1,3,40,0,0
92262,-133.333333333333,4,1,1,40,0,0
109676,-133.333333333333,4,1,4,40,0,0
110365,-100,4,1,1,60,0,1
110710,-100,4,1,2,60,0,0
115883,-100,4,1,1,60,0,0
116227,-100,4,1,2,60,0,0
117607,-100,4,1,1,60,0,0
121745,-100,4,1,2,60,0,0
132434,-76.9230769230769,4,1,32,75,0,1
132607,-76.9230769230769,4,1,3,75,0,1
133296,-76.9230769230769,4,1,4,75,0,1
133814,-62.5,4,1,2,75,0,1
134158,-62.5,4,1,4,75,0,1
135193,-76.9230769230769,4,1,4,75,0,1
136572,-62.5,4,1,2,75,0,1
136917,-62.5,4,1,4,75,0,1
137952,-76.9230769230769,4,1,4,75,0,1
139331,-62.5,4,1,2,75,0,1
139676,-62.5,4,1,4,75,0,1
140710,-76.9230769230769,4,1,4,75,0,1
142090,-62.5,4,1,2,75,0,1
142434,-62.5,4,1,4,75,0,1
143469,-76.9230769230769,4,1,4,75,0,1
144848,-62.5,4,1,2,75,0,1
145193,-62.5,4,1,4,75,0,1
146227,-76.9230769230769,4,1,4,75,0,1
147607,-62.5,4,1,2,75,0,1
147952,-62.5,4,1,4,75,0,1
148986,-76.9230769230769,4,1,4,75,0,1
150365,-62.5,4,1,2,75,0,1
150710,-62.5,4,1,4,75,0,1
151745,-100,4,1,1,75,0,1
154417,-100,4,1,1,50,0,0
154503,-76.9230769230769,4,1,1,50,0,0
154848,-76.9230769230769,4,1,1,75,0,1
155365,-76.9230769230769,4,1,4,75,0,1
155883,-62.5,4,1,2,75,0,1
156227,-62.5,4,1,4,75,0,1
157262,-76.9230769230769,4,1,4,75,0,1
158641,-62.5,4,1,2,75,0,1
158986,-62.5,4,1,4,75,0,1
160021,-76.9230769230769,4,1,4,75,0,1
161400,-62.5,4,1,2,75,0,1
161745,-62.5,4,1,4,75,0,1
162779,-76.9230769230769,4,1,4,75,0,1
164158,-62.5,4,1,2,75,0,1
164503,-62.5,4,1,4,75,0,1
165538,-76.9230769230769,4,1,4,75,0,1
166917,-62.5,4,1,2,75,0,1
167262,-62.5,4,1,4,75,0,1
168296,-76.9230769230769,4,1,4,75,0,1
169676,-62.5,4,1,2,75,0,1
170021,-62.5,4,1,4,75,0,1
171055,-76.9230769230769,4,1,1,75,0,1
171917,-76.9230769230769,4,1,4,75,0,1
172434,-62.5,4,1,2,75,0,1
172779,-62.5,4,1,4,75,0,1
173814,-76.9230769230769,4,1,2,75,0,1
176486,-76.9230769230769,4,1,1,50,0,0
176831,-76.9230769230769,4,1,3,50,0,0
190193,-58.8235294117647,4,1,3,50,0,0
190365,-76.9230769230769,4,1,3,50,0,0
198641,-76.9230769230769,4,1,1,50,0,0
198986,-76.9230769230769,4,1,3,50,0,0
220710,-76.9230769230769,4,1,1,50,0,0
231745,-100,4,1,5,50,0,0
237262,-100,4,1,5,50,0,0
240021,-100,4,1,5,60,0,0
242779,-76.9230769230769,4,1,1,65,0,0
242952,-76.9230769230769,4,1,4,75,0,0
244158,-62.5,4,1,2,75,0,0
244503,-62.5,4,1,4,75,0,0
245538,-76.9230769230769,4,1,4,75,0,0
246917,-62.5,4,1,2,75,0,0
247262,-62.5,4,1,4,75,0,0
248296,-76.9230769230769,4,1,4,75,0,0
249676,-62.5,4,1,2,75,0,0
250021,-62.5,4,1,4,75,0,0
251055,-76.9230769230769,4,1,4,75,0,0
252434,-62.5,4,1,2,75,0,0
252779,-62.5,4,1,4,75,0,0
253814,-76.9230769230769,4,1,4,75,0,0
255193,-62.5,4,1,2,75,0,0
255538,-62.5,4,1,4,75,0,0
256572,-76.9230769230769,4,1,4,75,0,0
257952,-62.5,4,1,2,75,0,0
258296,-62.5,4,1,4,75,0,0
259331,-76.9230769230769,4,1,4,75,0,0
260710,-62.5,4,1,2,75,0,0
261055,-62.5,4,1,4,75,0,0
262090,-76.9230769230769,4,1,4,75,0,0
264848,-66.6666666666667,4,1,32,85,0,1
265021,-66.6666666666667,4,1,2,85,0,1
265365,-66.6666666666667,4,1,5,85,0,1
266227,-58.8235294117647,4,1,2,85,0,1
266745,-66.6666666666667,4,1,5,85,0,1
268986,-58.8235294117647,4,1,2,85,0,1
269503,-66.6666666666667,4,1,5,85,0,1
271745,-58.8235294117647,4,1,2,85,0,1
272262,-66.6666666666667,4,1,5,85,0,1
274503,-58.8235294117647,4,1,32,85,0,1
275538,-76.9230769230769,4,1,1,85,0,1
275883,-76.9230769230769,4,1,1,75,0,0
277262,-62.5,4,1,2,75,0,0
277607,-62.5,4,1,4,75,0,0
278641,-76.9230769230769,4,1,4,75,0,0
280021,-62.5,4,1,2,75,0,0
280365,-62.5,4,1,4,75,0,0
281400,-76.9230769230769,4,1,4,75,0,0
282779,-62.5,4,1,2,75,0,0
283124,-62.5,4,1,4,75,0,0
284158,-83.3333333333333,4,1,1,75,0,0
286917,-76.9230769230769,4,1,1,75,0,0
288296,-62.5,4,1,2,75,0,0
288641,-62.5,4,1,4,75,0,0
289676,-76.9230769230769,4,1,4,75,0,0
291055,-62.5,4,1,2,75,0,0
291400,-62.5,4,1,4,75,0,0
292434,-76.9230769230769,4,1,4,75,0,0
293814,-62.5,4,1,2,75,0,0
294158,-62.5,4,1,4,75,0,0
295193,-76.9230769230769,4,1,4,75,0,0
296572,-62.5,4,1,2,75,0,0
296917,-62.5,4,1,4,75,0,0
297952,-76.9230769230769,4,1,4,75,0,0
299331,-62.5,4,1,2,75,0,0
299676,-62.5,4,1,4,75,0,0
300710,-76.9230769230769,4,1,4,75,0,0
302090,-62.5,4,1,2,75,0,0
302434,-62.5,4,1,4,75,0,0
303469,-76.9230769230769,4,1,4,75,0,0
304848,-62.5,4,1,2,75,0,0
305193,-62.5,4,1,4,75,0,0
306227,-100,4,1,1,75,0,0
308986,-83.3333333333333,4,1,1,75,0,0
309158,-83.3333333333333,4,1,3,75,0,0
331055,-83.3333333333333,4,1,1,75,0,0
331227,-83.3333333333333,4,1,3,75,0,0
342090,-133.333333333333,4,1,5,45,0,0

[Colours]
Combo1 : 255,176,98
Combo2 : 204,147,147
Combo3 : 125,155,125
Combo4 : 133,194,197

[HitObjects]
286,333,21772,5,2,0:0:0:0:
219,272,22090,2,0,P|265:242|329:253,1,112.500004291535,4|0,0:0|0:0,0:0:0:0:
408,307,22607,1,0,0:0:0:0:
393,85,22779,2,0,L|389:213,1,112.500004291535,8|0,0:0|0:0,0:0:0:0:
324,260,23296,1,0,0:0:0:0:
198,208,23469,2,0,L|277:200,1,56.2500021457673,2|0,0:0|0:0,0:0:0:0:
132,166,23814,2,0,L|61:158,1,56.2500021457673,2|0,0:0|0:0,0:0:0:0:
218,26,24158,2,0,P|226:81|196:141,1,112.500004291535,8|0,1:0|0:0,0:0:0:0:
36,319,24848,6,4,B|88:332|88:332|167:314,1,112.500004291535,4|0,0:0|0:0,0:0:0:0:
213,278,25365,1,0,0:0:0:0:
396,319,25538,2,4,B|344:306|344:306|265:324,1,112.500004291535,4|0,0:0|0:0,0:0:0:0:
213,353,26055,1,0,0:0:0:0:
281,242,26227,2,0,L|276:208,3,28.1250010728836,2|0|2|0,0:0|0:0|0:0|0:0,0:0:0:0:
326,156,26572,2,0,L|329:92,1,56.2500021457673,2|0,0:0|0:0,0:0:0:0:
406,258,26917,2,0,L|402:333,1,56.2500021457673,8|0,0:0|0:0,0:0:0:0:
332,148,27262,2,0,L|338:83,1,56.2500021457673
367,31,27607,6,0,P|321:46|244:36,1,112.500004291535,2|0,0:0|0:0,0:0:0:0:
167,20,28124,1,0,0:0:0:0:
49,190,28296,2,0,P|104:184|158:200,1,112.500004291535,8|0,0:0|0:0,0:0:0:0:
228,239,28814,1,0,0:0:0:0:
158,284,28986,1,2,0:0:0:0:
158,284,29331,1,2,0:0:0:0:
225,144,29503,1,2,0:0:0:0:
340,249,29676,2,0,L|220:238,1,112.500004291535,8|0,0:0|0:0,0:0:0:0:
422,349,30365,6,0,B|440:309|440:309|420:228,1,112.500004291535,4|0,0:0|0:0,0:0:0:0:
386,178,30883,1,0,0:0:0:0:
451,19,31055,2,0,B|433:59|433:59|449:125,1,112.500004291535,4|0,0:0|0:0,0:0:0:0:
465,216,31572,1,0,0:0:0:0:
366,104,31745,6,0,L|260:108,1,84.3750032186509,2|0,0:0|0:0,0:0:0:0:
246,117,32090,2,0,L|150:110,1,84.3750032186509,2|0,0:0|0:0,0:0:0:0:
127,99,32434,1,8,0:0:0:0:
176,21,32607,1,0,0:0:0:0:
166,258,32779,1,2,0:0:0:0:
157,240,32865,1,2,0:0:0:0:
157,220,32952,1,2,0:0:0:0:
162,201,33038,1,2,0:0:0:0:
169,182,33124,6,0,L|89:187,1,56.2500021457673,2|0,0:0|0:0,0:0:0:0:
300,233,33469,2,0,L|220:228,1,56.2500021457673,2|0,0:0|0:0,0:0:0:0:
403,333,33814,2,0,P|386:278|410:222,1,112.500004291535,8|0,0:0|0:0,0:0:0:0:
475,171,34331,1,0,0:0:0:0:
480,280,34503,1,2,0:0:0:0:
327,118,34848,2,0,L|321:49,1,56.2500021457673,2|0,0:0|0:0,0:0:0:0:
276,289,35193,2,0,P|258:240|283:173,1,112.500004291535,8|0,0:0|0:0,0:0:0:0:
472,307,35883,6,0,L|349:316,1,112.500004291535,4|0,0:0|0:0,0:0:0:0:
292,364,36400,1,0,0:0:0:0:
163,280,36572,2,0,L|275:288,1,112.500004291535,4|0,0:0|0:0,0:0:0:0:
339,235,37090,1,0,0:0:0:0:
272,183,37262,2,0,L|266:129,3,28.1250010728836,2|0|0|0,0:0|0:0|0:0|0:0,0:0:0:0:
317,100,37607,2,0,P|345:93|377:100,1,56.2500021457673,2|0,0:0|0:0,0:0:0:0:
189,171,37952,2,8,P|133:170|78:141,1,112.500004291535,8|0,0:0|0:0,0:0:0:0:
70,131,38641,6,0,L|78:243,1,112.500004291535,2|0,0:0|0:0,0:0:0:0:
36,308,39158,1,0,0:0:0:0:
207,295,39331,2,0,P|165:278|141:278,2,56.2500021457673,8|0|0,0:0|0:0|0:0,0:0:0:0:
268,348,39848,1,0,0:0:0:0:
155,373,40021,1,2,0:0:0:0:
77,75,40365,2,0,L|67:145,1,56.2500021457673,2|0,0:0|0:0,0:0:0:0:
260,53,40710,2,0,P|223:33|141:45,1,112.500004291535,8|0,0:0|0:0,0:0:0:0:
285,142,41400,5,4,0:0:0:0:
290,148,41745,1,0,0:0:0:0:
350,80,41917,1,0,0:0:0:0:
214,185,42090,2,0,L|218:253,1,56.2500021457673,2|0,0:0|0:0,0:0:0:0:
250,327,42434,1,0,0:0:0:0:
304,243,42607,1,0,0:0:0:0:
111,307,42779,6,0,L|191:301,1,56.2500021457673,2|0,0:0|0:0,0:0:0:0:
250,327,43124,2,0,L|330:333,1,56.2500021457673
441,363,43469,2,0,B|446:330|446:330|432:286|432:286|438:244,1,112.500004291535,2|0,0:0|0:0,0:0:0:0:
481,179,43986,1,0,0:0:0:0:
359,81,44158,6,0,P|303:138|227:136,1,150,4|0,0:0|0:0,0:0:0:0:
269,49,44676,1,0,0:0:0:0:
391,193,44848,2,0,L|377:320,1,112.500004291535,8|0,0:0|0:0,0:0:0:0:
243,323,45365,2,0,P|278:320|323:330,1,56.2500021457673
298,322,45883,1,2,0:0:0:0:
168,368,46055,1,2,0:0:0:0:
246,142,46227,2,0,P|273:191|258:262,1,112.500004291535,8|0,0:0|0:0,0:0:0:0:
31,110,46917,6,0,B|83:85|83:85|176:109,1,150,4|0,0:0|0:0,0:0:0:0:
246,142,47434,1,0,0:0:0:0:
376,33,47607,2,0,B|351:85|351:85|374:174,1,150,4|0,0:0|0:0,0:0:0:0:
396,246,48124,1,0,0:0:0:0:
286,333,48296,2,0,L|295:282,3,37.5,2|0|0|0,0:0|0:0|0:0|0:0,0:0:0:0:
267,227,48641,5,8,0:0:0:0:
247,215,48727,1,0,0:0:0:0:
224,211,48814,1,2,0:0:0:0:
201,215,48900,1,0,0:0:0:0:
184,229,48986,5,8,0:0:0:0:
166,243,49072,1,0,0:0:0:0:
145,251,49158,1,2,0:0:0:0:
122,253,49245,1,0,0:0:0:0:
100,246,49331,5,8,0:0:0:0:
82,232,49417,1,0,0:0:0:0:
67,214,49503,1,2,0:0:0:0:
58,192,49590,1,0,0:0:0:0:
55,169,49676,6,0,L|46:123,3,37.5,2|0|0|0,0:0|0:0|0:0|0:0,0:0:0:0:
104,78,50021,2,0,L|113:32,3,37.5,2|0|0|0,0:0|0:0|0:0|0:0,0:0:0:0:
154,148,50365,2,0,L|277:138,1,112.500004291535,8|0,0:0|0:0,0:0:0:0:
336,97,50883,1,0,0:0:0:0:
324,202,51055,1,2,0:0:0:0:
332,211,51400,2,0,P|372:219|406:210,1,56.2500021457673,2|0,0:0|0:0,0:0:0:0:
214,297,51745,2,0,P|270:285|335:298,1,112.500004291535,8|0,0:0|0:0,0:0:0:0:
387,332,52262,1,0,0:0:0:0:
126,350,52434,6,0,L|118:222,1,112.500004291535,4|0,0:0|0:0,0:0:0:0:
166,171,52952,1,0,0:0:0:0:
50,318,53124,2,0,L|42:190,1,112.500004291535,4|0,0:0|0:0,0:0:0:0:
81,130,53641,1,0,0:0:0:0:
222,174,53814,6,0,L|151:169,1,56.2500021457673,2|0,2:0|0:0,0:0:0:0:
307,138,54158,1,2,0:0:0:0:
234,288,54331,1,2,0:0:0:0:
196,44,54503,2,0,L|268:52,1,56.2500021457673,8|0,0:0|0:0,0:0:0:0:
378,106,54848,1,2,0:0:0:0:
385,127,54934,1,2,0:0:0:0:
389,149,55021,1,2,0:0:0:0:
387,171,55107,1,2,0:0:0:0:
381,192,55193,6,0,L|314:198,1,56.2500021457673,4|0,0:0|0:0,0:0:0:0:
258,234,55538,2,0,L|192:226,1,56.2500021457673
52,340,55883,2,8,P|71:281|59:226,1,112.500004291535,8|0,0:0|0:0,0:0:0:0:
21,168,56400,1,0,0:0:0:0:
91,75,56572,2,0,B|130:82|154:67|154:67|186:82|186:82|214:66|249:79,1,150,2|0,0:0|0:0,0:0:0:0:
318,92,57090,1,0,0:0:0:0:
245,263,57262,2,0,P|222:214|230:151,1,112.500004291535,8|0,0:0|0:0,0:0:0:0:
421,327,57952,6,0,L|298:321,1,112.500004291535,2|0,0:0|0:0,0:0:0:0:
234,345,58469,1,0,0:0:0:0:
366,233,58641,2,0,P|384:182|360:112,1,112.500004291535,2|0,0:0|0:0,0:0:0:0:
327,64,59158,1,0,0:0:0:0:
208,123,59331,2,0,L|245:118,3,28.1250010728836,2|0|0|0,0:0|0:0|0:0|0:0,0:0:0:0:
299,154,59676,2,0,P|308:189|296:222,1,56.2500021457673,2|0,0:0|0:0,0:0:0:0:
142,278,60021,1,8,0:0:0:0:
142,278,60193,2,0,L|254:279,1,112.500004291535,2|0,0:0|0:0,0:0:0:0:
111,344,60710,6,0,P|61:286|93:219,1,150,4|0,0:0|0:0,0:0:0:0:
149,177,61227,1,0,0:0:0:0:
68,43,61400,2,0,P|50:103|94:148,1,112.500004291535,8|0,0:0|0:0,0:0:0:0:
149,177,61917,1,0,0:0:0:0:
228,147,62090,2,0,P|239:108|230:56,1,84.3750032186509,2|0,0:0|0:0,0:0:0:0:
217,45,62434,1,0,0:0:0:0:
149,177,62607,1,2,0:0:0:0:
237,338,62779,2,0,P|245:272|213:222,1,112.500004291535,8|0,0:0|0:0,0:0:0:0:
11,309,63469,6,0,L|169:295,1,150,4|0,0:0|0:0,0:0:0:0:
237,338,63986,1,0,0:0:0:0:
296,144,64158,2,0,P|300:188|398:159,1,165.000005035401,4|0,0:0|0:0,0:0:0:0:
416,104,64676,1,0,0:0:0:0:
222,63,64848,2,0,B|187:57|156:68|156:68|127:95|127:95|85:113|43:90,1,179.999994506836,4|0,0:0|0:0,0:0:0:0:
92,24,65365,1,0,0:0:0:0:
155,232,65538,6,0,L|163:303,2,59.9999981689454,2|0|0,0:0|0:0|0:0,0:0:0:0:
243,329,65883,2,0,L|231:238,2,59.9999981689454,2|0|2,0:0|0:0|0:0,0:0:0:0:
189,302,77262,5,2,0:0:0:0:
196,313,77607,2,0,L|280:307,1,75,8|0,0:0|0:0,0:0:0:0:
351,348,78124,1,0,0:0:0:0:
311,186,78296,2,0,L|313:136,1,37.5,8|0,0:0|0:0,0:0:0:0:
371,72,78641,6,0,L|377:118,1,37.5,2|0,0:0|0:0,0:0:0:0:
259,244,78986,2,0,L|181:244,1,75,8|0,0:0|0:0,0:0:0:0:
115,274,79503,1,0,0:0:0:0:
123,80,79676,2,0,L|130:129,1,37.5,8|0,0:0|0:0,0:0:0:0:
180,172,80021,6,0,L|231:169,1,37.5,2|0,0:0|0:0,0:0:0:0:
276,47,80365,2,0,P|268:96|279:136,1,75,8|0,0:0|0:0,0:0:0:0:
292,196,80883,1,0,0:0:0:0:
390,133,81055,2,0,L|339:140,1,37.5,8|0,2:0|0:0,0:0:0:0:
212,175,81400,2,0,L|160:168,1,37.5,2|0,2:0|0:0,0:0:0:0:
114,78,81745,2,0,P|115:120|97:160,2,75,8|0|8,0:0|0:0|0:0,0:0:0:0:
54,219,82779,6,0,L|57:262,1,37.5,2|2,0:0|0:0,0:0:0:0:
97,315,83124,2,0,P|140:305|181:311,1,75,8|0,0:0|0:0,0:0:0:0:
239,338,83641,1,0,0:0:0:0:
294,185,83814,2,0,L|301:228,1,37.5,8|0,0:0|0:0,0:0:0:0:
356,133,84158,2,0,L|363:96,1,37.5,2|0,0:0|0:0,0:0:0:0:
204,105,84503,2,0,L|286:104,1,75,8|0,0:0|0:0,0:0:0:0:
356,133,85021,1,0,0:0:0:0:
227,244,85193,2,0,L|232:200,1,37.5,8|0,0:0|0:0,0:0:0:0:
301,317,85538,6,0,L|252:325,1,37.5,2|0,0:0|0:0,0:0:0:0:
121,303,85883,2,0,P|83:291|46:301,1,75,8|0,0:0|0:0,0:0:0:0:
82,368,86400,1,2,0:0:0:0:
36,193,86572,2,0,L|45:234,1,37.5,8|0,0:0|0:0,0:0:0:0:
111,132,86917,2,0,L|102:171,1,37.5,2|0,0:0|0:0,0:0:0:0:
82,63,87262,2,0,P|123:57|165:81,1,75,8|0,0:0|0:0,0:0:0:0:
321,209,87952,1,0,0:0:0:0:
94,350,88296,6,0,P|82:297|103:257,1,84.3750032186509,4|0,0:0|0:0,0:0:0:0:
115,242,88641,2,0,L|107:173,1,56.2500021457673,2|0,0:0|0:0,0:0:0:0:
188,245,88986,2,0,L|195:301,1,56.2500021457673,2|0,0:0|0:0,0:0:0:0:
33,204,89331,2,0,L|26:148,1,56.2500021457673,2|0,0:0|0:0,0:0:0:0:
63,70,89676,2,0,L|134:62,1,56.2500021457673,2|0,0:0|0:0,0:0:0:0:
159,75,89934,6,0,P|183:127|183:171,1,78.7499975967408,8|0,0:0|0:0,0:0:0:0:
158,192,90193,2,0,L|143:302,1,78.7499975967408,2|0,2:0|0:0,0:0:0:0:
122,315,90452,2,0,P|180:303|232:318,1,78.7499975967408,2|0,2:0|0:0,0:0:0:0:
243,329,90710,2,0,L|345:321,1,78.7499975967408,8|0,0:0|0:0,0:0:0:0:
372,329,90969,6,0,P|416:338|465:319,1,78.7499975967408,2|0,2:0|0:0,0:0:0:0:
488,298,91227,2,0,L|497:204,1,78.7499975967408,2|0,2:0|0:0,0:0:0:0:
473,172,91486,2,0,L|482:65,1,78.7499975967408,0|0,2:0|0:0,0:0:0:0:
455,47,91745,2,0,P|418:31|357:39,1,78.7499975967408,8|0,0:0|0:0,0:0:0:0:
340,63,92003,2,0,L|347:124,1,39.3749987983704,2|0,2:0|0:0,0:0:0:0:
269,309,92262,5,0,0:0:0:0:
253,329,92348,1,0,0:0:0:0:
236,348,92434,2,2,L|173:342,1,56.2500021457673
26,309,92779,2,0,L|98:319,1,56.2500021457673,2|0,0:0|0:0,0:0:0:0:
246,203,93124,1,2,0:0:0:0:
169,265,93296,1,2,0:0:0:0:
147,100,93469,2,0,P|148:51|160:32,1,56.2500021457673,2|0,0:0|0:0,0:0:0:0:
325,81,93814,6,0,L|250:87,1,56.2500021457673,4|0,0:0|0:0,0:0:0:0:
406,157,94158,2,0,L|462:161,1,56.2500021457673,2|0,0:0|0:0,0:0:0:0:
329,236,94503,2,0,L|230:243,1,84.3750032186509,2|0,0:0|0:0,0:0:0:0:
219,236,94848,2,0,P|203:209|211:173,1,56.2500021457673
271,66,95193,2,0,P|269:95|247:123,1,56.2500021457673
186,63,95538,5,8,0:0:0:0:
298,188,95710,1,0,0:0:0:0:
166,164,95883,1,10,0:0:0:0:
331,27,96055,1,8,0:0:0:0:
335,38,96400,1,2,0:0:0:0:
382,228,96572,5,8,0:0:0:0:
277,137,96745,1,0,0:0:0:0:
428,98,96917,1,8,0:0:0:0:
287,248,97090,1,0,0:0:0:0:
261,57,97262,5,8,0:0:0:0:
362,144,97434,1,0,0:0:0:0:
194,191,97607,1,8,0:0:0:0:
356,37,97779,1,0,0:0:0:0:
431,231,97952,5,8,0:0:0:0:
260,135,98124,1,0,0:0:0:0:
436,32,98296,1,8,0:0:0:0:
341,271,98469,1,0,0:0:0:0:
272,51,98641,5,8,0:0:0:0:
249,40,98727,1,0,0:0:0:0:
223,35,98814,1,2,0:0:0:0:
198,39,98900,1,0,0:0:0:0:
177,53,98986,1,8,0:0:0:0:
158,70,99072,1,0,0:0:0:0:
139,86,99158,1,2,0:0:0:0:
114,94,99245,1,0,0:0:0:0:
90,85,99331,6,0,L|96:179,1,84.3750032186509,4|0,0:0|0:0,0:0:0:0:
84,201,99676,2,0,L|166:199,1,56.2500021457673,2|0,0:0|0:0,0:0:0:0:
274,223,100021,1,2,0:0:0:0:
178,283,100193,1,2,0:0:0:0:
208,142,100365,1,8,0:0:0:0:
265,325,100538,1,2,0:0:0:0:
140,199,100710,1,2,0:0:0:0:
286,127,100883,1,2,0:0:0:0:
356,254,101055,2,0,L|341:194,1,56.2500021457673,8|0,0:0|0:0,0:0:0:0:
363,78,101400,5,2,0:0:0:0:
441,184,101572,1,2,0:0:0:0:
363,78,101745,1,8,0:0:0:0:
308,174,101917,1,2,0:0:0:0:
460,102,102090,1,2,0:0:0:0:
308,21,102262,5,2,0:0:0:0:
173,154,102434,1,10,0:0:0:0:
173,154,102607,2,0,L|245:148,1,56.2500021457673,2|0,0:0|0:0,0:0:0:0:
106,111,102952,5,2,0:0:0:0:
153,232,103124,1,8,0:0:0:0:
176,74,103296,2,0,L|169:10,1,56.2500021457673,2|0,0:0|0:0,0:0:0:0:
76,188,103641,5,2,0:0:0:0:
210,143,103814,1,8,0:0:0:0:
93,41,103986,2,0,L|26:49,2,56.2500021457673,2|0|0,0:0|0:0|0:0,0:0:0:0:
251,56,104503,2,8,P|292:65|339:49,1,84.3750032186509,0|0,0:0|0:0,0:0:0:0:
364,30,104848,6,2,L|366:90,1,56.2500021457673,4|0,0:0|0:0,0:0:0:0:
376,236,105193,2,0,L|373:169,1,56.2500021457673,2|2,0:0|0:0,0:0:0:0:
240,145,105538,2,0,L|311:138,1,56.2500021457673,2|2,0:0|0:0,0:0:0:0:
497,131,105883,2,2,L|441:125,1,56.2500021457673
177,100,106227,2,0,P|163:154|183:194,1,84.3750032186509,8|0,0:0|0:0,0:0:0:0:
190,210,106572,2,0,L|186:285,1,56.2500021457673,2|2,0:0|0:0,0:0:0:0:
339,348,106917,2,0,P|351:297|333:254,1,84.3750032186509,8|0,0:0|0:0,0:0:0:0:
327,238,107262,2,2,L|331:163,1,56.2500021457673
371,112,107607,6,0,L|421:101,3,28.1250010728836,2|2|2|2,0:0|0:0|0:0|0:0,0:0:0:0:
275,72,107952,2,0,L|302:78,3,28.1250010728836,2|0|2|0,0:0|0:0|0:0|0:0,0:0:0:0:
196,136,108296,2,0,L|246:125,3,28.1250010728836,2|2|2|2,0:0|0:0|0:0|0:0,0:0:0:0:
104,87,108641,2,0,L|131:93,3,28.1250010728836,2|0|2|0,0:0|0:0|0:0|0:0,0:0:0:0:
25,153,108986,2,0,L|75:142,3,28.1250010728836,2|2|2|2,0:0|0:0|0:0|0:0,0:0:0:0:
126,186,109331,2,0,L|153:192,3,28.1250010728836,2|0|2|0,0:0|0:0|0:0|0:0,0:0:0:0:
199,257,109676,6,0,L|192:285,1,28.1250010728836,8|0,0:0|0:0,0:0:0:0:
258,201,109848,2,0,L|255:171,1,28.1250010728836,8|0,0:0|0:0,0:0:0:0:
284,278,110021,2,0,L|277:306,1,28.1250010728836,8|0,0:0|0:0,0:0:0:0:
343,222,110193,2,0,L|340:192,1,28.1250010728836,8|8,0:0|0:0,0:0:0:0:
373,299,110365,6,0,P|412:268|416:189,1,112.5,4|0,0:0|0:0,0:0:0:0:
411,172,110710,2,0,L|401:71,1,75,8|0,0:0|0:0,0:0:0:0:
489,181,111055,1,0,0:0:0:0:
489,181,111227,1,0,0:0:0:0:
288,286,111400,2,0,L|175:280,1,112.5,8|0,0:0|0:0,0:0:0:0:
114,240,111745,6,0,P|126:286|108:319,1,75,2|0,0:0|0:0,0:0:0:0:
76,107,112090,2,0,L|68:22,1,75,8|0,0:0|0:0,0:0:0:0:
156,159,112434,1,0,0:0:0:0:
40,206,112607,1,0,0:0:0:0:
188,60,112779,1,8,0:0:0:0:
362,135,112952,5,2,0:0:0:0:
362,135,113038,1,2,0:0:0:0:
362,135,113124,2,0,L|266:140,1,75,2|0,0:0|0:0,0:0:0:0:
486,218,113469,1,8,0:0:0:0:
450,76,113641,2,0,P|442:123|451:157,1,75
484,300,113986,1,0,0:0:0:0:
254,234,114158,1,8,0:0:0:0:
339,158,114331,1,0,0:0:0:0:
288,306,114503,6,0,P|249:316|206:297,1,75,2|0,0:0|0:0,0:0:0:0:
44,190,114848,2,0,P|84:193|117:226,1,75,8|0,0:0|0:0,0:0:0:0:
42,288,115193,1,0,0:0:0:0:
36,111,115365,1,0,0:0:0:0:
314,176,115538,2,0,L|190:177,1,112.5,8|0,0:0|0:0,0:0:0:0:
171,154,115883,6,0,P|153:118|163:72,1,75,4|0,0:0|0:0,0:0:0:0:
395,156,116227,2,0,P|398:192|380:225,1,75,8|0,0:0|0:0,0:0:0:0:
294,313,116572,1,0,0:0:0:0:
282,209,116745,1,2,0:0:0:0:
475,345,116917,2,0,P|414:355|347:338,1,112.5,8|0,0:0|0:0,0:0:0:0:
294,313,117262,2,0,L|186:320,1,75,2|0,0:0|0:0,0:0:0:0:
25,328,117607,5,8,0:0:0:0:
140,362,117779,1,0,0:0:0:0:
82,162,117952,1,8,0:0:0:0:
113,253,118124,2,0,L|198:248,1,75,8|0,0:0|0:0,0:0:0:0:
332,237,118469,1,2,0:0:0:0:
262,290,118641,5,8,0:0:0:0:
278,158,118814,1,0,0:0:0:0:
343,324,118986,1,8,0:0:0:0:
208,220,119158,1,0,0:0:0:0:
362,155,119331,5,8,0:0:0:0:
277,366,119503,1,0,0:0:0:0:
313,91,119676,1,8,0:0:0:0:
423,218,119848,1,0,0:0:0:0:
237,144,120021,5,8,0:0:0:0:
401,75,120193,1,0,0:0:0:0:
262,297,120365,1,8,0:0:0:0:
237,58,120538,1,0,0:0:0:0:
332,227,120710,5,8,0:0:0:0:
310,211,120796,1,0,0:0:0:0:
285,201,120883,1,2,0:0:0:0:
258,202,120969,1,0,0:0:0:0:
233,212,121055,1,8,0:0:0:0:
211,227,121141,1,0,0:0:0:0:
187,237,121227,1,2,0:0:0:0:
161,231,121314,1,0,0:0:0:0:
138,217,121400,6,0,L|126:131,1,75,4|0,0:0|0:0,0:0:0:0:
67,336,121745,2,0,L|79:235,2,75,8|0|0,0:0|0:0|0:0,0:0:0:0:
20,194,122262,1,2,0:0:0:0:
230,328,122434,2,0,P|188:335|149:324,1,75,8|0,0:0|0:0,0:0:0:0:
306,280,122779,2,0,P|345:291|396:278,1,75,2|0,0:0|0:0,0:0:0:0:
190,129,123124,2,0,L|200:214,1,75,8|0,0:0|0:0,0:0:0:0:
266,92,123469,1,0,0:0:0:0:
153,29,123641,1,2,0:0:0:0:
124,241,123814,2,0,L|134:326,1,75,8|0,0:0|0:0,0:0:0:0:
283,323,124158,6,0,P|250:314|207:318,1,75,2|0,0:0|0:0,0:0:0:0:
415,370,124503,1,8,0:0:0:0:
389,184,124676,1,0,0:0:0:0:
352,283,124848,1,0,0:0:0:0:
478,169,125021,1,2,0:0:0:0:
262,56,125193,2,0,L|361:67,1,75,8|0,0:0|0:0,0:0:0:0:
157,139,125538,6,0,L|256:128,1,75,2|0,0:0|0:0,0:0:0:0:
34,211,125883,1,8,0:0:0:0:
77,71,126055,1,0,0:0:0:0:
123,237,126227,1,0,0:0:0:0:
21,135,126400,1,2,0:0:0:0:
258,335,126572,2,0,P|184:351|135:331,1,112.5,8|0,0:0|0:0,0:0:0:0:
83,298,126917,6,0,P|40:290|-5:307,1,75,2|0,0:0|0:0,0:0:0:0:
301,273,127262,2,0,P|315:234|301:187,1,75,8|0,0:0|0:0,0:0:0:0:
213,43,127607,1,0,0:0:0:0:
168,134,127779,1,2,0:0:0:0:
364,99,127952,1,8,0:0:0:0:
285,26,128124,5,2,0:0:0:0:
316,191,128296,1,2,0:0:0:0:
294,27,128469,1,2,0:0:0:0:
309,199,128641,2,0,L|316:301,1,75,8|0,0:0|0:0,0:0:0:0:
387,142,128986,1,2,0:0:0:0:
187,209,129158,1,2,0:0:0:0:
374,329,129331,1,10,0:0:0:0:
281,102,129503,1,2,0:0:0:0:
281,102,129590,1,2,0:0:0:0:
281,102,129676,6,0,L|218:93,1,37.5,8|0,0:0|0:0,0:0:0:0:
359,73,129848,2,0,L|400:58,1,37.5
344,149,130021,2,0,L|343:193,1,37.5,8|0,0:0|0:0,0:0:0:0:
386,292,130193,2,0,L|379:232,1,37.5
459,186,130365,2,0,L|406:194,1,37.5,8|0,0:0|0:0,0:0:0:0:
263,249,130538,2,0,L|301:255,1,37.5
172,174,130710,2,0,L|147:116,1,37.5,8|0,0:0|0:0,0:0:0:0:
123,289,130883,2,8,L|116:343,1,37.5,0|0,0:0|0:0,0:0:0:0:
22,278,131055,5,8,0:0:0:0:
38,257,131141,1,0,0:0:0:0:
48,233,131227,1,0,0:0:0:0:
51,206,131314,1,0,0:0:0:0:
44,180,131400,1,8,0:0:0:0:
35,155,131486,1,0,0:0:0:0:
30,129,131572,1,0,0:0:0:0:
38,104,131658,1,0,0:0:0:0:
51,81,131745,5,8,0:0:0:0:
72,66,131831,1,0,0:0:0:0:
98,63,131917,1,0,0:0:0:0:
123,69,132003,1,0,0:0:0:0:
146,81,132090,1,8,0:0:0:0:
171,85,132176,1,0,0:0:0:0:
196,79,132262,1,0,0:0:0:0:
218,65,132348,1,0,0:0:0:0:
244,43,132434,6,0,B|266:92|266:92|254:138|254:138|281:188,1,146.249993305207
295,205,132779,2,0,P|360:213|423:188,1,97.4999955368044,8|0,0:0|0:0,0:0:0:0:
421,191,133038,1,0,0:0:0:0:
452,178,133124,1,0,0:0:0:0:
376,89,133296,1,2,0:0:0:0:
343,378,133469,2,0,B|368:328|368:328|358:276,1,97.4999955368044,8|0,0:0|0:0,0:0:0:0:
58,312,133814,6,0,B|114:333|114:333|244:308,1,180,4|0,0:0|0:0,0:0:0:0:
272,183,134158,2,0,L|284:242,1,60,8|0,0:0|0:0,0:0:0:0:
353,107,134331,2,0,L|343:166,1,60,2|0,0:0|0:0,0:0:0:0:
430,245,134503,2,0,L|416:187,1,60,2|0,0:0|0:0,0:0:0:0:
457,95,134676,1,2,0:0:0:0:
479,351,134848,2,0,P|423:366|354:324,1,120,8|0,0:0|0:0,0:0:0:0:
191,256,135193,5,2,0:0:0:0:
136,87,135365,1,0,0:0:0:0:
297,190,135538,2,0,P|372:162|316:113,1,146.249993305207,8|0,0:0|0:0,0:0:0:0:
296,82,135883,1,0,0:0:0:0:
158,163,136055,1,2,0:0:0:0:
401,241,136227,2,0,P|431:200|437:150,1,97.4999955368044,8|0,0:0|0:0,0:0:0:0:
107,313,136572,6,0,B|171:303|171:303|245:324|245:324|305:318,1,180,4|0,0:0|0:0,0:0:0:0:
411,320,136917,2,0,L|335:312,1,60,8|0,0:0|0:0,0:0:0:0:
249,248,137090,2,0,L|318:236,1,60,2|0,0:0|0:0,0:0:0:0:
427,203,137262,2,0,L|358:191,1,60,2|0,0:0|0:0,0:0:0:0:
276,151,137434,1,2,0:0:0:0:
502,76,137607,2,0,B|455:97|455:97|369:84,1,120,8|0,0:0|0:0,0:0:0:0:
179,34,137952,6,0,P|128:23|74:44,1,97.4999955368044,2|0,0:0|0:0,0:0:0:0:
111,258,138296,2,0,L|134:98,1,146.249993305207,8|0,0:0|0:0,0:0:0:0:
56,144,138641,1,0,0:0:0:0:
90,328,138814,1,2,0:0:0:0:
208,134,138986,2,0,L|223:254,1,97.4999955368044,8|0,0:0|0:0,0:0:0:0:
442,269,139331,6,0,P|348:232|269:292,1,180,4|0,0:0|0:0,0:0:0:0:
357,366,139676,2,0,L|367:300,1,60,8|0,0:0|0:0,0:0:0:0:
442,269,139848,2,0,L|452:203,1,60,2|0,0:0|0:0,0:0:0:0:
382,154,140021,2,0,L|392:88,1,60,2|0,0:0|0:0,0:0:0:0:
466,34,140193,1,2,0:0:0:0:
322,210,140365,2,0,B|280:197|280:197|239:220|196:203,1,120,8|0,0:0|0:0,0:0:0:0:
227,38,140710,6,0,L|233:145,1,97.4999955368044,2|0,0:0|0:0,0:0:0:0:
283,349,141055,2,0,P|192:361|138:321,1,146.249993305207,8|0,0:0|0:0,0:0:0:0:
101,273,141400,1,0,0:0:0:0:
250,191,141572,1,2,0:0:0:0:
118,47,141745,2,0,L|129:168,1,97.4999955368044,8|0,0:0|0:0,0:0:0:0:
336,200,142090,6,0,P|298:121|191:123,1,180,4|0,0:0|0:0,0:0:0:0:
126,144,142434,1,8,0:0:0:0:
229,293,142607,1,0,0:0:0:0:
321,50,142779,1,0,0:0:0:0:
250,191,142952,1,2,0:0:0:0:
415,289,143124,2,0,B|428:230|410:158|410:158|423:197|448:215,1,180,8|0,0:0|0:0,0:0:0:0:
472,340,143469,6,0,P|416:365|363:348,1,97.4999955368044,2|0,0:0|0:0,0:0:0:0:
104,276,143814,2,0,B|139:265|139:265|217:275,2,97.4999955368044,8|0|0,0:0|0:0|0:0,0:0:0:0:
271,360,144331,2,0,L|267:309,1,48.7499977684022,2|0,0:0|0:0,0:0:0:0:
280,138,144503,2,0,P|284:194|268:234,1,97.4999955368044,8|0,0:0|0:0,0:0:0:0:
32,94,144848,6,0,B|94:120|138:91|138:91|173:116|218:96,1,180,4|0,0:0|0:0,0:0:0:0:
341,72,145193,2,0,L|265:64,1,60,8|0,0:0|0:0,0:0:0:0:
414,151,145365,2,0,L|473:144,1,60,2|0,0:0|0:0,0:0:0:0:
331,155,145538,2,0,L|337:214,1,60,2|0,0:0|0:0,0:0:0:0:
417,67,145710,2,0,L|410:7,1,60,2|0,0:0|0:0,0:0:0:0:
396,259,145883,2,0,P|348:289|283:265,1,120,8|0,0:0|0:0,0:0:0:0:
100,207,146227,6,0,L|231:199,1,97.4999955368044,2|0,0:0|0:0,0:0:0:0:
453,355,146572,2,0,L|314:354,1,97.4999955368044,8|0,0:0|0:0,0:0:0:0:
330,356,146831,1,0,0:0:0:0:
305,356,146917,1,0,0:0:0:0:
108,255,147090,2,0,L|98:198,1,48.7499977684022,2|0,0:0|0:0,0:0:0:0:
158,52,147262,2,0,P|163:110|132:155,1,97.4999955368044,8|0,0:0|0:0,0:0:0:0:
324,129,147607,6,0,L|113:145,1,180,4|0,0:0|0:0,0:0:0:0:
73,125,147952,1,8,0:0:0:0:
158,52,148124,1,0,0:0:0:0:
182,235,148296,1,0,0:0:0:0:
75,36,148469,1,2,0:0:0:0:
324,129,148641,2,0,P|260:143|200:116,1,120,8|0,0:0|0:0,0:0:0:0:
469,202,148986,6,0,P|400:188|364:206,1,97.4999955368044,2|0,0:0|0:0,0:0:0:0:
160,296,149331,1,8,0:0:0:0:
289,348,149503,1,0,0:0:0:0:
210,162,149676,1,0,0:0:0:0:
236,256,149848,1,2,0:0:0:0:
345,88,150021,2,0,P|296:75|239:95,1,97.4999955368044,8|0,0:0|0:0,0:0:0:0:
66,245,150365,6,0,P|144:224|235:256,1,180,4|0,0:0|0:0,0:0:0:0:
356,318,150710,2,0,L|265:310,1,60,8|0,0:0|0:0,0:0:0:0:
436,269,150883,2,0,L|505:253,1,60,2|0,0:0|0:0,0:0:0:0:
437,348,151055,2,0,L|505:335,1,60,2|0,0:0|0:0,0:0:0:0:
364,237,151227,2,0,L|294:228,1,60,2|0,0:0|0:0,0:0:0:0:
428,72,151400,2,0,B|443:114|443:114|423:207,1,120,8|0,0:0|0:0,0:0:0:0:
263,318,151745,5,2,0:0:0:0:
241,302,151831,1,0,0:0:0:0:
216,292,151917,1,2,0:0:0:0:
189,293,152003,1,0,0:0:0:0:
164,303,152090,1,8,0:0:0:0:
142,318,152176,1,0,0:0:0:0:
118,328,152262,1,2,0:0:0:0:
92,322,152348,1,0,0:0:0:0:
69,308,152434,6,0,L|61:266,3,37.5
115,215,152779,2,0,L|107:173,3,37.5,8|0|0|0,0:0|0:0|0:0|0:0,0:0:0:0:
50,121,153124,5,2,0:0:0:0:
72,105,153210,1,0,0:0:0:0:
97,95,153296,1,2,0:0:0:0:
124,96,153383,1,0,0:0:0:0:
149,106,153469,1,8,0:0:0:0:
171,121,153555,1,0,0:0:0:0:
195,131,153641,1,2,0:0:0:0:
221,125,153727,1,0,0:0:0:0:
252,114,153814,6,0,L|255:67,1,37.5
314,185,153986,2,0,L|318:128,1,37.5
260,279,154158,2,0,L|254:224,3,37.5,8|0|0|0,0:0|0:0|0:0|0:0,0:0:0:0:
253,287,154676,6,0,L|186:289,1,48.7499977684022,2|0,0:0|0:0,0:0:0:0:
112,148,154848,2,0,P|139:192|125:255,1,97.4999955368044,4|0,0:0|0:0,0:0:0:0:
130,255,155107,1,0,0:0:0:0:
121,272,155193,1,0,0:0:0:0:
34,220,155365,1,2,0:0:0:0:
255,81,155538,2,0,L|144:88,1,97.4999955368044,8|0,0:0|0:0,0:0:0:0:
341,295,155883,6,0,P|297:234|325:134,1,180,4|0,0:0|0:0,0:0:0:0:
440,79,156227,2,0,L|351:79,1,60,8|0,0:0|0:0,0:0:0:0:
250,39,156400,2,0,L|346:33,1,60,2|0,0:0|0:0,0:0:0:0:
204,114,156572,2,0,L|115:114,1,60,2|0,0:0|0:0,0:0:0:0:
253,183,156745,1,2,0:0:0:0:
49,345,156917,1,8,0:0:0:0:
50,208,157090,2,2,L|61:287,1,60
124,319,157262,5,2,0:0:0:0:
166,189,157434,1,2,0:0:0:0:
331,323,157607,2,0,L|214:313,1,97.4999955368044,8|0,0:0|0:0,0:0:0:0:
219,313,157865,1,0,0:0:0:0:
204,311,157952,1,0,0:0:0:0:
339,241,158124,1,2,0:0:0:0:
260,47,158296,2,0,P|246:106|276:160,1,97.4999955368044,8|0,0:0|0:0,0:0:0:0:
507,91,158641,6,0,B|441:81|441:81|380:102|380:102|317:94,1,180,4|0,0:0|0:0,0:0:0:0:
198,144,158986,2,0,L|277:137,1,60,8|0,0:0|0:0,0:0:0:0:
137,193,159158,2,0,P|121:167|123:126,1,60,2|0,0:0|0:0,0:0:0:0:
208,231,159331,2,0,L|194:289,1,60,2|0,0:0|0:0,0:0:0:0:
137,357,159503,1,2,0:0:0:0:
351,310,159676,2,0,P|356:252|310:204,1,120,8|0,0:0|0:0,0:0:0:0:
103,96,160021,5,0,0:0:0:0:
156,211,160193,2,0,L|140:147,1,48.7499977684022,2|0,0:0|0:0,0:0:0:0:
304,103,160365,2,0,P|248:112|196:101,1,97.4999955368044,8|0,0:0|0:0,0:0:0:0:
194,98,160624,1,0,0:0:0:0:
180,91,160710,1,0,0:0:0:0:
366,16,160883,2,2,L|377:77,1,48.7499977684022
499,135,161055,2,0,P|422:128|384:143,1,97.4999955368044,8|0,0:0|0:0,0:0:0:0:
116,270,161400,6,0,B|146:257|177:257|177:257|223:278|261:272|261:272|241:258|236:231,1,180,4|0,0:0|0:0,0:0:0:0:
311,149,161745,2,0,L|297:233,1,60,8|0,0:0|0:0,0:0:0:0:
378,219,161917,2,0,L|364:303,1,60,2|0,0:0|0:0,0:0:0:0:
448,283,162090,2,2,L|434:367,1,60
464,176,162262,1,2,0:0:0:0:
300,323,162434,1,8,0:0:0:0:
229,185,162607,2,0,L|234:249,1,60,2|0,0:0|0:0,0:0:0:0:
192,321,162779,5,0,0:0:0:0:
306,195,162952,1,0,0:0:0:0:
115,89,163124,1,8,0:0:0:0:
149,217,163296,1,2,0:0:0:0:
149,217,163383,1,2,0:0:0:0:
149,217,163469,1,2,0:0:0:0:
202,52,163641,2,0,L|208:107,1,48.7499977684022,2|0,0:0|0:0,0:0:0:0:
387,117,163814,2,0,P|335:110|269:138,1,97.4999955368044,8|0,0:0|0:0,0:0:0:0:
264,142,164072,1,0,0:0:0:0:
246,179,164158,6,0,B|261:240|236:312|236:312|275:274,1,180,4|0,0:0|0:0,0:0:0:0:
385,226,164503,2,0,L|309:238,1,60,8|0,0:0|0:0,0:0:0:0:
441,277,164676,2,0,L|466:349,1,60,2|0,0:0|0:0,0:0:0:0:
449,163,164848,1,2,0:0:0:0:
357,318,165021,1,2,0:0:0:0:
239,38,165193,2,0,P|230:143|266:220,1,180,8|0,0:0|0:0,0:0:0:0:
278,238,165538,5,2,0:0:0:0:
159,340,165710,2,0,L|169:278,1,48.7499977684022,2|0,0:0|0:0,0:0:0:0:
145,346,165883,2,0,L|162:235,1,97.4999955368044,8|0,0:0|0:0,0:0:0:0:
162,235,166141,1,0,0:0:0:0:
165,220,166227,1,0,0:0:0:0:
87,56,166400,2,0,L|97:118,1,48.7499977684022,2|0,0:0|0:0,0:0:0:0:
73,50,166572,2,0,L|90:161,1,97.4999955368044,8|0,0:0|0:0,0:0:0:0:
315,186,166917,6,0,P|328:121|231:110,1,180,4|0,0:0|0:0,0:0:0:0:
200,177,167262,2,0,L|215:320,2,120,8|0|0,0:0|0:0|0:0,0:0:0:0:
146,356,167779,1,2,0:0:0:0:
391,271,167952,1,8,0:0:0:0:
300,190,168124,1,2,0:0:0:0:
300,190,168210,1,2,0:0:0:0:
300,190,168296,5,2,0:0:0:0:
273,342,168469,2,0,L|286:281,1,48.7499977684022,2|0,0:0|0:0,0:0:0:0:
206,160,168641,2,0,L|216:290,1,97.4999955368044,8|0,0:0|0:0,0:0:0:0:
211,276,168900,1,0,0:0:0:0:
200,294,168986,2,0,B|141:317|141:317|86:296,1,97.4999955368044,0|2,0:0|0:0,0:0:0:0:
42,113,169331,2,0,P|33:170|51:213,1,97.4999955368044,8|0,0:0|0:0,0:0:0:0:
283,65,169676,6,0,B|214:39|163:67|163:67|129:53|100:66,1,180,4|0,0:0|0:0,0:0:0:0:
115,194,170021,2,0,L|129:121,1,60,8|0,0:0|0:0,0:0:0:0:
205,249,170193,2,0,L|193:173,1,60,2|0,0:0|0:0,0:0:0:0:
276,318,170365,2,0,L|288:242,1,60,2|0,0:0|0:0,0:0:0:0:
266,169,170538,1,2,0:0:0:0:
67,334,170710,2,0,B|111:355|138:352|138:352|163:333|199:329,1,120,8|0,0:0|0:0,0:0:0:0:
421,301,171055,6,0,P|392:231|422:148,1,146.249993305207,4|0,0:0|0:0,0:0:0:0:
476,117,171400,2,0,P|424:154|363:143,1,97.4999955368044
372,152,171658,1,0,0:0:0:0:
352,147,171745,1,0,0:0:0:0:
255,33,171917,2,0,L|262:99,1,48.7499977684022,2|0,0:0|0:0,0:0:0:0:
258,258,172090,2,0,L|270:150,1,97.4999955368044,8|0,0:0|0:0,0:0:0:0:
172,294,172434,6,0,P|238:354|322:327,1,180,4|0,0:0|0:0,0:0:0:0:
373,283,172779,1,8,0:0:0:0:
301,131,172952,1,2,0:0:0:0:
280,231,173124,1,2,0:0:0:0:
397,95,173296,1,2,0:0:0:0:
98,142,173469,2,0,L|226:161,1,120,8|0,0:0|0:0,0:0:0:0:
38,80,173814,5,2,0:0:0:0:
95,236,173986,2,8,P|106:190|95:134,1,97.4999955368044,8|0,0:0|0:0,0:0:0:0:
42,304,174331,1,2,0:0:0:0:
243,351,174503,1,8,0:0:0:0:
178,281,174676,1,2,0:0:0:0:
176,262,174762,1,2,0:0:0:0:
176,243,174848,1,2,0:0:0:0:
384,187,175021,6,0,L|397:294,1,97.4999955368044,8|0,0:0|0:0,0:0:0:0:
315,123,175365,1,2,0:0:0:0:
135,118,175538,2,0,P|189:125|245:105,1,97.4999955368044,8|0,0:0|0:0,0:0:0:0:
81,60,175883,1,2,0:0:0:0:
118,286,176055,2,0,P|121:237|97:174,1,97.4999955368044,8|0,0:0|0:0,0:0:0:0:
53,344,176400,5,2,0:0:0:0:
79,356,176486,1,2,0:0:0:0:
107,362,176572,2,0,L|212:355,1,97.4999955368044,4|0,0:0|0:0,0:0:0:0:
232,348,176831,1,0,0:0:0:0:
257,333,176917,2,0,L|251:262,3,48.7499977684022,2|0|0|0,0:0|0:0|0:0|0:0,0:0:0:0:
302,227,177262,2,0,L|300:173,2,48.7499977684022,2|0|0,0:0|0:0|0:0,0:0:0:0:
357,125,177607,2,0,P|309:101|238:131,1,97.4999955368044,8|0,0:0|0:0,0:0:0:0:
245,126,177865,1,0,0:0:0:0:
219,140,177952,6,0,L|117:132,1,97.4999955368044,2|0,0:0|0:0,0:0:0:0:
311,293,178296,1,8,0:0:0:0:
453,227,178469,1,2,0:0:0:0:
429,209,178555,1,2,0:0:0:0:
400,203,178641,1,2,0:0:0:0:
370,204,178727,1,2,0:0:0:0:
343,216,178814,1,2,0:0:0:0:
142,330,178986,2,0,L|133:222,1,97.4999955368044,8|0,0:0|0:0,0:0:0:0:
122,205,179245,1,0,0:0:0:0:
115,176,179331,6,0,L|129:77,1,97.4999955368044,2|0,0:0|0:0,0:0:0:0:
240,260,179676,2,0,L|225:194,3,48.7499977684022,8|0|0|0,0:0|0:0|0:0|0:0,0:0:0:0:
269,148,180021,2,0,L|275:93,2,48.7499977684022,2|0|2,0:0|0:0|0:0,0:0:0:0:
474,44,180365,2,0,P|417:34|383:49,1,97.4999955368044,8|0,0:0|0:0,0:0:0:0:
361,70,180624,1,0,0:0:0:0:
349,96,180710,6,0,L|378:230,1,97.4999955368044,2|0,0:0|0:0,0:0:0:0:
166,350,181055,2,0,L|186:254,1,97.4999955368044,8|0,0:0|0:0,0:0:0:0:
193,225,181314,1,2,0:0:0:0:
194,195,181400,1,2,0:0:0:0:
185,167,181486,1,2,0:0:0:0:
171,141,181572,1,2,0:0:0:0:
75,273,181745,1,8,0:0:0:0:
271,318,181917,1,2,0:0:0:0:
271,318,182003,1,2,0:0:0:0:
271,318,182090,6,0,L|336:309,1,48.7499977684022,2|0,0:0|0:0,0:0:0:0:
392,330,182262,1,2,0:0:0:0:
397,301,182348,1,2,0:0:0:0:
401,267,182434,2,0,L|411:209,1,48.7499977684022,8|0,0:0|0:0,0:0:0:0:
365,160,182607,2,0,L|372:112,1,48.7499977684022,2|0,0:0|0:0,0:0:0:0:
308,74,182779,2,0,L|316:16,1,48.7499977684022,2|0,0:0|0:0,0:0:0:0:
238,119,182952,1,2,0:0:0:0:
291,325,183124,2,0,P|241:305|175:321,1,97.4999955368044,8|0,0:0|0:0,0:0:0:0:
174,326,183383,1,0,0:0:0:0:
151,344,183469,6,0,L|39:333,1,97.4999955368044,2|0,0:0|0:0,0:0:0:0:
207,174,183814,2,0,L|308:158,1,97.4999955368044,8|0,0:0|0:0,0:0:0:0:
332,154,184072,1,2,0:0:0:0:
360,150,184158,1,2,0:0:0:0:
294,266,184331,1,2,0:0:0:0:
406,86,184503,2,0,P|437:134|425:185,1,97.4999955368044,8|0,0:0|0:0,0:0:0:0:
421,199,184762,1,0,0:0:0:0:
407,225,184848,5,2,0:0:0:0:
302,42,185021,1,2,0:0:0:0:
302,42,185107,1,2,0:0:0:0:
302,42,185193,2,0,L|312:99,1,48.7499977684022,8|0,0:0|0:0,0:0:0:0:
267,148,185365,2,0,L|257:195,1,48.7499977684022,2|0,0:0|0:0,0:0:0:0:
298,258,185538,2,0,L|309:315,1,48.7499977684022,2|0,0:0|0:0,0:0:0:0:
250,365,185710,1,2,0:0:0:0:
78,273,185883,2,0,P|134:260|190:279,1,97.4999955368044,8|0,0:0|0:0,0:0:0:0:
196,288,186141,1,0,0:0:0:0:
176,308,186227,6,0,L|146:156,1,146.249993305207,2|0,0:0|0:0,0:0:0:0:
96,120,186572,2,0,P|180:140|235:92,1,146.249993305207,8|0,0:0|0:0,0:0:0:0:
262,28,186917,2,0,B|260:75|291:103|291:103|305:156|267:208|267:208|349:247|411:191,1,341.249984378815,2|0,3:0|0:0,0:0:0:0:
456,143,187607,5,2,0:0:0:0:
341,312,187779,1,2,0:0:0:0:
369,316,187865,1,2,0:0:0:0:
398,312,187952,1,8,0:0:0:0:
424,299,188038,1,2,0:0:0:0:
445,279,188124,1,2,0:0:0:0:
252,284,188296,5,2,0:0:0:0:
247,313,188383,1,2,0:0:0:0:
255,343,188469,1,2,0:0:0:0:
308,154,188641,2,0,L|197:170,1,97.4999955368044,8|0,0:0|0:0,0:0:0:0:
182,169,188900,1,2,0:0:0:0:
154,160,188986,5,2,0:0:0:0:
134,138,189072,1,2,0:0:0:0:
119,112,189158,1,2,0:0:0:0:
367,74,189331,1,8,0:0:0:0:
402,236,189503,1,2,0:0:0:0:
402,236,189590,1,2,0:0:0:0:
402,236,189676,2,0,L|393:182,2,48.7499977684022,2|0|0,0:0|0:0|0:0,0:0:0:0:
196,293,190021,2,0,L|205:239,1,48.7499977684022,8|0,0:0|0:0,0:0:0:0:
218,362,190193,6,0,P|183:366|140:348,1,63.7500012159348,2|0,3:0|0:0,0:0:0:0:
97,311,190365,5,2,0:0:0:0:
41,95,190538,1,2,0:0:0:0:
33,123,190624,1,2,0:0:0:0:
28,151,190710,1,10,0:0:0:0:
39,177,190796,1,2,0:0:0:0:
51,203,190883,1,2,0:0:0:0:
210,115,191055,5,2,0:0:0:0:
194,92,191141,1,2,0:0:0:0:
176,69,191227,1,2,0:0:0:0:
150,60,191314,1,2,0:0:0:0:
122,53,191400,2,0,L|233:36,1,97.4999955368044,8|0,0:0|0:0,0:0:0:0:
247,40,191658,1,0,0:0:0:0:
276,42,191745,6,0,L|291:96,3,48.7499977684022,2|0|0|0,0:0|0:0|0:0|0:0,0:0:0:0:
285,162,192090,2,0,L|265:288,1,97.4999955368044,8|0,0:0|0:0,0:0:0:0:
267,287,192348,1,0,0:0:0:0:
278,313,192434,2,0,P|325:297|390:306,1,97.4999955368044,2|0,0:0|0:0,0:0:0:0:
210,351,192779,2,0,P|161:353|115:337,1,97.4999955368044,10|0,0:0|0:0,0:0:0:0:
455,361,193124,6,0,L|442:299,3,48.7499977684022,2|0|2|0,0:0|0:0|0:0|0:0,0:0:0:0:
389,249,193469,2,0,L|399:201,3,48.7499977684022,10|0|0|0,0:0|0:0|0:0|0:0,0:0:0:0:
464,160,193814,2,0,L|454:112,3,48.7499977684022,2|0|2|0,0:0|0:0|0:0|0:0,0:0:0:0:
393,73,194158,2,0,L|403:25,3,48.7499977684022,10|0|2|0,0:0|0:0|0:0|0:0,0:0:0:0:
357,145,194503,6,0,L|296:152,3,48.7499977684022,2|0|2|0,0:0|0:0|0:0|0:0,0:0:0:0:
258,210,194848,2,0,L|197:217,3,48.7499977684022,10|0|2|0,0:0|0:0|0:0|0:0,0:0:0:0:
152,268,195193,2,0,L|91:275,3,48.7499977684022,2|0|2|0,0:0|0:0|0:0|0:0,0:0:0:0:
62,335,195538,2,0,L|1:342,3,48.7499977684022,10|0|2|0,0:0|0:0|0:0|0:0,0:0:0:0:
136,346,195883,5,8,0:0:0:0:
163,354,195969,1,0,0:0:0:0:
192,356,196055,1,2,0:0:0:0:
220,352,196141,1,0,0:0:0:0:
247,343,196227,1,8,0:0:0:0:
274,332,196314,1,0,0:0:0:0:
303,330,196400,1,2,0:0:0:0:
331,337,196486,1,0,0:0:0:0:
365,354,196572,6,0,L|430:343,3,48.7499977684022,8|0|0|0,0:0|0:0|0:0|0:0,0:0:0:0:
370,221,196917,2,0,L|306:208,3,48.7499977684022,8|0|0|0,0:0|0:0|0:0|0:0,0:0:0:0:
374,84,197262,5,8,0:0:0:0:
340,63,197348,1,0,0:0:0:0:
302,54,197434,1,2,0:0:0:0:
264,66,197521,1,0,0:0:0:0:
229,84,197607,1,8,0:0:0:0:
190,81,197693,1,0,0:0:0:0:
151,73,197779,1,2,0:0:0:0:
118,50,197865,1,0,0:0:0:0:
89,16,197952,6,0,L|77:81,3,48.7499977684022,8|0|0|0,0:0|0:0|0:0|0:0,0:0:0:0:
99,147,198296,5,8,0:0:0:0:
82,184,198383,2,0,L|94:244,1,48.7499977684022,8|0,0:0|0:0,0:0:0:0:
124,262,198555,1,2,0:0:0:0:
160,240,198641,6,0,P|211:228|265:247,1,97.4999955368044,4|0,0:0|0:0,0:0:0:0:
285,254,198900,1,0,0:0:0:0:
310,269,198986,2,0,L|304:340,3,48.7499977684022,8|0|0|0,0:0|0:0|0:0|0:0,0:0:0:0:
380,320,199331,2,0,L|378:374,2,48.7499977684022,2|0|2,0:0|0:0|0:0,0:0:0:0:
361,124,199676,2,0,B|311:110|311:110|242:130,1,97.4999955368044,8|0,0:0|0:0,0:0:0:0:
241,137,199934,1,0,0:0:0:0:
215,151,200021,6,0,B|168:164|168:164|113:143,1,97.4999955368044,2|0,0:0|0:0,0:0:0:0:
296,336,200365,1,8,0:0:0:0:
407,225,200538,1,2,0:0:0:0:
410,195,200624,1,2,0:0:0:0:
401,167,200710,1,2,0:0:0:0:
385,141,200796,1,2,0:0:0:0:
361,124,200883,1,2,0:0:0:0:
56,111,201055,2,0,L|168:100,1,97.4999955368044,8|0,0:0|0:0,0:0:0:0:
177,82,201314,1,0,0:0:0:0:
199,61,201400,6,0,L|302:60,1,97.4999955368044,2|0,0:0|0:0,0:0:0:0:
189,212,201745,2,0,L|215:153,3,48.7499977684022,8|0|0|0,0:0|0:0|0:0|0:0,0:0:0:0:
288,215,202090,2,0,L|338:192,2,48.7499977684022,2|0|2,0:0|0:0|0:0,0:0:0:0:
447,355,202434,2,0,P|427:300|397:278,1,97.4999955368044,8|0,0:0|0:0,0:0:0:0:
367,270,202693,1,0,0:0:0:0:
340,281,202779,6,0,P|286:300|243:283,1,97.4999955368044,2|0,0:0|0:0,0:0:0:0:
105,163,203124,2,0,L|203:166,1,97.4999955368044,8|0,0:0|0:0,0:0:0:0:
232,167,203383,1,2,0:0:0:0:
262,163,203469,1,2,0:0:0:0:
288,149,203555,1,2,0:0:0:0:
311,131,203641,1,2,0:0:0:0:
61,74,203814,1,8,0:0:0:0:
154,267,203986,1,2,0:0:0:0:
154,267,204072,1,2,0:0:0:0:
154,267,204158,6,0,L|194:319,1,48.7499977684022,2|0,0:0|0:0,0:0:0:0:
251,340,204331,1,0,0:0:0:0:
279,330,204417,1,0,0:0:0:0:
304,313,204503,2,0,L|359:292,1,48.7499977684022,8|0,0:0|0:0,0:0:0:0:
314,235,204676,2,0,L|359:217,1,48.7499977684022,2|0,0:0|0:0,0:0:0:0:
325,155,204848,2,0,L|379:133,1,48.7499977684022,2|0,0:0|0:0,0:0:0:0:
247,140,205021,1,2,0:0:0:0:
158,288,205193,2,0,P|150:235|103:186,1,97.4999955368044,8|0,0:0|0:0,0:0:0:0:
98,186,205452,1,0,0:0:0:0:
79,163,205538,6,0,P|62:122|75:50,1,97.4999955368044,2|0,0:0|0:0,0:0:0:0:
303,118,205883,2,0,P|319:157|311:220,1,97.4999955368044,8|0,0:0|0:0,0:0:0:0:
306,244,206141,1,0,0:0:0:0:
291,274,206227,1,0,0:0:0:0:
225,112,206400,1,2,0:0:0:0:
423,266,206572,2,0,P|397:317|347:337,1,97.4999955368044,8|0,0:0|0:0,0:0:0:0:
334,338,206831,1,0,0:0:0:0:
305,339,206917,5,0,0:0:0:0:
382,87,207090,1,2,0:0:0:0:
382,87,207176,1,2,0:0:0:0:
382,87,207262,2,0,L|391:146,1,48.7499977684022,8|0,0:0|0:0,0:0:0:0:
327,189,207434,2,0,L|315:237,1,48.7499977684022,2|0,0:0|0:0,0:0:0:0:
243,290,207607,1,2,0:0:0:0:
215,309,207693,1,0,0:0:0:0:
181,301,207779,1,2,0:0:0:0:
85,31,207952,2,0,P|125:73|136:131,1,97.4999955368044,8|0,0:0|0:0,0:0:0:0:
115,148,208210,1,0,0:0:0:0:
84,179,208296,6,0,P|161:161|218:105,1,146.249993305207,2|0,0:0|0:0,0:0:0:0:
214,21,208641,2,0,P|238:103|299:137,1,146.249993305207,8|0,0:0|0:0,0:0:0:0:
364,110,208986,2,0,B|292:132|285:223|285:223|349:216|388:254|388:254|400:299|438:317,1,341.249984378815,2|0,3:0|0:0,0:0:0:0:
476,236,209676,5,2,0:0:0:0:
219,288,209848,1,2,0:0:0:0:
229,314,209934,1,2,0:0:0:0:
247,337,210021,1,8,0:0:0:0:
271,353,210107,1,2,0:0:0:0:
299,361,210193,1,2,0:0:0:0:
191,212,210365,5,2,0:0:0:0:
163,222,210452,1,2,0:0:0:0:
141,244,210538,1,2,0:0:0:0:
312,238,210710,2,0,L|276:131,1,97.4999955368044,8|0,0:0|0:0,0:0:0:0:
275,116,210969,1,2,0:0:0:0:
279,87,211055,5,2,0:0:0:0:
297,63,211141,1,2,0:0:0:0:
320,44,211227,1,2,0:0:0:0:
431,254,211400,1,8,0:0:0:0:
290,340,211572,1,2,0:0:0:0:
290,340,211658,1,2,0:0:0:0:
290,340,211745,2,0,L|344:340,2,48.7499977684022,2|0|0,0:0|0:0|0:0,0:0:0:0:
138,190,212090,2,0,L|61:200,3,48.7499977684022,8|0|0|0,0:0|0:0|0:0|0:0,0:0:0:0:
220,110,212434,5,2,0:0:0:0:
68,360,212607,1,2,0:0:0:0:
91,344,212693,1,2,0:0:0:0:
114,326,212779,1,10,0:0:0:0:
123,300,212865,1,2,0:0:0:0:
130,271,212952,1,2,0:0:0:0:
157,68,213124,5,2,0:0:0:0:
179,49,213210,1,2,0:0:0:0:
206,39,213296,1,2,0:0:0:0:
235,39,213383,1,2,0:0:0:0:
262,47,213469,2,0,L|379:49,1,97.4999955368044,8|0,0:0|0:0,0:0:0:0:
395,73,213727,1,0,0:0:0:0:
407,115,213814,6,0,L|403:185,3,48.7499977684022,2|0|0|0,0:0|0:0|0:0|0:0,0:0:0:0:
366,221,214158,2,0,P|312:204|249:228,1,97.4999955368044,8|0,0:0|0:0,0:0:0:0:
239,240,214417,1,0,0:0:0:0:
201,262,214503,2,0,P|163:229|158:162,1,97.4999955368044,2|0,0:0|0:0,0:0:0:0:
266,312,214848,2,0,P|232:341|170:338,1,97.4999955368044,2|0,0:0|0:0,0:0:0:0:
329,256,215193,5,2,0:0:0:0:
51,210,215365,1,2,0:0:0:0:
41,243,215452,1,2,0:0:0:0:
43,276,215538,1,10,0:0:0:0:
51,308,215624,1,2,0:0:0:0:
66,338,215710,1,2,0:0:0:0:
173,162,215883,5,2,0:0:0:0:
203,145,215969,1,2,0:0:0:0:
236,140,216055,1,2,0:0:0:0:
269,145,216141,1,2,0:0:0:0:
299,158,216227,2,8,P|313:205|292:254,1,97.4999955368044,0|0,0:0|0:0,0:0:0:0:
271,272,216486,5,2,0:0:0:0:
259,304,216572,1,2,0:0:0:0:
260,338,216658,1,2,0:0:0:0:
269,371,216745,1,2,0:0:0:0:
436,316,216917,2,0,L|311:328,1,97.4999955368044,8|0,0:0|0:0,0:0:0:0:
162,308,217262,6,0,P|136:263|142:217,1,97.4999955368044,2|0,3:0|0:0,0:0:0:0:
201,71,217607,2,0,P|212:117|197:163,1,97.4999955368044,2|0,3:0|0:0,0:0:0:0:
88,274,217952,5,8,0:0:0:0:
111,291,218038,1,0,0:0:0:0:
137,303,218124,1,2,0:0:0:0:
165,309,218210,1,0,0:0:0:0:
193,309,218296,1,8,0:0:0:0:
223,308,218383,1,0,0:0:0:0:
250,316,218469,1,2,0:0:0:0:
274,332,218555,1,0,0:0:0:0:
301,360,218641,6,0,L|353:347,3,48.7499977684022,8|0|0|0,0:0|0:0|0:0|0:0,0:0:0:0:
357,250,218986,2,0,L|402:224,3,48.7499977684022,8|0|0|0,0:0|0:0|0:0|0:0,0:0:0:0:
403,130,219331,5,8,0:0:0:0:
379,99,219417,1,0,0:0:0:0:
346,78,219503,1,2,0:0:0:0:
306,76,219590,1,0,0:0:0:0:
274,88,219676,1,8,0:0:0:0:
250,119,219762,1,0,0:0:0:0:
230,154,219848,1,2,0:0:0:0:
226,193,219934,1,0,0:0:0:0:
230,232,220021,5,8,0:0:0:0:
207,200,220107,1,0,0:0:0:0:
179,172,220193,1,2,0:0:0:0:
143,156,220279,1,0,0:0:0:0:
104,156,220365,5,8,0:0:0:0:
69,174,220452,2,0,L|82:65,1,97.4999955368044,8|0,0:0|0:0,0:0:0:0:
100,51,220710,5,4,2:0:0:0:
331,135,226227,5,4,0:0:0:0:
318,137,231400,5,2,0:0:0:0:
111,258,231745,2,0,L|236:264,2,112.5,8|0|8,0:0|0:0|0:0,0:0:0:0:
270,335,232521,1,2,2:0:0:0:
244,114,232779,1,8,0:0:0:0:
71,190,233038,1,2,2:0:0:0:
71,190,233124,6,0,L|171:193,1,75,8|0,0:0|0:0,0:0:0:0:
214,232,233383,2,0,P|221:274|202:313,1,75,2|0,2:0|0:0,0:0:0:0:
142,347,233641,2,0,L|49:341,1,75,8|0,0:0|0:0,0:0:0:0:
55,264,233900,2,0,L|140:269,1,75,2|0,2:0|2:0,2:0:0:0:
210,302,234158,1,8,0:0:0:0:
292,137,234417,1,0,0:0:0:0:
292,137,234503,6,0,L|300:229,1,75,8|0,0:0|0:0,0:0:0:0:
370,261,234762,2,0,P|412:263|461:243,1,75,2|0,2:0|0:0,0:0:0:0:
281,307,235021,2,0,P|239:309|190:289,1,75,8|0,0:0|0:0,0:0:0:0:
361,354,235279,1,2,2:0:0:0:
411,173,235538,1,8,0:0:0:0:
163,62,235796,1,2,2:0:0:0:
163,62,235883,6,0,P|150:109|170:151,1,75,8|0,0:0|0:0,0:0:0:0:
189,272,236141,2,0,P|202:225|182:183,1,75,2|0,2:0|0:0,0:0:0:0:
46,194,236400,2,0,P|93:207|135:187,1,75,8|0,0:0|0:0,0:0:0:0:
306,135,236658,2,0,P|259:122|217:142,1,75,2|0,2:0|0:0,0:0:0:0:
385,281,236917,2,8,L|371:157,1,112.5,8|0,0:0|0:0,0:0:0:0:
370,93,237262,6,0,L|426:78,3,37.5,2|0|2|0,2:0|0:0|2:0|0:0,0:0:0:0:
306,135,237607,2,0,L|296:98,3,37.5,8|0|0|0,0:0|0:0|1:0|0:0,0:0:0:0:
297,215,237952,2,0,L|333:205,3,37.5,2|0|2|0,2:0|0:0|2:0|0:0,0:0:0:0:
232,256,238296,2,0,L|222:219,3,37.5,8|0|0|0,0:0|0:0|0:0|0:0,0:0:0:0:
70,355,238641,5,2,2:0:0:0:
92,334,238727,1,2,2:0:0:0:
100,304,238814,1,2,2:0:0:0:
100,274,238900,1,2,2:0:0:0:
89,244,238986,2,0,L|82:207,3,37.5,8|0|0|0,0:0|0:0|0:0|0:0,0:0:0:0:
183,151,239331,2,0,L|192:98,3,37.5,2|2|2|2,2:0|2:0|2:0|2:0,0:0:0:0:
109,60,239676,2,0,L|102:23,3,37.5,8|0|2|0,0:0|0:0|2:0|0:0,0:0:0:0:
216,227,240021,6,0,L|272:222,1,37.5,8|8,0:0|0:0,0:0:0:0:
344,147,240193,2,0,L|307:190,1,37.5
341,293,240365,2,0,L|313:241,1,37.5,8|0,0:0|0:0,0:0:0:0:
230,110,240538,2,0,L|261:158,1,37.5
428,213,240710,2,0,L|383:215,1,37.5,8|0,0:0|0:0,0:0:0:0:
233,332,240883,2,0,L|257:290,1,37.5
88,270,241055,2,0,L|106:323,1,37.5,8|0,0:0|0:0,0:0:0:0:
180,215,241227,2,0,L|189:167,1,37.5
78,46,241400,6,0,L|126:54,1,37.5,8|8,0:0|0:0,0:0:0:0:
225,95,241572,2,0,L|187:99,1,37.5
300,51,241745,2,0,L|351:56,1,37.5,8|0,0:0|0:0,0:0:0:0:
445,96,241917,2,0,L|381:105,1,37.5
287,155,242090,5,8,0:0:0:0:
412,278,242262,1,2,2:0:0:0:
418,256,242348,1,2,2:0:0:0:
423,234,242434,1,8,0:0:0:0:
270,355,242607,1,2,2:0:0:0:
200,128,242779,5,4,0:0:0:0:
85,220,242952,2,0,P|81:251|91:285,1,48.7499977684022,2|0,0:0|0:0,0:0:0:0:
267,265,243124,2,0,P|227:226|173:232,1,97.4999955368044,8|0,0:0|0:0,0:0:0:0:
170,234,243383,1,0,0:0:0:0:
155,246,243469,1,0,0:0:0:0:
320,334,243641,1,2,0:0:0:0:
367,190,243814,2,0,L|360:80,1,97.4999955368044,8|0,0:0|0:0,0:0:0:0:
139,247,244158,6,0,P|200:203|300:231,1,180,4|0,0:0|0:0,0:0:0:0:
368,357,244503,2,0,P|374:313|361:280,1,60,8|0,0:0|0:0,0:0:0:0:
408,166,244676,2,0,P|401:208|413:242,1,60,2|0,0:0|0:0,0:0:0:0:
346,100,244848,2,0,P|353:70|345:33,1,60,2|0,0:0|0:0,0:0:0:0:
262,169,245021,1,2,0:0:0:0:
69,21,245193,1,8,0:0:0:0:
233,30,245365,2,0,L|154:41,1,60,8|0,0:0|0:0,0:0:0:0:
112,109,245538,5,2,0:0:0:0:
262,169,245710,1,2,0:0:0:0:
114,307,245883,2,0,L|124:190,1,97.4999955368044,8|0,0:0|0:0,0:0:0:0:
124,195,246141,1,0,0:0:0:0:
126,180,246227,1,0,0:0:0:0:
206,343,246400,1,0,0:0:0:0:
453,130,246572,2,0,P|394:116|340:146,1,97.4999955368044,8|0,0:0|0:0,0:0:0:0:
308,370,246917,6,0,B|298:304|298:304|319:243|319:243|311:180,1,180,4|0,0:0|0:0,0:0:0:0:
249,85,247262,2,0,P|249:125|266:157,1,60,8|0,0:0|0:0,0:0:0:0:
204,29,247434,2,0,P|230:13|271:15,1,60,2|0,0:0|0:0,0:0:0:0:
133,65,247607,2,0,L|75:51,1,60,2|0,0:0|0:0,0:0:0:0:
176,134,247779,1,2,0:0:0:0:
138,287,247952,2,0,P|195:292|244:246,1,120,8|0,0:0|0:0,0:0:0:0:
352,39,248296,5,2,0:0:0:0:
237,92,248469,2,0,L|301:76,1,48.7499977684022,2|0,0:0|0:0,0:0:0:0:
345,240,248641,2,0,P|336:184|347:132,1,97.4999955368044,8|0,0:0|0:0,0:0:0:0:
350,130,248900,1,0,0:0:0:0:
357,116,248986,1,0,0:0:0:0:
432,301,249158,2,0,L|371:313,1,48.7499977684022,2|0,0:0|0:0,0:0:0:0:
215,341,249331,2,0,P|292:348|330:333,1,97.4999955368044,8|0,0:0|0:0,0:0:0:0:
162,23,249676,6,0,B|160:55|175:84|175:84|158:148|158:148|175:175|176:216,1,180,4|0,0:0|0:0,0:0:0:0:
299,247,250021,2,0,L|215:233,1,60,8|0,0:0|0:0,0:0:0:0:
384,269,250193,2,0,L|468:255,1,60,2|0,0:0|0:0,0:0:0:0:
277,324,250365,2,0,L|193:310,1,60,2|0,0:0|0:0,0:0:0:0:
361,354,250538,1,2,0:0:0:0:
125,236,250710,1,8,0:0:0:0:
263,165,250883,2,0,P|226:174|199:170,1,60,2|0,0:0|0:0,0:0:0:0:
127,128,251055,5,2,0:0:0:0:
253,242,251227,1,2,0:0:0:0:
342,32,251400,1,8,0:0:0:0:
231,85,251572,1,2,0:0:0:0:
231,85,251658,1,2,0:0:0:0:
231,85,251745,1,2,0:0:0:0:
396,138,251917,2,0,L|341:144,1,48.7499977684022,2|0,0:0|0:0,0:0:0:0:
331,323,252090,2,0,P|338:271|310:205,1,97.4999955368044,8|0,0:0|0:0,0:0:0:0:
306,200,252348,1,0,0:0:0:0:
268,182,252434,6,0,B|207:197|135:172|135:172|156:187|173:211,1,180,4|0,0:0|0:0,0:0:0:0:
222,321,252779,2,0,L|210:245,1,60,8|0,0:0|0:0,0:0:0:0:
96,238,252952,2,0,L|109:306,1,60,2|0,0:0|0:0,0:0:0:0:
163,362,253124,1,2,0:0:0:0:
200,109,253296,1,2,0:0:0:0:
377,214,253469,2,0,P|272:205|195:241,1,180,8|0,0:0|0:0,0:0:0:0:
180,257,253814,5,2,0:0:0:0:
85,82,253986,2,0,L|147:71,1,48.7499977684022,2|0,0:0|0:0,0:0:0:0:
329,123,254158,2,0,P|277:136|216:127,1,97.4999955368044,8|0,0:0|0:0,0:0:0:0:
215,125,254417,1,0,0:0:0:0:
197,117,254503,1,0,0:0:0:0:
395,81,254676,2,0,L|400:23,1,48.7499977684022,2|0,0:0|0:0,0:0:0:0:
445,224,254848,2,0,P|462:179|452:119,1,97.4999955368044,8|0,0:0|0:0,0:0:0:0:
262,251,255193,6,0,P|327:264|338:167,1,180,4|0,0:0|0:0,0:0:0:0:
271,136,255538,2,0,B|227:137|227:137|187:157|187:157|135:153,2,120,8|0|0,0:0|0:0|0:0,0:0:0:0:
92,82,256055,1,2,0:0:0:0:
177,327,256227,1,8,0:0:0:0:
258,236,256400,1,2,0:0:0:0:
258,236,256486,1,2,0:0:0:0:
258,236,256572,5,2,0:0:0:0:
106,209,256745,2,0,L|167:222,1,48.7499977684022,2|2,0:0|0:0,0:0:0:0:
288,142,256917,2,8,P|237:158|169:143,1,97.4999955368044,8|0,0:0|0:0,0:0:0:0:
161,141,257176,1,0,0:0:0:0:
131,124,257262,2,0,P|116:89|116:59,1,48.7499977684022
118,44,257434,1,2,0:0:0:0:
106,209,257607,2,0,P|65:182|42:140,1,97.4999955368044,8|0,0:0|0:0,0:0:0:0:
385,44,257952,6,0,B|395:65|381:99|381:99|409:150|383:219,1,180,4|0,0:0|0:0,0:0:0:0:
254,51,258296,2,0,L|327:65,1,60,8|0,0:0|0:0,0:0:0:0:
199,140,258469,2,0,L|275:129,1,60,2|0,0:0|0:0,0:0:0:0:
130,212,258641,2,0,L|206:224,1,60,2|0,0:0|0:0,0:0:0:0:
289,208,258814,1,2,0:0:0:0:
58,62,258986,2,0,B|37:106|40:133|40:133|59:158|63:194,1,120,8|0,0:0|0:0,0:0:0:0:
149,319,259331,6,0,P|219:290|302:320,1,146.249993305207,2|0,0:0|0:0,0:0:0:0:
396,359,259676,2,0,P|359:307|370:246,1,97.4999955368044,8|0,0:0|0:0,0:0:0:0:
361,255,259934,1,0,0:0:0:0:
366,235,260021,1,0,0:0:0:0:
469,172,260193,2,0,L|403:180,1,48.7499977684022,2|0,0:0|0:0,0:0:0:0:
190,194,260365,2,0,P|246:212|298:206,1,97.4999955368044,8|0,0:0|0:0,0:0:0:0:
152,107,260710,6,0,P|92:173|118:261,1,180,4|0,0:0|0:0,0:0:0:0:
238,337,261055,1,8,0:0:0:0:
346,328,261227,1,2,0:0:0:0:
338,220,261400,1,2,0:0:0:0:
230,228,261572,1,2,0:0:0:0:
301,27,261745,2,0,B|286:65|286:65|294:119|294:119|282:155,1,120,8|0,0:0|0:0,0:0:0:0:
358,360,262090,6,0,B|341:318|341:318|350:258|350:258|337:219,1,146.249993305207,2|0,0:0|0:0,0:0:0:0:
357,192,262434,2,0,P|407:169|457:177,1,97.4999955368044,8|0,0:0|0:0,0:0:0:0:
464,184,262693,1,0,0:0:0:0:
478,197,262779,1,0,0:0:0:0:
437,347,262952,2,0,L|424:251,2,97.4999955368044,2|8|0,0:0|0:0|0:0,0:0:0:0:
413,86,263469,5,8,0:0:0:0:
392,70,263555,1,0,0:0:0:0:
368,60,263641,1,2,0:0:0:0:
341,57,263727,1,0,0:0:0:0:
315,64,263814,1,8,0:0:0:0:
290,73,263900,1,0,0:0:0:0:
264,78,263986,1,2,0:0:0:0:
239,70,264072,1,0,0:0:0:0:
210,50,264158,6,0,L|201:1,1,48.7499977684022,8|0,0:0|0:0,0:0:0:0:
167,116,264331,1,2,0:0:0:0:
167,116,264417,1,2,0:0:0:0:
167,116,264503,2,0,L|160:179,1,48.7499977684022,8|0,0:0|0:0,0:0:0:0:
221,269,264676,2,0,L|214:206,2,48.7499977684022,8|0|0,0:0|0:0|0:0,0:0:0:0:
332,121,265021,6,0,P|297:119|265:130,1,56.2500021457673,2|0,0:0|0:0,0:0:0:0:
395,207,265193,1,8,0:0:0:0:
419,12,265365,2,0,L|407:128,1,112.500004291535,8|0,0:0|0:0,0:0:0:0:
317,326,265710,2,0,L|305:210,1,112.500004291535,8|0,0:0|0:0,0:0:0:0:
409,353,266055,1,2,2:0:0:0:
115,295,266227,6,0,B|194:305|237:239|237:239|244:300,1,191.250003647804,4|0,0:0|0:0,0:0:0:0:
223,356,266572,1,8,0:0:0:0:
131,78,266745,6,0,P|117:135|135:194,1,112.500004291535,8|0,0:0|0:0,0:0:0:0:
359,211,267090,2,0,P|347:153|301:107,1,112.500004291535,8|0,0:0|0:0,0:0:0:0:
328,303,267434,2,0,P|392:301|436:262,1,112.500004291535,8|0,0:0|0:0,0:0:0:0:
337,31,267779,2,0,P|277:32|232:77,1,112.500004291535,8|0,0:0|0:0,0:0:0:0:
322,327,268124,2,0,P|386:325|427:285,1,112.500004291535,8|0,0:0|0:0,0:0:0:0:
322,13,268469,2,0,P|258:15|217:55,1,112.500004291535,8|0,0:0|0:0,0:0:0:0:
166,119,268814,1,2,3:0:0:0:
229,338,268986,6,0,B|176:336|149:351|149:351|106:333|106:333|66:349|31:341,1,191.250003647804,4|0,0:0|0:0,0:0:0:0:
109,259,269331,1,8,0:0:0:0:
291,232,269503,6,0,P|238:211|165:216,1,112.500004291535,8|0,0:0|0:0,0:0:0:0:
363,169,269848,2,0,P|416:148|489:153,1,112.500004291535,8|0,0:0|0:0,0:0:0:0:
389,362,270193,6,0,P|371:312|386:246,1,112.500004291535,8|0,0:0|0:0,0:0:0:0:
479,40,270538,2,0,P|489:94|471:147,1,112.500004291535,8|0,0:0|0:0,0:0:0:0:
267,61,270883,2,0,L|387:68,1,112.500004291535,8|0,0:0|0:0,0:0:0:0:
165,145,271227,2,0,L|24:165,1,112.500004291535,8|0,0:0|0:0,0:0:0:0:
192,30,271572,1,2,3:0:0:0:
321,344,271745,6,0,P|277:283|330:168,1,191.250003647804,4|0,0:0|0:0,0:0:0:0:
406,113,272090,1,8,0:0:0:0:
192,30,272262,6,0,L|313:48,1,112.500004291535,8|0,0:0|0:0,0:0:0:0:
25,146,272607,2,0,L|151:133,1,112.500004291535,8|0,0:0|0:0,0:0:0:0:
313,307,272952,2,0,P|250:312|190:283,1,112.500004291535,8|0,0:0|0:0,0:0:0:0:
196,63,273296,2,0,P|250:49|304:60,1,112.500004291535,8|0,0:0|0:0,0:0:0:0:
118,247,273641,2,0,P|104:192|115:138,1,112.500004291535,8|0,0:0|0:0,0:0:0:0:
406,130,273986,2,8,P|416:184|403:238,1,112.500004291535
287,366,274331,1,2,3:0:0:0:
61,66,274503,6,0,B|161:133|232:27|232:27|175:171|268:147|213:302|213:302|300:235|376:318,1,637.500012159348,0|0,0:0|2:0,0:0:0:0:
146,277,275538,6,0,P|162:211|152:171,1,97.4999955368044,8|0,0:0|2:3,2:3:0:0:
80,322,275883,2,0,P|125:354|177:349,1,97.4999955368044,2|0,0:0|0:0,0:0:0:0:
356,260,276227,2,0,L|342:160,2,97.4999955368044,8|0|0,0:0|0:0|0:0,0:0:0:0:
430,102,276745,2,0,L|352:92,1,48.7499977684022,2|0,0:0|0:0,0:0:0:0:
207,101,276917,2,0,P|267:108|328:86,1,97.4999955368044,8|0,0:0|0:0,0:0:0:0:
133,48,277262,6,0,B|102:107|136:154|136:154|111:189|131:234,1,180,4|0,0:0|0:0,0:0:0:0:
256,259,277607,2,0,L|197:266,1,60,8|0,0:0|0:0,0:0:0:0:
63,298,277779,2,0,L|122:305,1,60,2|0,0:0|0:0,0:0:0:0:
267,270,277952,2,0,L|208:276,1,60,2|0,0:0|0:0,0:0:0:0:
67,315,278124,2,0,L|127:322,1,60,2|0,0:0|0:0,0:0:0:0:
323,345,278296,2,0,P|356:283|340:231,1,120,8|0,0:0|0:0,0:0:0:0:
293,81,278641,6,0,P|277:138|310:187,1,97.4999955368044,2|0,0:0|0:0,0:0:0:0:
508,134,278986,2,0,L|404:130,1,97.4999955368044,8|0,0:0|0:0,0:0:0:0:
390,129,279245,1,0,0:0:0:0:
370,129,279331,1,0,0:0:0:0:
436,49,279503,2,0,L|494:47,1,48.7499977684022,2|0,0:0|0:0,0:0:0:0:
466,197,279676,2,0,L|355:208,1,97.4999955368044,8|0,0:0|0:0,0:0:0:0:
117,307,280021,6,0,B|136:233|103:173|103:173|129:206|162:213,1,180,4|0,0:0|0:0,0:0:0:0:
314,250,280365,2,0,P|257:264|199:250,2,120,8|0|0,0:0|0:0|0:0,0:0:0:0:
208,115,280883,2,0,L|203:174,1,60,2|0,0:0|0:0,0:0:0:0:
282,95,281055,2,0,P|215:42|161:54,1,120,8|0,0:0|0:0,0:0:0:0:
162,52,281314,1,0,0:0:0:0:
138,69,281400,5,2,0:0:0:0:
267,222,281572,2,0,L|262:144,1,48.7499977684022,2|0,0:0|0:0,0:0:0:0:
267,222,281745,2,0,P|281:281|266:322,1,97.4999955368044,8|0,0:0|0:0,0:0:0:0:
257,340,282003,1,0,0:0:0:0:
243,366,282090,1,0,0:0:0:0:
202,273,282262,2,0,L|185:216,1,48.7499977684022,2|0,0:0|0:0,0:0:0:0:
294,128,282434,2,0,L|253:263,1,97.4999955368044,8|0,0:0|0:0,0:0:0:0:
70,104,282779,6,0,B|112:96|137:72|137:72|192:99|242:68,1,180,4|0,0:0|0:0,0:0:0:0:
371,71,283124,2,0,P|346:56|299:52,1,60,8|0,0:0|0:0,0:0:0:0:
430,129,283296,2,0,P|459:123|485:108,1,60,2|0,0:0|0:0,0:0:0:0:
350,154,283469,2,0,L|338:222,1,60,2|0,0:0|0:0,0:0:0:0:
385,278,283641,2,0,L|372:358,1,60,2|0,0:0|0:0,0:0:0:0:
167,276,283814,2,0,P|237:256|300:284,1,120,8|0,0:0|0:0,0:0:0:0:
83,343,284158,5,2,0:0:0:0:
41,169,284331,2,8,L|51:267,1,89.9999972534181,8|0,0:0|0:0,0:0:0:0:
104,113,284676,1,2,0:0:0:0:
261,203,284848,1,8,0:0:0:0:
173,320,285021,2,0,L|165:268,1,44.999998626709,2|0,0:0|0:0,0:0:0:0:
247,359,285193,1,2,0:0:0:0:
445,284,285365,6,0,L|333:278,1,89.9999972534181,8|0,0:0|0:0,0:0:0:0:
201,217,285710,1,2,0:0:0:0:
318,35,285883,2,0,P|337:100|323:147,1,89.9999972534181,8|0,0:0|0:0,0:0:0:0:
280,250,286227,1,2,0:0:0:0:
162,73,286400,2,0,L|272:84,1,89.9999972534181,8|0,0:0|0:0,0:0:0:0:
39,141,286745,1,2,0:0:0:0:
213,340,286917,5,0,0:0:0:0:
124,245,287090,2,0,L|185:258,1,48.7499977684022,2|0,0:0|0:0,0:0:0:0:
306,177,287262,2,0,L|176:187,1,97.4999955368044,8|0,0:0|0:0,0:0:0:0:
190,182,287521,1,0,0:0:0:0:
172,171,287607,2,0,B|155:119|155:119|176:64,1,97.4999955368044,2|0,0:0|0:0,0:0:0:0:
340,32,287952,2,0,P|283:22|240:41,1,97.4999955368044,8|0,0:0|0:0,0:0:0:0:
411,196,288296,6,0,B|446:128|409:76|409:76|423:42|410:13,1,180,4|0,0:0|0:0,0:0:0:0:
283,128,288641,2,0,L|356:142,1,60,8|0,0:0|0:0,0:0:0:0:
161,93,288814,2,0,L|237:81,1,60,2|0,0:0|0:0,0:0:0:0:
80,161,288986,2,0,L|155:173,1,60,2|0,0:0|0:0,0:0:0:0:
252,225,289158,1,2,0:0:0:0:
78,273,289331,2,0,B|57:229|60:202|60:202|79:177|83:141,1,120,8|0,0:0|0:0,0:0:0:0:
146,320,289676,6,0,P|215:336|281:307,1,146.249993305207,2|0,0:0|0:0,0:0:0:0:
382,323,290021,2,0,P|345:271|356:210,1,97.4999955368044,8|0,0:0|0:0,0:0:0:0:
347,219,290279,1,0,0:0:0:0:
352,199,290365,1,0,0:0:0:0:
441,129,290538,2,0,L|374:136,1,48.7499977684022,2|0,0:0|0:0,0:0:0:0:
212,128,290710,2,0,B|249:139|249:139|287:131|287:131|319:140,1,97.4999955368044,8|0,0:0|0:0,0:0:0:0:
149,87,291055,6,0,P|89:153|115:241,1,180,4|0,0:0|0:0,0:0:0:0:
161,299,291400,1,8,0:0:0:0:
337,245,291572,1,2,0:0:0:0:
230,99,291745,1,2,0:0:0:0:
240,208,291917,1,2,0:0:0:0:
341,17,292090,2,0,L|322:145,1,120,8|0,0:0|0:0,0:0:0:0:
222,287,292434,5,0,0:0:0:0:
83,146,292607,2,0,L|81:213,1,48.7499977684022,2|0,0:0|0:0,0:0:0:0:
222,287,292779,2,0,P|178:260|97:272,1,97.4999955368044,8|0,0:0|0:0,0:0:0:0:
115,264,293038,1,0,0:0:0:0:
98,273,293124,1,0,0:0:0:0:
163,356,293296,1,2,0:0:0:0:
210,108,293469,2,0,L|217:219,1,97.4999955368044,8|0,0:0|0:0,0:0:0:0:
366,88,293814,6,0,P|305:132|205:104,1,180,4|0,0:0|0:0,0:0:0:0:
143,10,294158,2,0,B|152:51|152:51|141:85,1,60,8|0,0:0|0:0,0:0:0:0:
97,185,294331,2,0,B|91:156|91:156|100:109,1,60,2|0,0:0|0:0,0:0:0:0:
160,233,294503,2,0,B|166:273|166:273|149:312,1,60,2|0,0:0|0:0,0:0:0:0:
247,195,294676,1,2,0:0:0:0:
409,321,294848,1,8,0:0:0:0:
249,303,295021,2,0,L|328:292,1,60,2|0,0:0|0:0,0:0:0:0:
199,361,295193,5,2,0:0:0:0:
175,148,295365,1,2,0:0:0:0:
387,117,295538,2,0,L|377:234,1,97.4999955368044,8|0,0:0|0:0,0:0:0:0:
377,229,295796,1,0,0:0:0:0:
375,244,295883,1,0,0:0:0:0:
305,109,296055,1,2,0:0:0:0:
106,254,296227,2,0,P|165:268|219:238,1,97.4999955368044
151,17,296572,6,0,B|141:83|141:83|162:144|162:144|154:207,1,180,4|0,0:0|0:0,0:0:0:0:
203,315,296917,2,0,L|196:236,1,60,8|0,0:0|0:0,0:0:0:0:
319,335,297090,2,0,P|293:351|252:349,1,60,2|0,0:0|0:0,0:0:0:0:
372,275,297262,2,0,L|430:289,1,60,2|0,0:0|0:0,0:0:0:0:
479,349,297434,1,2,0:0:0:0:
386,124,297607,2,0,P|328:119|280:165,1,120,8|0,0:0|0:0,0:0:0:0:
160,345,297952,5,2,0:0:0:0:
275,292,298124,2,0,L|211:308,1,48.7499977684022,2|0,0:0|0:0,0:0:0:0:
167,144,298296,2,0,P|176:200|165:251,1,97.4999955368044,8|0,0:0|0:0,0:0:0:0:
162,254,298555,1,0,0:0:0:0:
155,268,298641,1,0,0:0:0:0:
80,82,298814,2,0,L|141:71,1,48.7499977684022,2|0,0:0|0:0,0:0:0:0:
35,147,298986,2,0,P|28:224|43:262,1,97.4999955368044,8|0,0:0|0:0,0:0:0:0:
334,332,299331,6,0,B|343:284|343:284|324:245|336:187|336:187|311:213|280:218,1,180,4|0,0:0|0:0,0:0:0:0:
213,137,299676,2,0,L|297:151,1,60,8|0,0:0|0:0,0:0:0:0:
108,201,299848,2,0,L|192:215,1,60,2|0,0:0|0:0,0:0:0:0:
47,110,300021,2,0,L|131:124,1,60,2|0,0:0|0:0,0:0:0:0:
163,53,300193,1,2,0:0:0:0:
387,148,300365,1,8,0:0:0:0:
249,219,300538,2,2,L|313:214,1,60
385,256,300710,5,0,0:0:0:0:
267,133,300883,2,0,L|189:142,1,48.7499977684022,2|0,0:0|0:0,0:0:0:0:
140,117,301055,1,8,0:0:0:0:
281,299,301227,1,2,0:0:0:0:
281,299,301314,1,2,0:0:0:0:
281,299,301400,1,2,0:0:0:0:
116,246,301572,2,0,L|171:240,1,48.7499977684022,2|0,0:0|0:0,0:0:0:0:
215,49,301745,2,0,P|208:101|236:167,1,97.4999955368044,8|0,0:0|0:0,0:0:0:0:
241,172,302003,1,0,0:0:0:0:
278,190,302090,6,0,B|339:175|411:200|411:200|373:161,1,180,4|0,0:0|0:0,0:0:0:0:
344,271,302434,2,0,L|356:347,1,60,2|0,0:0|0:0,0:0:0:0:
379,167,302607,2,0,L|451:142,1,60,2|0,0:0|0:0,0:0:0:0:
458,254,302779,1,2,0:0:0:0:
298,82,302952,1,2,0:0:0:0:
102,209,303124,2,0,P|207:218|284:182,1,180,8|0,0:0|0:0,0:0:0:0:
302,170,303469,5,2,0:0:0:0:
404,284,303641,2,0,L|345:268,1,48.7499977684022,2|0,0:0|0:0,0:0:0:0:
467,324,303814,2,0,P|429:357|372:350,1,97.4999955368044,8|0,0:0|0:0,0:0:0:0:
370,350,304072,1,0,0:0:0:0:
357,342,304158,1,0,0:0:0:0:
120,361,304331,2,0,L|182:351,1,48.7499977684022,2|0,0:0|0:0,0:0:0:0:
44,343,304503,2,0,P|74:303|138:288,1,97.4999955368044,8|0,0:0|0:0,0:0:0:0:
250,133,304848,6,0,P|185:120|174:217,1,180,4|0,0:0|0:0,0:0:0:0:
241,248,305193,2,0,L|384:233,2,120,8|0|0,0:0|0:0|0:0,0:0:0:0:
420,302,305710,1,2,0:0:0:0:
335,57,305883,1,8,0:0:0:0:
254,148,306055,1,0,0:0:0:0:
327,343,306227,5,8,0:0:0:0:
297,351,306314,1,0,0:0:0:0:
267,354,306400,1,2,0:0:0:0:
238,344,306486,1,0,0:0:0:0:
217,322,306572,1,8,0:0:0:0:
208,293,306658,1,0,0:0:0:0:
211,262,306745,1,2,0:0:0:0:
224,235,306831,1,0,0:0:0:0:
256,208,306917,6,0,L|245:144,3,37.5,10|0|2|0,0:0|0:0|0:0|0:0,0:0:0:0:
315,126,307262,2,0,L|304:62,3,37.5,8|0|0|0,0:0|0:0|0:0|0:0,0:0:0:0:
246,44,307607,5,8,0:0:0:0:
202,31,307693,1,0,0:0:0:0:
157,34,307779,1,2,0:0:0:0:
125,66,307865,1,0,0:0:0:0:
111,109,307952,1,8,0:0:0:0:
122,152,308038,1,0,0:0:0:0:
153,184,308124,1,2,0:0:0:0:
197,192,308210,1,0,0:0:0:0:
241,186,308296,6,0,L|254:242,3,37.5,8|0|0|0,0:0|0:0|0:0|0:0,0:0:0:0:
296,280,308641,1,8,0:0:0:0:
320,297,308727,1,8,0:0:0:0:
408,152,308900,1,2,0:0:0:0:
386,123,308986,6,2,L|290:128,1,89.9999972534181,6|2,0:0|0:0,0:0:0:0:
268,126,309245,1,2,0:0:0:0:
243,115,309331,1,8,0:0:0:0:
227,92,309417,1,2,0:0:0:0:
216,67,309503,1,2,0:0:0:0:
306,207,309676,1,2,0:0:0:0:
313,232,309762,1,2,0:0:0:0:
313,258,309848,1,2,0:0:0:0:
101,216,310021,2,0,L|208:228,1,89.9999972534181,8|0,0:0|0:0,0:0:0:0:
216,233,310279,1,0,0:0:0:0:
231,255,310365,6,0,P|227:301|244:351,1,89.9999972534181,2|0,0:0|0:0,0:0:0:0:
401,172,310710,2,0,L|391:118,2,44.999998626709,8|0|0,0:0|0:0|0:0,0:0:0:0:
245,44,311055,2,2,L|237:89,2,44.999998626709
81,167,311400,2,0,P|135:175|182:158,1,89.9999972534181,8|0,0:0|0:0,0:0:0:0:
192,153,311658,1,0,0:0:0:0:
218,145,311745,6,0,L|281:155,3,44.999998626709,2|0|2|0,0:0|0:0|0:0|0:0,0:0:0:0:
316,212,312090,1,8,0:0:0:0:
335,27,312262,1,2,0:0:0:0:
320,49,312348,1,2,0:0:0:0:
315,75,312434,1,2,0:0:0:0:
317,102,312521,1,2,0:0:0:0:
327,126,312607,1,2,0:0:0:0:
464,360,312779,2,0,L|453:258,1,89.9999972534181,8|0,0:0|0:0,0:0:0:0:
468,237,313038,1,2,0:0:0:0:
475,201,313124,5,2,0:0:0:0:
93,185,313296,1,2,0:0:0:0:
122,174,313383,1,2,0:0:0:0:
153,170,313469,1,10,0:0:0:0:
182,180,313555,1,2,0:0:0:0:
208,197,313641,2,0,L|203:305,1,89.9999972534181,2|0,0:0|0:0,0:0:0:0:
214,316,313900,1,2,0:0:0:0:
237,336,313986,1,2,0:0:0:0:
268,337,314072,1,2,0:0:0:0:
297,327,314158,1,0,0:0:0:0:
334,183,314331,2,0,L|341:249,1,44.999998626709,2|0,0:0|0:0,0:0:0:0:
381,118,314503,5,2,0:0:0:0:
133,98,314676,1,2,0:0:0:0:
159,102,314762,1,2,0:0:0:0:
185,105,314848,1,8,0:0:0:0:
211,108,314934,1,2,0:0:0:0:
237,113,315021,1,2,0:0:0:0:
79,145,315193,2,0,P|63:124|62:87,2,44.999998626709,2|0|0,0:0|0:0|0:0,0:0:0:0:
257,278,315538,2,0,L|140:286,1,89.9999972534181,8|0,0:0|0:0,0:0:0:0:
104,324,315796,1,0,0:0:0:0:
178,356,315883,6,0,L|277:348,1,89.9999972534181,2|0,0:0|0:0,0:0:0:0:
299,348,316141,1,0,0:0:0:0:
323,335,316227,1,8,0:0:0:0:
339,313,316314,1,0,0:0:0:0:
351,288,316400,2,0,L|343:243,3,44.999998626709,2|0|2|0,0:0|0:0|0:0|0:0,0:0:0:0:
389,178,316745,1,2,0:0:0:0:
255,97,316917,2,0,L|246:201,1,89.9999972534181,8|0,0:0|0:0,0:0:0:0:
234,210,317176,1,2,0:0:0:0:
214,228,317262,5,2,0:0:0:0:
88,33,317434,1,2,0:0:0:0:
72,55,317521,1,2,0:0:0:0:
62,80,317607,1,8,0:0:0:0:
63,107,317693,1,2,0:0:0:0:
73,132,317779,1,2,0:0:0:0:
88,154,317865,1,2,0:0:0:0:
98,178,317952,1,2,0:0:0:0:
92,204,318038,1,2,0:0:0:0:
77,227,318124,6,0,P|60:271|74:328,1,89.9999972534181,2|8,0:0|0:0,0:0:0:0:
272,264,318469,1,2,0:0:0:0:
272,264,318555,1,2,0:0:0:0:
272,264,318641,2,0,L|124:278,1,134.999995880127,2|0,0:0|0:0,0:0:0:0:
165,350,318986,2,0,L|299:337,1,134.999995880127,8|0,0:0|0:0,0:0:0:0:
356,266,319331,6,0,B|353:219|390:185|390:185|357:150|315:146|315:146|272:185|194:168,1,269.999991760254,2|0,3:0|0:0,0:0:0:0:
147,39,320021,2,0,L|165:129,1,89.9999972534181,2|0,0:0|0:0,0:0:0:0:
158,153,320279,1,0,0:0:0:0:
148,178,320365,2,0,L|138:226,3,44.999998626709,8|0|0|0,0:0|0:0|0:0|0:0,0:0:0:0:
167,287,320710,1,2,0:0:0:0:
172,313,320796,1,2,0:0:0:0:
177,339,320883,1,2,0:0:0:0:
386,242,321055,2,0,P|334:233|284:252,1,89.9999972534181,8|0,0:0|0:0,0:0:0:0:
242,291,321314,1,0,0:0:0:0:
299,338,321400,6,2,P|348:347|393:329,1,89.9999972534181
466,192,321745,1,8,0:0:0:0:
476,167,321831,1,2,0:0:0:0:
484,141,321917,2,0,P|482:99|451:46,1,89.9999972534181,2|0,0:0|0:0,0:0:0:0:
437,42,322176,1,2,0:0:0:0:
410,36,322262,1,2,0:0:0:0:
383,32,322348,1,2,0:0:0:0:
356,30,322434,1,8,0:0:0:0:
206,131,322607,1,2,0:0:0:0:
206,131,322693,1,2,0:0:0:0:
206,131,322779,6,0,L|292:127,1,44.999998626709,2|0,0:0|0:0,0:0:0:0:
277,132,322952,1,0,0:0:0:0:
296,150,323038,1,0,0:0:0:0:
310,172,323124,2,0,P|319:215|305:257,1,89.9999972534181,8|0,0:0|0:0,0:0:0:0:
292,281,323383,1,2,0:0:0:0:
270,296,323469,2,0,L|210:285,2,44.999998626709,2|0|0,0:0|0:0|0:0,0:0:0:0:
115,345,323814,1,8,0:0:0:0:
107,319,323900,1,2,0:0:0:0:
99,293,323986,2,0,P|87:263|86:223,1,44.999998626709
181,107,324158,6,0,L|161:262,1,134.999995880127,2|0,0:0|0:0,0:0:0:0:
98,181,324503,2,0,L|93:92,1,89.9999972534181,8|0,0:0|0:0,0:0:0:0:
105,66,324762,1,0,0:0:0:0:
127,54,324848,2,0,B|155:48|177:37|177:37|216:56|216:56|257:40|321:51,1,179.999994506836,2|0,0:0|0:0,0:0:0:0:
448,79,325365,1,0,0:0:0:0:
360,284,325538,6,0,P|351:225|384:163,1,89.9999972534181,2|0,0:0|0:0,0:0:0:0:
376,176,325796,1,2,0:0:0:0:
400,163,325883,1,10,0:0:0:0:
426,160,325969,1,2,0:0:0:0:
450,170,326055,1,2,0:0:0:0:
383,355,326227,1,2,0:0:0:0:
358,367,326314,1,2,0:0:0:0:
331,359,326400,1,2,0:0:0:0:
160,198,326572,2,0,L|170:298,1,89.9999972534181,8|0,0:0|0:0,0:0:0:0:
169,288,326831,1,2,0:0:0:0:
169,288,326917,6,0,P|120:294|75:270,1,89.9999972534181,2|0,0:0|0:0,0:0:0:0:
66,257,327176,1,2,0:0:0:0:
49,235,327262,1,10,0:0:0:0:
45,208,327348,1,2,0:0:0:0:
47,181,327434,1,2,0:0:0:0:
55,155,327521,1,2,0:0:0:0:
70,133,327607,6,0,B|115:122|115:122|207:150,1,134.999995880127,2|0,0:0|0:0,0:0:0:0:
270,190,327952,2,0,B|315:201|315:201|407:173,1,134.999995880127,2|0,0:0|0:0,0:0:0:0:
453,110,328296,5,8,0:0:0:0:
475,144,328383,1,0,0:0:0:0:
480,184,328469,1,2,0:0:0:0:
462,220,328555,1,0,0:0:0:0:
437,251,328641,1,8,0:0:0:0:
421,288,328727,1,0,0:0:0:0:
429,327,328814,1,2,0:0:0:0:
463,347,328900,1,0,0:0:0:0:
487,315,328986,6,0,L|474:261,3,44.999998626709,8|0|0|0,0:0|0:0|0:0|0:0,0:0:0:0:
372,222,329331,2,0,L|359:168,3,44.999998626709,8|0|0|0,0:0|0:0|0:0|0:0,0:0:0:0:
315,123,329676,5,8,0:0:0:0:
283,105,329762,1,0,0:0:0:0:
247,98,329848,1,2,0:0:0:0:
214,114,329934,1,0,0:0:0:0:
189,141,330021,2,0,L|174:222,1,44.999998626709,8|0,0:0|0:0,0:0:0:0:
266,278,330193,2,0,L|254:232,1,44.999998626709,2|0,0:0|0:0,0:0:0:0:
160,314,330365,2,0,L|232:334,1,44.999998626709,8|0,0:0|0:0,0:0:0:0:
354,335,330538,1,2,0:0:0:0:
354,335,330624,1,2,0:0:0:0:
354,335,330710,2,0,P|378:279|356:198,1,134.999995880127,8|0,0:0|0:0,0:0:0:0:
310,153,331055,5,4,0:0:0:0:
138,112,331227,1,2,0:0:0:0:
112,122,331314,1,2,0:0:0:0:
89,140,331400,1,10,0:0:0:0:
73,164,331486,1,2,0:0:0:0:
65,192,331572,1,2,0:0:0:0:
214,84,331745,5,2,0:0:0:0:
204,56,331831,1,2,0:0:0:0:
182,34,331917,1,2,0:0:0:0:
141,242,332090,2,0,L|242:222,1,89.9999972534181,8|0,0:0|0:0,0:0:0:0:
265,224,332348,1,2,0:0:0:0:
294,228,332434,5,2,0:0:0:0:
318,246,332521,1,2,0:0:0:0:
337,269,332607,1,2,0:0:0:0:
194,367,332779,1,8,0:0:0:0:
132,197,332952,1,2,0:0:0:0:
132,197,333038,1,2,0:0:0:0:
132,197,333124,2,0,L|145:262,2,44.999998626709,2|0|0,0:0|0:0|0:0,0:0:0:0:
278,94,333469,2,0,L|265:163,3,44.999998626709,8|0|0|0,0:0|0:0|0:0|0:0,0:0:0:0:
324,204,333814,5,2,0:0:0:0:
257,7,333986,1,2,0:0:0:0:
234,23,334072,1,2,0:0:0:0:
211,41,334158,1,10,0:0:0:0:
202,67,334245,1,2,0:0:0:0:
195,96,334331,1,2,0:0:0:0:
324,204,334503,5,2,0:0:0:0:
350,215,334590,1,2,0:0:0:0:
377,226,334676,1,2,0:0:0:0:
404,221,334762,1,2,0:0:0:0:
432,213,334848,2,0,L|415:324,1,89.9999972534181,8|0,0:0|0:0,0:0:0:0:
389,323,335107,1,0,0:0:0:0:
353,331,335193,6,0,P|327:323|283:327,3,44.999998626709,2|0|2|0,0:0|0:0|0:0|0:0,0:0:0:0:
196,285,335538,1,8,0:0:0:0:
216,255,335624,1,2,0:0:0:0:
226,220,335710,1,2,0:0:0:0:
223,184,335796,1,2,0:0:0:0:
216,148,335883,2,0,P|249:110|307:87,1,89.9999972534181,2|0,0:0|0:0,0:0:0:0:
144,219,336227,2,0,P|101:196|70:159,1,89.9999972534181,8|0,0:0|0:0,0:0:0:0:
52,136,336486,1,2,0:0:0:0:
42,101,336572,5,2,0:0:0:0:
157,76,336745,1,2,0:0:0:0:
190,86,336831,1,2,0:0:0:0:
223,84,336917,1,10,0:0:0:0:
255,76,337003,1,2,0:0:0:0:
285,61,337090,1,2,0:0:0:0:
433,118,337262,1,2,0:0:0:0:
450,148,337348,1,2,0:0:0:0:
455,181,337434,1,2,0:0:0:0:
450,214,337521,1,2,0:0:0:0:
437,244,337607,2,0,P|390:258|341:237,1,89.9999972534181,8|0,0:0|0:0,0:0:0:0:
322,225,337865,5,2,0:0:0:0:
290,213,337952,1,2,0:0:0:0:
256,214,338038,1,2,0:0:0:0:
223,223,338124,1,2,0:0:0:0:
156,337,338296,2,0,L|143:221,1,89.9999972534181,8|0,0:0|0:0,0:0:0:0:
135,212,338555,1,0,0:0:0:0:
126,177,338641,2,0,L|133:112,2,44.999998626709,2|0|0,0:0|0:0|0:0,0:0:0:0:
188,83,338986,2,0,P|130:58|89:71,1,89.9999972534181,8|0,0:0|0:0,0:0:0:0:
239,149,339331,6,0,L|395:138,1,134.999995880127,2|0,0:0|0:0,0:0:0:0:
438,105,339676,2,0,L|447:61,2,44.999998626709,8|0|0,0:0|0:0|0:0,0:0:0:0:
444,280,340021,1,2,0:0:0:0:
435,245,340107,1,2,0:0:0:0:
424,210,340193,1,2,0:0:0:0:
306,341,340365,2,0,P|369:352|414:321,1,89.9999972534181,8|0,0:0|0:0,0:0:0:0:
260,275,340710,6,0,P|197:245|86:307,1,179.999994506836,2|8,2:0|0:0,0:0:0:0:
228,345,341227,1,0,0:0:0:0:
228,345,341314,1,2,0:0:0:0:
336,263,341486,1,0,0:0:0:0:
336,263,341572,1,2,0:0:0:0:
217,125,341745,2,0,P|266:111|316:120,1,89.9999972534181,8|0,0:0|0:0,0:0:0:0:
338,136,342003,1,0,0:0:0:0:
365,150,342090,6,0,L|356:58,1,84.3750032186509,8|0,0:0|0:0,0:0:0:0:
335,59,342434,1,2,2:0:0:0:
170,194,342607,2,0,P|220:200|264:186,1,84.3750032186509,8|0,0:0|0:0,0:0:0:0:
268,175,342952,1,0,2:0:0:0:
84,50,343124,2,0,L|74:132,1,56.2500021457673
64,258,343469,6,0,L|78:192,1,56.2500021457673,2|0,2:0|0:0,0:0:0:0:
123,331,343814,2,0,L|128:358,2,28.1250010728836,8|0|0,0:0|0:0|0:0,0:0:0:0:
188,262,344158,2,0,L|193:234,2,28.1250010728836,8|0|0,0:0|0:0|0:0,0:0:0:0:
345,343,344503,2,0,P|314:294|288:284,1,84.3750032186509,8|0,0:0|0:0,0:0:0:0:
268,284,344848,5,2,2:0:0:0:
325,110,345021,1,2,2:0:0:0:
326,132,345107,1,2,2:0:0:0:
328,154,345193,1,2,2:0:0:0:
331,176,345279,1,2,2:0:0:0:
333,198,345365,1,2,2:0:0:0:
239,51,345538,2,0,L|244:16,2,28.1250010728836,2|0|2,2:0|0:0|2:0,0:0:0:0:
174,146,345883,2,0,B|145:156|145:156|96:144,1,56.2500021457673,8|0,0:0|0:0,0:0:0:0:
99,141,346141,1,2,2:0:0:0:
77,133,346227,5,2,2:0:0:0:
239,194,346400,1,2,2:0:0:0:
248,214,346486,1,2,2:0:0:0:
256,234,346572,1,2,2:0:0:0:
256,256,346658,1,2,2:0:0:0:
252,278,346745,1,2,2:0:0:0:
103,249,346917,2,0,L|183:254,1,56.2500021457673,8|0,0:0|0:0,0:0:0:0:
332,262,347262,2,0,P|329:208|303:162,1,84.3750032186509,8|0,0:0|0:0,0:0:0:0:
306,161,347607,5,2,2:0:0:0:
419,106,347779,1,2,2:0:0:0:
419,106,347865,1,2,2:0:0:0:
419,106,347952,2,0,L|411:176,1,56.2500021457673,8|0,0:0|0:0,0:0:0:0:
310,48,348296,2,0,L|306:14,2,28.1250010728836,2|0|2,2:0|0:0|2:0,0:0:0:0:
208,99,348641,2,0,L|128:92,1,56.2500021457673,8|0,0:0|0:0,0:0:0:0:
131,83,348900,1,2,2:0:0:0:
108,78,348986,2,0,L|40:70,1,56.2500021457673,2|0,2:0|0:0,0:0:0:0:
141,204,349331,2,0,L|135:164,2,28.1250010728836,8|0|0,0:0|0:0|0:0,0:0:0:0:
96,290,349676,6,0,B|147:309|192:283|192:283|234:301|273:280,1,168.750006437302,2|0,0:0|0:0,0:0:0:0:
256,192,350365,12,0,353124,0:0:0:0:
