osu file format v14

[General]
AudioFilename: audio.mp3
AudioLeadIn: 0
PreviewTime: 56811
Countdown: 0
SampleSet: Soft
StackLeniency: 0.5
Mode: 0
LetterboxInBreaks: 0
WidescreenStoryboard: 1

[Editor]
Bookmarks: 78694,86771,113939,119393,162610,168904
DistanceSpacing: 1.2
BeatDivisor: 4
GridSize: 8
TimelineZoom: 1.7

[Metadata]
Title:Toxic
TitleUnicode:Toxic
Artist:Britney Spears
ArtistUnicode:Britney Spears
Creator:schoolboy
Version:Normal
Source:
Tags:komore emilia estellia- Frakturehawkens shmiklak marvollo m_a_r_v_o_l_l_o djulus english pop
BeatmapID:2249352
BeatmapSetID:1061947

[Difficulty]
HPDrainRate:3
CircleSize:3.6
OverallDifficulty:4
ApproachRate:6
SliderMultiplier:1.3
SliderTickRate:1

[Events]
//Background and Video events
0,0,"britney.jpg",0,0
Video,-11,"y2mate.com - Britney Spears - Toxic (Official Music Video)_LOZuxwVk7TU_360p (1).mp4"
//Break Periods
2,70954,72641
2,77667,79774
2,128017,129704
2,134730,136837
2,141244,152992
2,158227,159704
//Storyboard Layer 0 (Background)
//Storyboard Layer 1 (Fail)
//Storyboard Layer 2 (Pass)
//Storyboard Layer 3 (Foreground)
//Storyboard Layer 4 (Overlay)
//Storyboard Sound Samples

[TimingPoints]
265,419.58041958042,4,2,1,43,1,0
15369,-100,4,2,1,55,0,0
53971,-100,4,2,3,33,0,0
54076,-100,4,2,1,33,0,0
56908,-100,4,2,1,60,0,0
57327,-100,4,2,1,69,0,0
80824,-100,4,2,1,74,0,0
85334,-100,4,2,1,55,0,0
109303,-100,4,2,1,5,0,0
109355,-100,4,2,1,55,0,0
111034,-100,4,2,3,33,0,0
111086,-100,4,2,1,33,0,0
113971,-100,4,2,1,60,0,0
114390,-100,4,2,1,69,0,0
152992,-100,4,2,1,55,0,0
158027,-100,4,2,1,69,0,0
174810,-100,4,2,3,69,0,0
174862,-100,4,2,1,69,0,0

[Colours]
Combo1 : 193,255,255
Combo2 : 204,234,172
Combo3 : 250,250,192
Combo4 : 254,205,253

[HitObjects]
23,309,265,6,0,P|64:262|127:261,1,130,2|8,1:2|0:0,0:0:0:0:
190,308,894,1,2,0:0:0:0:
258,270,1104,2,0,L|386:291,1,130,2|10,1:2|0:0,0:0:0:0:
489,159,1943,2,2,P|482:95|446:43,3,130,2|10|2|10,1:2|0:0|1:2|0:0,0:0:0:0:
294,3,3621,6,0,P|246:46|182:52,1,130,2|8,1:2|0:0,0:0:0:0:
111,19,4251,1,2,0:0:0:0:
62,79,4460,2,0,L|81:207,1,130,2|10,1:2|0:0,0:0:0:0:
3,342,5299,2,2,P|59:309|123:311,3,130,2|10|2|10,1:2|0:0|1:2|0:0,0:0:0:0:
246,213,6978,6,0,P|263:152|244:90,1,130,6|10,1:2|0:0,0:0:0:0:
181,44,7607,1,2,0:0:0:0:
251,9,7817,2,0,L|380:20,1,130,2|10,1:2|0:0,0:0:0:0:
457,5,8446,1,2,0:0:0:0:
503,66,8656,2,2,P|484:127|484:192,3,130,2|10|2|10,1:2|0:0|1:2|0:0,0:0:0:0:
494,347,10334,6,0,P|448:303|385:291,1,130,6|10,1:2|0:0,0:0:0:0:
326,342,10964,1,2,0:0:0:0:
259,297,11174,2,0,P|236:237|240:173,1,130,2|10,1:2|0:0,0:0:0:0:
291,113,11803,1,2,0:0:0:0:
234,59,12013,2,2,L|105:77,3,130,2|10|2|10,1:2|0:0|1:2|0:0,0:0:0:0:
105,77,14950,5,10,1:2:0:0:
19,207,15369,2,0,L|40:335,1,130,6|10,1:2|0:0,0:0:0:0:
112,367,15999,1,0,0:0:0:0:
160,305,16209,2,0,P|218:279|282:286,1,130,2|10,1:2|0:0,0:0:0:0:
419,358,17048,6,0,P|451:302|444:238,1,130,2|10,1:2|0:0,0:0:0:0:
387,185,17677,1,0,0:0:0:0:
438,125,17887,2,0,P|470:126|501:135,2,65,2|2|10,1:2|0:0|0:0,0:0:0:0:
312,30,18726,2,0,P|252:52|187:56,1,130,2|10,1:2|0:0,0:0:0:0:
117,20,19355,1,0,0:0:0:0:
50,62,19565,2,0,P|26:121|30:185,1,130,2|10,1:2|0:0,0:0:0:0:
124,310,20404,6,0,P|172:267|236:266,1,130,2|10,1:2|0:0,0:0:0:0:
296,316,21034,1,0,0:0:0:0:
357,268,21244,2,0,P|389:269|420:278,2,65,2|0|10,1:2|0:0|0:0,0:0:0:0:
313,204,21873,1,2,0:0:0:0:
362,143,22083,2,0,L|380:14,1,130,2|10,1:2|0:0,0:0:0:0:
239,82,22922,2,0,P|209:93|177:93,1,65,2|2,1:2|0:0,0:0:0:0:
113,138,23341,2,0,P|83:127|49:125,1,65,10|2,0:0|0:0,0:0:0:0:
2,187,23761,6,0,L|20:315,1,130,2|8,1:2|0:0,0:0:0:0:
84,358,24390,1,2,0:0:0:0:
155,324,24600,2,0,P|218:319|272:354,1,130,2|10,1:2|0:0,0:0:0:0:
397,260,25439,2,2,P|414:199|392:139,3,130,2|10|2|10,1:2|0:0|1:2|0:0,0:0:0:0:
302,19,27118,5,6,1:2:0:0:
302,19,27537,1,10,0:0:0:0:
248,76,27747,2,0,P|259:107|262:140,2,65,0|2|0,0:0|1:2|0:0,0:0:0:0:
186,29,28376,1,10,0:0:0:0:
64,126,28796,1,2,1:2:0:0:
64,126,29216,1,10,0:0:0:0:
117,179,29425,2,0,P|148:190|181:190,2,65,2|2|0,0:0|1:2|0:0,0:0:0:0:
58,230,30055,1,10,0:0:0:0:
165,341,30474,6,0,P|228:324|293:322,1,130,2|10,1:2|0:0,0:0:0:0:
356,275,31104,2,0,L|420:286,2,65,0|2|0,0:0|1:2|0:0,0:0:0:0:
300,220,31733,1,10,0:0:0:0:
420,121,32153,1,0,0:0:0:0:
306,14,32572,2,0,L|317:77,1,65,10|2,0:0|0:0,0:0:0:0:
256,129,32992,2,0,P|224:128|193:118,1,65,2|2,1:2|0:0,0:0:0:0:
130,72,33411,1,10,0:0:0:0:
180,219,33831,5,2,1:2:0:0:
180,219,34251,1,10,0:0:0:0:
237,271,34460,2,0,P|244:302|244:335,2,65,2|2|0,0:0|1:2|0:0,0:0:0:0:
291,214,35090,1,10,0:0:0:0:
196,90,35509,1,2,1:2:0:0:
196,90,35929,1,10,0:0:0:0:
263,51,36139,1,2,0:0:0:0:
326,93,36348,2,0,P|358:101|390:103,2,65,2|0|10,1:2|0:0|0:0,0:0:0:0:
211,200,37188,6,0,P|195:262|199:327,1,130,2|10,1:2|0:0,0:0:0:0:
267,366,37817,1,2,0:0:0:0:
337,332,38027,2,0,P|401:342|465:354,1,130,2|10,1:2|0:0,0:0:0:0:
507,203,38866,2,2,P|445:194|395:233,3,130,2|10|2|2,1:2|0:0|1:2|0:0,0:0:0:0:
274,134,40544,5,6,1:2:0:0:
274,134,40964,2,0,L|295:5,2,130,10|2|10,0:0|1:2|0:0,0:0:0:0:
132,201,42223,2,0,P|100:202|69:212,1,65,2|0,1:2|0:0,0:0:0:0:
8,163,42642,2,0,L|18:99,1,65,10|0,0:0|0:0,0:0:0:0:
37,22,43062,2,0,L|165:38,1,130,2|10,1:2|0:0,0:0:0:0:
319,67,43901,5,2,1:2:0:0:
319,66,44320,2,0,P|382:54|439:23,2,130,10|2|10,0:0|1:2|0:0,0:0:0:0:
271,128,45369,1,2,0:0:0:0:
314,192,45579,2,0,P|378:197|440:217,2,130,2|10|2,1:2|0:0|1:2,0:0:0:0:
186,281,46838,1,10,0:0:0:0:
185,281,47258,6,0,P|125:263|100:205,1,130,2|10,1:2|0:0,0:0:0:0:
35,163,47887,2,0,P|34:100|82:59,1,130,2|2,1:2|0:0,0:0:0:0:
135,2,48516,2,0,P|153:28|160:59,1,65,10|2,0:0|0:0,0:0:0:0:
222,106,48936,1,2,1:2:0:0:
371,61,49355,2,0,L|435:71,1,65,10|2,0:0|0:0,0:0:0:0:
487,128,49775,2,0,P|506:101|511:69,1,65,2|2,1:2|0:0,0:0:0:0:
471,3,50195,1,8,0:0:0:0:
411,146,50614,5,2,1:2:0:0:
484,283,51034,2,0,P|452:276|420:270,1,65,8|2,0:0|0:0,0:0:0:0:
367,328,51453,2,0,P|305:315|250:346,1,130,2|10,1:2|0:0,0:0:0:0:
120,257,52292,2,2,P|90:201|89:137,3,130,6|10|10|2,1:2|0:0|1:2|0:0,0:0:0:0:
256,192,53971,12,0,55649,0:0:0:0:
28,177,56908,5,2,0:0:0:0:
28,177,57327,2,0,P|42:80|62:55,1,130,6|10,1:3|0:0,0:0:0:0:
126,16,57957,1,2,0:0:0:0:
192,57,58167,2,0,L|321:42,1,130,2|10,1:3|0:0,0:0:0:0:
449,132,59006,2,0,P|481:182|479:266,1,130,2|10,1:3|0:0,0:0:0:0:
433,311,59635,1,2,1:3:0:0:
306,220,60055,2,0,L|317:150,2,65,2|10|2,0:0|0:0|0:0,0:0:0:0:
246,270,60684,5,6,1:3:0:0:
140,154,61104,1,10,0:0:0:0:
39,272,61523,1,2,1:3:0:0:
39,272,61943,2,0,L|51:353,1,65,10|0,0:0|0:0,0:0:0:0:
116,374,62362,2,0,P|158:333|228:328,1,130,2|10,1:3|0:0,0:0:0:0:
288,279,62992,2,0,L|366:293,1,65,2|2,0:0|1:3,0:0:0:0:
410,341,63411,2,0,P|447:329|485:330,2,65,2|10|2,0:0|0:0|0:0,0:0:0:0:
351,290,64041,6,0,P|341:227|355:164,1,130,6|10,1:3|0:0,0:0:0:0:
410,108,64670,1,2,0:0:0:0:
353,56,64880,2,0,L|224:76,1,130,2|10,1:3|0:0,0:0:0:0:
101,171,65719,2,0,P|173:174|202:228,1,130,2|10,1:3|0:0,0:0:0:0:
275,241,66348,2,0,P|271:302|206:333,1,130,2|2,1:3|0:0,0:0:0:0:
141,359,66978,2,0,L|61:353,1,65,10|2,0:0|0:0,0:0:0:0:
24,295,67397,6,0,L|5:156,1,130,6|10,1:3|0:0,0:0:0:0:
46,98,68027,1,2,0:0:0:0:
114,135,68237,2,0,P|173:149|234:96,1,130,2|10,1:3|0:0,0:0:0:0:
360,31,69076,2,0,P|401:68|386:161,1,130,6|10,1:3|0:0,0:0:0:0:
340,186,69705,1,2,0:0:0:0:
405,228,69915,2,0,P|436:221|469:220,1,65,6|2,1:2|0:0,0:0:0:0:
508,288,70334,2,0,L|495:357,1,65,14|0,0:0|0:0,0:0:0:0:
422,379,70754,5,4,1:3:0:0:
33,145,73691,5,10,0:0:0:0:
33,145,74111,2,0,L|185:123,1,130,2|10,1:2|0:0,0:0:0:0:
215,69,74740,1,2,0:0:0:0:
274,120,74950,2,0,P|299:177|294:259,1,130,2|10,1:2|0:0,0:0:0:0:
385,373,75789,2,0,P|452:363|472:289,1,130,2|10,1:2|0:0,0:0:0:0:
429,248,76418,1,2,0:0:0:0:
480,189,76628,2,0,L|492:104,1,65,2|0,1:2|0:0,0:0:0:0:
433,69,77048,2,0,P|465:49|510:52,2,65,10|2|4,0:0|0:0|1:3,0:0:0:0:
82,373,80824,6,0,P|148:348|214:347,1,130,2|10,1:2|0:0,0:0:0:0:
256,285,81453,1,2,0:0:0:0:
210,221,81663,2,0,L|192:81,1,130,2|10,1:2|0:0,0:0:0:0:
329,15,82502,2,2,P|391:37|456:32,3,130,6|10|2|10,1:2|0:0|1:2|0:0,0:0:0:0:
509,179,84181,5,6,1:2:0:0:
509,179,85439,1,10,0:0:0:0:
417,305,85859,2,0,P|343:279|281:308,1,130,6|10,1:2|0:0,0:0:0:0:
230,336,86488,1,2,0:0:0:0:
162,296,86698,2,0,P|134:226|146:162,1,130,2|10,1:2|0:0,0:0:0:0:
231,45,87537,6,0,P|315:68|363:60,1,130,2|10,1:2|0:0,0:0:0:0:
420,17,88167,1,2,0:0:0:0:
473,73,88376,2,0,L|454:201,1,130,2|10,1:2|0:0,0:0:0:0:
493,353,89216,2,0,P|462:310|373:311,1,130,2|10,1:2|0:0,0:0:0:0:
325,347,89845,1,2,0:0:0:0:
257,308,90055,2,0,L|127:321,1,130,2|10,1:2|0:0,0:0:0:0:
12,215,90894,6,0,L|141:201,1,130,2|10,1:2|0:0,0:0:0:0:
201,151,91523,1,2,0:0:0:0:
142,96,91733,2,0,P|113:83|81:80,2,65,2|2|10,1:2|0:0|0:0,0:0:0:0:
269,199,92572,1,2,1:2:0:0:
269,199,92992,2,0,P|289:141|284:61,1,130,10|2,0:0|1:2,0:0:0:0:
232,17,93621,1,0,0:0:0:0:
169,63,93831,2,0,L|96:55,1,65,10|2,0:0|0:0,0:0:0:0:
27,42,94251,6,0,L|47:192,1,130,2|10,1:2|0:0,0:0:0:0:
6,239,94880,1,2,0:0:0:0:
55,299,95090,2,0,P|112:259|172:269,1,130,2|10,1:2|0:0,0:0:0:0:
231,313,95719,1,2,0:0:0:0:
471,37,97607,5,6,1:2:0:0:
470,37,98027,2,0,P|454:65|448:96,1,65,10|2,0:0|0:0,0:0:0:0:
490,162,98446,2,0,P|426:156|371:189,1,130,2|10,1:2|0:0,0:0:0:0:
235,265,99285,2,0,L|161:251,1,65,2|0,1:2|0:0,0:0:0:0:
111,201,99705,2,0,L|38:211,1,65,10|0,0:0|0:0,0:0:0:0:
5,275,100125,2,0,P|13:211|-2:149,1,130,2|10,1:2|0:0,0:0:0:0:
96,28,100964,5,2,1:2:0:0:
96,28,101383,2,0,L|20:38,2,65,10|2|2,0:0|0:0|1:2,0:0:0:0:
218,125,102223,2,0,P|255:130|288:145,1,65,10|2,0:0|0:0,0:0:0:0:
353,114,102642,2,0,L|493:85,2,130,2|10|2,1:2|0:0|1:2,0:0:0:0:
276,249,103901,2,0,P|273:281|270:313,1,65,10|2,0:0|0:0,0:0:0:0:
324,369,104320,6,0,P|391:357|413:289,1,130,2|10,1:2|0:0,0:0:0:0:
480,262,104950,2,0,P|474:212|390:178,1,130,2|2,1:2|0:0,0:0:0:0:
359,115,105579,2,0,L|282:127,1,65,10|2,0:0|0:0,0:0:0:0:
242,71,105999,1,2,1:2:0:0:
242,71,106418,2,0,P|233:36|237:-1,2,65,10|2|2,0:0|0:0|1:2,0:0:0:0:
190,130,107048,1,2,0:0:0:0:
121,92,107258,2,0,L|44:104,1,65,8|0,0:0|0:0,0:0:0:0:
4,44,107677,6,0,P|12:108|20:172,1,130,2|8,1:2|0:0,0:0:0:0:
33,249,108306,1,2,0:0:0:0:
52,324,108516,2,0,P|106:290|169:297,1,130,2|10,1:2|0:0,0:0:0:0:
308,368,109355,2,2,P|372:358|436:349,3,130,6|10|2|10,1:2|0:0|1:2|0:0,0:0:0:0:
256,192,111034,12,0,112712,0:0:0:0:
244,56,113971,5,2,0:0:0:0:
244,56,114390,2,0,P|222:107|229:203,1,130,6|10,1:3|0:0,0:0:0:0:
274,238,115020,1,2,0:0:0:0:
350,224,115230,2,0,L|479:207,1,130,2|10,1:3|0:0,0:0:0:0:
509,361,116069,2,0,P|435:336|366:336,1,130,2|10,1:3|0:0,0:0:0:0:
312,365,116698,1,2,1:3:0:0:
181,278,117118,1,2,0:0:0:0:
118,323,117327,2,0,L|46:313,1,65,10|2,0:0|0:0,0:0:0:0:
6,376,117747,5,6,1:3:0:0:
73,235,118167,1,10,0:0:0:0:
11,91,118586,2,0,L|81:78,1,65,2|0,1:3|0:0,0:0:0:0:
136,30,119006,2,0,P|182:36|216:57,1,65,10|0,0:0|0:0,0:0:0:0:
257,94,119425,2,0,P|321:83|385:73,1,130,2|10,1:3|0:0,0:0:0:0:
451,31,120055,1,2,0:0:0:0:
500,91,120265,2,0,P|481:185|485:237,1,130,2|10,1:2|0:0,0:0:0:0:
505,372,121104,6,0,P|473:318|394:314,1,130,6|10,1:3|0:0,0:0:0:0:
344,349,121733,1,2,0:0:0:0:
284,298,121943,2,0,P|264:228|270:165,1,130,2|10,1:3|0:0,0:0:0:0:
147,70,122782,2,0,P|87:89|66:148,1,130,2|10,1:3|0:0,0:0:0:0:
16,208,123411,2,0,P|36:263|120:275,1,130,2|2,1:3|0:0,0:0:0:0:
163,328,124041,2,0,L|255:315,1,65,10|2,0:0|0:0,0:0:0:0:
289,271,124460,6,0,P|370:274|423:323,1,130,6|10,1:3|0:0,0:0:0:0:
474,341,125090,1,2,0:0:0:0:
505,269,125299,2,0,L|493:131,1,130,2|10,1:3|0:0,0:0:0:0:
359,58,126139,2,0,L|229:69,1,130,6|10,1:3|0:0,0:0:0:0:
161,30,126768,1,2,0:0:0:0:
97,74,126978,2,0,P|87:105|87:138,1,65,6|0,1:2|0:0,0:0:0:0:
28,189,127397,2,0,P|31:221|43:251,1,65,14|0,0:0|0:0,0:0:0:0:
104,300,127817,5,4,1:3:0:0:
225,40,130754,5,10,0:0:0:0:
225,40,131174,2,0,L|208:190,1,130,2|10,1:2|0:0,0:0:0:0:
267,222,131803,1,2,0:0:0:0:
330,176,132013,2,0,P|374:154|458:185,1,130,2|10,1:2|0:0,0:0:0:0:
437,330,132852,2,0,P|393:352|309:321,1,130,2|10,1:2|0:0,0:0:0:0:
252,289,133481,1,2,0:0:0:0:
187,332,133691,2,0,P|126:342|98:355,1,65,2|0,1:2|0:0,0:0:0:0:
48,366,134111,2,0,P|35:338|34:296,2,65,2|2|6,0:0|0:0|1:3,0:0:0:0:
405,294,137887,6,0,L|277:312,1,130,2|10,1:2|0:0,0:0:0:0:
207,348,138516,1,2,0:0:0:0:
146,299,138726,2,0,P|136:235|154:173,1,130,2|10,1:2|0:0,0:0:0:0:
111,108,139355,1,2,0:0:0:0:
178,67,139565,2,2,L|306:86,2,130,6|10|2,1:2|0:0|1:2,0:0:0:0:
170,299,154670,6,0,P|171:234|153:171,1,130,6|8,1:3|0:0,0:0:0:0:
96,117,155299,2,0,P|161:186|254:177,1,195,2|8,0:0|0:0,0:0:0:0:
385,91,156348,2,0,L|409:226,1,130,4|0,1:3|0:0,0:0:0:0:
466,270,156978,2,0,B|370:244|387:332|284:309,1,195,4|2,1:3|0:0,0:0:0:0:
149,229,158027,5,2,0:0:0:0:
146,230,160754,6,0,L|130:143,2,65,6|14|6,0:0|0:0|0:0,0:0:0:0:
90,284,161383,1,6,1:3:0:0:
90,284,161803,2,0,P|154:284|196:346,1,130,10|2,0:0|1:3,0:0:0:0:
264,363,162432,1,0,0:0:0:0:
328,319,162642,2,0,L|405:310,1,65,10|2,0:0|0:0,0:0:0:0:
454,359,163062,2,0,P|433:287|450:210,1,130,2|10,1:3|0:0,0:0:0:0:
489,173,163691,1,2,1:2:0:0:
353,95,164111,2,0,L|277:104,2,65,2|10|2,1:3|0:0|0:0,0:0:0:0:
404,36,164740,6,0,L|390:165,1,130,6|10,1:3|0:0,0:0:0:0:
330,215,165369,1,2,0:0:0:0:
274,160,165579,2,0,P|205:157|156:214,1,130,2|10,1:3|0:0,0:0:0:0:
15,144,166418,2,0,L|37:279,1,130,2|10,1:3|0:0,0:0:0:0:
16,348,167048,2,0,P|51:351|113:274,1,130,2|2,1:3|0:0,0:0:0:0:
188,269,167677,2,0,P|218:278|241:301,1,65,10|2,0:0|0:0,0:0:0:0:
298,361,168097,6,0,L|427:346,1,130,6|10,1:2|0:0,0:0:0:0:
485,294,168726,1,2,0:0:0:0:
439,230,168936,2,0,P|446:165|453:100,1,130,2|10,1:3|0:0,0:0:0:0:
323,14,169775,2,0,P|315:78|308:143,1,130,6|10,1:3|0:0,0:0:0:0:
252,198,170404,1,2,1:2:0:0:
184,158,170614,2,0,P|150:154|110:169,1,65,2|2,1:3|1:2,0:0:0:0:
61,213,171034,2,0,P|44:176|45:141,1,65,10|2,0:0|1:2,0:0:0:0:
78,82,171453,6,0,L|221:58,1,130,6|10,1:3|0:0,0:0:0:0:
268,12,172083,1,2,0:0:0:0:
325,64,172292,2,0,P|353:110|351:207,1,130,2|10,1:3|0:0,0:0:0:0:
298,329,173132,2,0,P|249:301|157:303,1,130,2|10,1:3|0:0,0:0:0:0:
107,334,173761,1,0,0:0:0:0:
26,200,174181,2,0,L|39:117,1,65,2|10,0:0|0:0,0:0:0:0:
10,62,174600,1,2,0:0:0:0:
65,6,174810,5,10,1:3:0:0:
181,110,175230,2,0,P|228:101|256:74,1,65,10|0,0:0|0:0,0:0:0:0:
294,34,175649,2,0,P|359:42|397:107,1,130,2|10,1:3|0:0,0:0:0:0:
463,127,176278,1,0,0:0:0:0:
422,194,176488,2,0,L|406:340,1,130,2|10,1:3|0:0,0:0:0:0:
349,375,177118,1,2,0:0:0:0:
287,327,177327,1,2,1:3:0:0:
345,182,177747,1,10,0:0:0:0:
261,50,178167,6,0,P|195:54|150:128,1,130,6|10,1:3|0:0,0:0:0:0:
80,123,178796,1,2,0:0:0:0:
136,177,179006,2,0,L|124:322,1,130,2|10,1:3|0:0,0:0:0:0:
265,376,179845,2,0,P|325:341|397:357,1,130,2|10,1:3|0:0,0:0:0:0:
455,320,180474,2,0,P|488:259|464:190,1,130,2|2,1:3|0:0,0:0:0:0:
409,158,181104,2,0,P|367:177|323:176,1,65,10|2,0:0|0:0,0:0:0:0:
288,229,181523,6,0,L|131:213,1,130,6|10,1:3|0:0,0:0:0:0:
100,267,182153,1,2,0:0:0:0:
42,214,182362,2,2,L|56:84,1,130,2|10,1:3|0:0,0:0:0:0:
202,29,183202,2,0,L|331:42,1,130,6|10,1:3|0:0,0:0:0:0:
401,6,183831,1,2,0:0:0:0:
458,59,184041,2,0,P|472:87|476:126,1,65,6|2,1:2|0:0,0:0:0:0:
450,193,184460,2,0,L|441:282,1,65,14|0,0:0|0:0,0:0:0:0:
476,329,184880,5,6,1:2:0:0:
326,374,185299,2,0,P|278:361|240:368,1,65,10|2,0:0|0:0,0:0:0:0:
197,319,185719,2,0,L|121:329,1,65,2|2,1:2|0:0,0:0:0:0:
64,366,186139,1,10,0:2:0:0:
23,215,186558,1,2,1:2:0:0:
23,215,186978,2,0,L|41:83,1,130,10|2,0:0|0:0,0:0:0:0:
90,26,187607,1,2,0:0:0:0:
148,78,187817,2,0,P|203:70|227:46,1,65,10|2,0:0|0:0,0:0:0:0:
272,19,188237,5,6,1:2:0:0:
380,130,188656,2,0,L|367:208,1,65,10|2,0:0|0:0,0:0:0:0:
424,249,189076,1,2,1:2:0:0:
289,327,189495,2,0,P|277:297|284:244,1,65,10|2,0:0|0:0,0:0:0:0:
214,218,189915,2,0,L|70:239,1,130,6|10,1:2|0:0,0:0:0:0:
7,246,190544,1,2,0:0:0:0:
29,91,190964,2,0,P|43:119|48:151,2,65,2|10|2,0:0|0:0|0:0,0:0:0:0:
72,26,191593,6,0,P|124:37|158:119,1,130,2|10,1:2|0:0,0:0:0:0:
308,148,192432,2,0,P|372:138|436:129,2,130,2|10|2,1:2|0:0|1:2,0:0:0:0:
180,239,193691,2,0,P|167:268|165:300,1,65,10|0,0:0|0:0,0:0:0:0:
203,368,194111,2,0,P|155:325|91:323,1,130,2|10,1:2|0:0,0:0:0:0:
26,366,194740,1,2,0:0:0:0:
16,288,194950,6,0,L|38:142,1,130,2|10,1:2|0:0,0:0:0:0:
88,102,195579,1,2,0:0:0:0:
148,150,195789,2,0,P|221:152|270:104,1,130,2|10,1:2|0:0,0:0:0:0:
398,40,196628,2,2,P|444:82|447:146,2,130,2|2|2,0:0|0:0|0:0,0:0:0:0:
319,42,197677,2,0,L|339:113,1,65,0|2,0:0|0:0,0:0:0:0:
