osu file format v14

[General]
AudioFilename: audio.mp3
AudioLeadIn: 0
PreviewTime: 56811
Countdown: 0
SampleSet: Soft
StackLeniency: 0.7
Mode: 0
LetterboxInBreaks: 0
WidescreenStoryboard: 1

[Editor]
Bookmarks: 129044
DistanceSpacing: 0.9
BeatDivisor: 4
GridSize: 8
TimelineZoom: 1.7

[Metadata]
Title:Toxic
TitleUnicode:Toxic
Artist:Britney Spears
ArtistUnicode:Britney Spears
Creator:schoolboy
Version:Insane
Source:
Tags:komore emilia estellia- Frakturehawkens shmiklak marvollo m_a_r_v_o_l_l_o djulus english pop
BeatmapID:2251927
BeatmapSetID:1061947

[Difficulty]
HPDrainRate:5
CircleSize:5
OverallDifficulty:6.9
ApproachRate:8.3
SliderMultiplier:1.7
SliderTickRate:1

[Events]
//Background and Video events
0,0,"britney.jpg",0,0
Video,-11,"y2mate.com - Britney Spears - Toxic (Official Music Video)_LOZuxwVk7TU_360p (1).mp4"
//Break Periods
2,141244,151313
2,158227,160050
//Storyboard Layer 0 (Background)
//Storyboard Layer 1 (Fail)
//Storyboard Layer 2 (Pass)
//Storyboard Layer 3 (Foreground)
//Storyboard Layer 4 (Overlay)
//Storyboard Sound Samples

[TimingPoints]
265,419.58041958042,4,2,1,43,1,0
265,-133.333333333333,4,2,1,43,0,0
6978,-111.111111111111,4,2,1,43,0,0
15369,-100,4,2,1,55,0,0
53971,-200,4,2,3,33,0,0
56908,-100,4,2,1,60,0,0
57327,-83.3333333333333,4,2,1,69,0,0
70754,-133.333333333333,4,2,1,69,0,0
80824,-100,4,2,1,74,0,0
85334,-100,4,2,1,55,0,0
96348,-142.857142857143,4,2,1,55,0,0
96768,-100,4,2,1,55,0,0
97188,-142.857142857143,4,2,1,55,0,0
97607,-100,4,2,1,55,0,0
109303,-100,4,2,1,5,0,0
109355,-100,4,2,1,55,0,0
111034,-200,4,2,3,33,0,0
113971,-100,4,2,1,60,0,0
114390,-83.3333333333333,4,2,1,69,0,0
128027,-133.333333333333,4,2,1,69,0,0
137887,-100,4,2,1,69,0,0
152992,-133.333333333333,4,2,1,55,0,0
160754,-83.3333333333333,4,2,1,69,0,0
174810,-66.6666666666667,4,2,3,69,0,0
174862,-83.3333333333333,4,2,1,69,0,0
185090,-133.333333333333,4,2,1,69,0,0
191593,-100,4,2,1,69,0,0

[Colours]
Combo1 : 193,255,255
Combo2 : 204,234,172
Combo3 : 250,250,192
Combo4 : 254,205,253

[HitObjects]
108,308,265,5,2,1:2:0:0:
108,308,474,1,0,0:0:0:0:
158,259,684,2,0,L|148:195,1,63.7500024318696,8|2,0:0|0:0,0:0:0:0:
140,129,1104,1,2,1:2:0:0:
140,129,1418,1,2,0:0:0:0:
140,129,1523,2,0,L|216:120,1,63.7500024318696,10|2,0:0|0:0,0:0:0:0:
273,121,1943,6,2,B|335:128|335:128|338:130|338:130|402:139,2,127.500004863739,2|10|2,1:2|0:0|1:2,0:0:0:0:
227,174,2992,1,0,0:0:0:0:
265,232,3202,2,0,L|271:308,1,63.7500024318696,10|0,0:0|0:0,0:0:0:0:
221,346,3621,5,2,1:2:0:0:
221,346,3831,1,0,0:0:0:0:
287,368,4041,2,0,L|364:360,1,63.7500024318696,8|2,0:0|0:0,0:0:0:0:
425,360,4460,1,2,1:2:0:0:
425,360,4775,1,2,0:0:0:0:
425,360,4880,2,0,L|418:291,1,63.7500024318696,10|2,0:0|0:0,0:0:0:0:
409,226,5299,6,2,B|410:218|410:218|449:199|498:212|515:255,2,127.500004863739,2|10|2,1:2|0:0|1:2,0:0:0:0:
347,259,6348,1,0,0:0:0:0:
286,223,6558,1,10,0:0:0:0:
286,223,6978,6,0,L|195:233,1,76.4999976654053,6|2,1:2|0:0,0:0:0:0:
141,242,7397,2,0,L|80:236,1,38.2499988327027,10|0,0:0|0:0,0:0:0:0:
76,215,7607,2,0,L|15:209,1,38.2499988327027,2|0,0:0|0:0,0:0:0:0:
10,236,7817,1,2,1:2:0:0:
10,236,8132,1,2,0:0:0:0:
10,236,8237,2,0,L|4:184,1,38.2499988327027,10|0,0:0|0:0,0:0:0:0:
45,141,8446,1,2,0:0:0:0:
6,83,8656,6,2,P|46:104|97:29,2,152.999995330811,2|10|2,1:2|0:0|1:2,0:0:0:0:
31,18,9705,1,2,0:0:0:0:
31,18,9810,1,0,0:0:0:0:
31,18,9915,1,10,0:0:0:0:
159,114,10125,1,2,0:0:0:0:
288,9,10334,6,0,L|301:92,1,76.4999976654053,6|2,1:2|0:0,0:0:0:0:
313,152,10754,2,0,L|307:209,1,38.2499988327027,10|0,0:0|0:0,0:0:0:0:
328,218,10964,2,0,L|322:275,1,38.2499988327027,2|0,0:0|0:0,0:0:0:0:
304,285,11174,1,2,1:2:0:0:
304,285,11488,1,2,0:0:0:0:
304,285,11593,2,0,L|352:277,1,38.2499988327027,10|0,0:0|0:0,0:0:0:0:
402,310,11803,1,2,0:0:0:0:
456,267,12013,6,2,P|471:232|373:174,2,152.999995330811,2|10|2,1:2|0:0|1:2,0:0:0:0:
345,377,13167,1,2,0:0:0:0:
345,377,13271,2,0,L|256:366,1,76.4999976654053,10|2,0:0|0:0,0:0:0:0:
41,150,14950,5,10,1:2:0:0:
41,150,15160,1,2,1:2:0:0:
41,150,15369,6,0,P|97:161|101:272,1,170,6|10,1:2|0:0,0:0:0:0:
60,316,15999,1,0,0:0:0:0:
127,352,16209,2,0,L|288:335,1,127.5,2|2,1:2|0:0,0:0:0:0:
253,338,16628,1,10,0:0:0:0:
320,373,16838,1,2,0:0:0:0:
388,338,17048,6,0,P|416:294|323:254,1,170,2|10,1:2|0:0,0:0:0:0:
266,210,17677,1,0,0:0:0:0:
205,257,17887,2,0,L|62:248,1,127.5,2|0,1:2|0:0,0:0:0:0:
77,248,18306,1,10,0:0:0:0:
25,192,18516,1,2,0:0:0:0:
83,141,18726,6,0,B|133:155|167:134|161:122|204:102|246:122,1,170,2|10,1:2|0:0,0:0:0:0:
312,159,19355,1,0,0:0:0:0:
372,111,19565,2,0,L|357:9,1,85,2|0,1:2|0:0,0:0:0:0:
359,26,19880,1,2,0:0:0:0:
359,26,19985,2,0,L|374:133,1,85,10|2,0:0|0:0,0:0:0:0:
373,184,20404,6,0,L|193:170,1,170,2|10,1:2|0:0,0:0:0:0:
140,127,21034,1,0,0:0:0:0:
85,180,21244,2,0,L|99:318,1,127.5,2|2,1:2|0:0,0:0:0:0:
97,306,21663,1,10,0:0:0:0:
159,354,21873,1,2,0:0:0:0:
212,299,22083,6,0,P|270:300|337:387,1,170,2|10,1:2|0:0,0:0:0:0:
402,342,22712,1,2,0:0:0:0:
468,379,22922,2,0,L|486:245,1,127.5,2|0,1:2|0:0,0:0:0:0:
484,252,23341,1,10,0:0:0:0:
433,196,23551,1,2,0:0:0:0:
490,144,23761,5,2,1:2:0:0:
490,144,23971,1,2,0:0:0:0:
428,97,24181,1,8,0:0:0:0:
390,100,24285,1,2,0:0:0:0:
351,103,24390,1,2,0:0:0:0:
312,107,24495,1,2,0:0:0:0:
274,112,24600,1,2,1:2:0:0:
176,51,24915,1,2,0:0:0:0:
144,73,25020,1,10,0:0:0:0:
148,111,25125,1,0,0:0:0:0:
154,148,25230,1,2,0:0:0:0:
164,223,25439,6,2,B|80:212|80:212|76:214|76:214|-4:205,2,170,2|10|2,1:2|0:0|1:2,0:0:0:0:
222,272,26488,1,2,0:0:0:0:
284,227,26698,2,0,L|268:112,1,85,10|0,0:0|0:0,0:0:0:0:
256,67,27118,5,6,1:2:0:0:
256,67,27537,1,10,0:0:0:0:
256,67,27747,1,0,0:0:0:0:
181,82,27957,1,2,1:2:0:0:
132,141,28167,1,0,0:0:0:0:
132,141,28271,1,2,0:0:0:0:
132,141,28376,1,10,0:0:0:0:
56,156,28586,1,2,0:0:0:0:
114,218,28796,5,2,1:2:0:0:
114,218,29216,1,10,0:0:0:0:
114,218,29425,1,2,0:0:0:0:
183,261,29635,2,0,L|273:248,1,85,2|0,1:2|0:0,0:0:0:0:
267,248,29950,1,2,0:0:0:0:
267,248,30055,2,0,L|177:261,1,85,10|0,0:2|0:0,0:0:0:0:
137,319,30474,5,2,1:2:0:0:
137,319,30894,1,10,0:0:0:0:
137,319,31104,1,0,0:0:0:0:
68,285,31313,1,2,1:2:0:0:
94,213,31523,1,0,0:0:0:0:
94,213,31628,1,2,0:0:0:0:
94,213,31733,1,10,0:0:0:0:
20,177,31943,1,2,0:0:0:0:
48,105,32153,5,0,0:0:0:0:
48,105,32572,1,10,0:0:0:0:
122,89,32782,1,2,0:0:0:0:
267,120,32992,1,2,1:2:0:0:
193,136,33202,1,2,0:0:0:0:
193,136,33306,1,2,0:0:0:0:
193,136,33411,1,10,0:0:0:0:
164,206,33621,1,0,0:0:0:0:
209,271,33831,5,2,1:2:0:0:
209,271,34251,1,10,0:0:0:0:
272,228,34460,1,2,0:0:0:0:
336,269,34670,1,2,1:2:0:0:
396,222,34880,1,0,0:0:0:0:
396,222,34985,1,2,0:0:0:0:
396,222,35090,1,10,0:0:0:0:
455,269,35299,1,2,0:0:0:0:
395,317,35509,5,2,1:2:0:0:
328,178,35929,1,10,0:0:0:0:
369,113,36139,1,2,0:0:0:0:
304,72,36348,1,2,1:2:0:0:
270,140,36558,1,0,0:0:0:0:
270,140,36663,1,2,0:0:0:0:
270,140,36768,1,10,0:0:0:0:
194,151,36978,1,2,0:0:0:0:
119,166,37188,5,2,1:2:0:0:
106,90,37397,1,2,0:0:0:0:
49,141,37607,1,10,0:0:0:0:
42,178,37712,1,2,0:0:0:0:
34,215,37817,1,2,0:0:0:0:
26,252,37922,1,2,0:0:0:0:
19,289,38027,1,2,1:2:0:0:
106,362,38341,1,2,0:0:0:0:
135,337,38446,1,10,0:0:0:0:
173,341,38551,1,2,0:0:0:0:
211,345,38656,1,2,0:0:0:0:
286,355,38866,6,2,P|314:346|323:221,2,170,2|10|2,1:2|0:0|1:2,0:0:0:0:
216,323,39915,1,2,0:0:0:0:
147,356,40125,1,2,0:0:0:0:
147,356,40544,6,0,L|48:342,1,85,6|2,1:2|0:0,0:0:0:0:
18,281,40964,1,10,0:0:0:0:
79,235,41174,1,2,0:0:0:0:
235,293,41383,2,0,L|136:279,1,85,2|2,1:2|0:0,0:0:0:0:
150,281,41698,1,2,0:0:0:0:
150,281,41803,2,0,L|167:165,1,85,10|2,0:0|0:0,0:0:0:0:
178,121,42223,6,2,B|253:106|234:145|310:130,1,127.5,2|0,1:2|3:0,0:0:0:0:
302,131,42642,2,2,B|377:116|358:155|434:140,1,127.5,10|0,0:2|3:0,0:0:0:0:
426,141,43062,2,2,P|446:82|389:75,1,127.5,2|0,1:2|0:0,0:0:0:0:
396,69,43481,1,10,0:0:0:0:
330,39,43691,1,2,0:0:0:0:
265,80,43901,5,2,1:2:0:0:
188,74,44111,1,2,0:0:0:0:
49,145,44320,2,0,L|140:134,1,85,10|2,0:0|0:0,0:0:0:0:
266,218,44740,2,0,L|181:228,1,85,2|0,1:2|0:0,0:0:0:0:
181,228,45055,1,2,0:0:0:0:
181,228,45160,1,10,0:0:0:0:
127,281,45369,1,2,0:0:0:0:
60,243,45579,6,2,L|41:157,1,85,2|0,1:2|3:0,0:0:0:0:
105,116,45999,2,2,B|245:129,1,127.5,10|0,0:0|3:0,0:0:0:0:
231,127,46418,2,2,P|293:83|276:46,1,127.5,2|0,1:2|0:0,0:0:0:0:
278,48,46838,1,10,0:0:0:0:
205,5,47048,1,2,0:0:0:0:
278,48,47258,6,0,B|329:60|366:41|358:26|401:11|441:30,1,170,2|10,1:2|0:0,0:0:0:0:
497,81,47887,2,0,L|467:252,1,170,2|2,1:2|0:0,0:0:0:0:
467,248,48411,1,2,0:0:0:0:
467,248,48516,1,10,0:0:0:0:
428,314,48726,1,2,0:0:0:0:
363,283,48936,5,2,1:2:0:0:
363,283,49355,1,10,0:0:0:0:
338,210,49565,1,2,0:0:0:0:
247,299,49775,1,2,1:2:0:0:
222,372,49985,1,2,0:0:0:0:
222,372,50090,1,2,0:0:0:0:
222,372,50195,1,8,0:0:0:0:
105,209,50405,1,0,0:0:0:0:
46,258,50614,5,2,1:2:0:0:
117,285,50824,1,2,0:0:0:0:
105,209,51034,1,8,0:0:0:0:
99,171,51139,1,2,0:0:0:0:
94,133,51244,1,2,0:0:0:0:
88,95,51348,1,2,0:0:0:0:
83,57,51453,1,2,1:2:0:0:
187,8,51768,1,2,0:0:0:0:
218,30,51873,1,10,0:0:0:0:
256,26,51978,1,0,0:0:0:0:
294,23,52083,1,2,0:0:0:0:
369,14,52292,6,2,P|439:56|448:137,2,170,6|10|2,1:2|0:0|1:2,0:0:0:0:
315,68,53341,1,2,0:0:0:0:
360,129,53551,2,0,L|369:222,1,85,10|0,0:0|0:0,0:0:0:0:
378,290,53971,6,0,L|432:300,7,42.5,8|0|0|0|0|0|0|0,0:3|0:0|0:0|0:0|0:0|0:0|0:0|0:0,0:0:0:0:
470,346,55649,2,0,L|511:353,5,42.5,0|0|0|0|0|0,0:0|0:0|0:0|0:0|0:0|0:0,0:0:0:0:
406,373,56908,6,0,L|297:382,1,85,2|2,0:0|0:0,0:0:0:0:
214,330,57327,6,0,P|198:265|217:173,1,152.999995330811,6|0,1:3|0:0,0:0:0:0:
206,99,57747,2,0,P|157:102|142:148,1,101.999996887207,10|2,0:0|0:0,0:0:0:0:
327,227,58167,2,0,B|412:231|398:192|482:197,1,152.999995330811,2|0,1:3|0:0,0:0:0:0:
474,196,58586,2,0,L|464:84,1,101.999996887207,10|0,0:0|0:0,0:0:0:0:
501,373,59006,6,0,P|461:315|321:316,1,203.999993774414,2|10,1:3|0:0,0:0:0:0:
174,194,59635,2,0,P|221:214|280:212,1,101.999996887207,2|0,1:3|0:0,0:0:0:0:
200,316,60055,2,0,P|168:330|142:353,1,50.9999984436036,2|0,0:0|0:0,0:0:0:0:
65,284,60265,1,10,0:0:0:0:
65,284,60474,2,0,P|50:241|47:214,1,50.9999984436036,2|0,0:0|0:0,0:0:0:0:
163,59,60684,5,6,1:3:0:0:
163,59,61104,1,10,0:0:0:0:
79,100,61313,1,2,0:0:0:0:
254,154,61523,2,0,L|384:137,1,101.999996887207,2|0,1:3|0:0,0:0:0:0:
163,59,61943,1,10,0:0:0:0:
141,194,62153,1,2,0:0:0:0:
273,233,62362,2,0,L|403:216,1,101.999996887207,2|0,1:3|0:0,0:0:0:0:
163,59,62782,1,10,0:0:0:0:
32,252,62992,1,2,0:0:0:0:
273,233,63202,2,0,L|295:120,1,101.999996887207,2|2,1:3|0:0,0:0:0:0:
309,60,63621,1,10,0:0:0:0:
309,60,63831,1,2,0:0:0:0:
502,151,64041,6,0,P|442:136|389:215,1,152.999995330811,6|0,1:3|0:0,0:0:0:0:
388,199,64460,2,0,P|364:155|366:103,1,101.999996887207,10|2,0:0|0:0,0:0:0:0:
269,294,64880,2,0,B|193:281|200:323|119:315,1,152.999995330811,2|0,1:3|0:0,0:0:0:0:
51,279,65299,2,0,P|69:227|110:247,1,101.999996887207,10|0,0:0|0:0,0:0:0:0:
150,113,65719,6,0,L|117:328,1,203.999993774414,2|10,1:3|0:0,0:0:0:0:
282,384,66348,2,0,P|266:327|192:337,1,101.999996887207,2|0,1:3|0:0,0:0:0:0:
354,213,66768,2,0,L|361:278,1,50.9999984436036,2|0,0:0|0:0,0:0:0:0:
432,202,66978,1,10,0:0:0:0:
432,202,67188,2,0,L|439:267,1,50.9999984436036,2|0,0:0|0:0,0:0:0:0:
412,330,67397,5,6,1:3:0:0:
382,135,67607,1,0,0:0:0:0:
412,330,67817,1,10,0:0:0:0:
388,370,67922,1,2,0:0:0:0:
343,384,68027,1,2,0:0:0:0:
298,372,68132,1,2,0:0:0:0:
265,340,68237,2,0,L|160:350,1,101.999996887207,2|0,1:3|0:0,0:0:0:0:
53,287,68656,1,10,0:0:0:0:
155,153,68866,1,2,0:0:0:0:
155,153,68971,1,2,0:0:0:0:
155,153,69076,6,0,L|137:257,1,101.999996887207,6|0,1:3|0:0,0:0:0:0:
44,114,69495,1,10,0:0:0:0:
272,164,69705,1,2,0:0:0:0:
44,114,69915,1,6,1:2:0:0:
152,68,70125,1,2,0:0:0:0:
0,246,70334,2,0,L|124:232,1,101.999996887207,14|0,0:0|0:0,0:0:0:0:
188,226,70754,5,4,1:3:0:0:
188,226,70964,2,0,L|176:300,1,63.7500024318696,2|10,0:2|0:0,0:0:0:0:
273,223,71383,1,2,0:0:0:0:
273,223,71593,2,0,L|261:297,1,63.7500024318696,2|0,1:2|0:0,0:0:0:0:
358,218,72013,2,0,L|346:292,1,63.7500024318696,10|0,0:0|0:0,0:0:0:0:
436,281,72432,6,0,B|446:217|446:217|448:215|448:215|461:133,1,127.500004863739,2|10,1:2|0:0,0:0:0:0:
436,281,73062,1,2,1:2:0:0:
336,80,73481,1,2,0:0:0:0:
415,65,73691,2,0,L|489:54,1,63.7500024318696,10|2,0:0|0:0,0:0:0:0:
246,33,74111,5,2,1:2:0:0:
246,33,74530,1,10,0:0:0:0:
220,102,74740,1,2,0:0:0:0:
246,33,74950,1,2,1:2:0:0:
246,33,75369,1,10,0:0:0:0:
220,102,75579,1,2,0:0:0:0:
246,33,75789,1,2,1:2:0:0:
246,33,76209,1,10,0:0:0:0:
220,102,76419,1,2,0:0:0:0:
246,33,76629,1,2,1:2:0:0:
105,113,76838,6,0,L|45:121,3,31.8750012159348,0|2|10|0,0:0|0:0|0:0|0:0,0:0:0:0:
8,135,77258,2,0,L|17:177,1,31.8750012159348,2|2,0:0|0:0,0:0:0:0:
31,240,77467,6,0,P|75:234|117:314,1,127.500004863739,4|10,1:3|0:0,0:0:0:0:
181,343,78097,1,0,0:0:0:0:
246,297,78306,2,0,L|267:212,1,63.7500024318696,2|2,1:2|0:0,0:0:0:0:
151,153,78726,2,0,L|236:174,1,63.7500024318696,10|2,0:2|0:0,0:0:0:0:
304,79,79146,2,0,L|283:164,1,63.7500024318696,2|2,1:2|0:0,0:0:0:0:
398,223,79565,1,10,0:0:0:0:
398,223,79775,2,0,L|312:201,1,63.7500024318696,2|0,0:0|2:0,0:0:0:0:
218,367,80195,5,2,0:0:0:0:
218,367,80404,1,10,0:0:0:0:
218,367,80614,1,2,0:0:0:0:
153,325,80824,5,2,1:2:0:0:
89,367,81034,1,2,0:0:0:0:
27,321,81244,1,10,0:0:0:0:
35,283,81348,1,2,0:0:0:0:
43,245,81453,1,2,0:0:0:0:
51,207,81558,1,2,0:0:0:0:
59,169,81663,1,2,1:2:0:0:
165,211,81978,1,2,0:0:0:0:
197,189,82083,1,10,0:0:0:0:
205,151,82187,1,2,0:0:0:0:
213,113,82292,1,2,0:0:0:0:
221,75,82397,1,2,0:0:0:0:
229,37,82502,6,2,B|148:57|148:57|144:60|144:60|38:86,2,170,6|10|2,1:2|0:0|1:2,0:0:0:0:
293,77,83551,1,2,0:0:0:0:
358,37,83761,2,0,L|461:25,1,85,10|2,0:0|0:0,0:0:0:0:
506,69,84181,5,6,1:2:0:0:
391,367,85334,1,2,0:0:0:0:
391,367,85439,2,0,P|392:325|416:264,1,85,10|2,0:0|0:0,0:0:0:0:
449,221,85859,6,0,P|380:271|299:248,1,170,6|10,1:2|0:0,0:0:0:0:
244,201,86488,1,2,0:0:0:0:
189,254,86698,2,0,L|51:243,1,127.5,2|2,1:2|0:0,0:0:0:0:
61,243,87118,1,10,0:0:0:0:
12,301,87327,1,0,0:0:0:0:
77,340,87537,6,0,B|127:326|161:347|155:359|198:379|240:359,1,170,2|10,1:2|0:0,0:0:0:0:
298,310,88167,1,2,0:0:0:0:
355,359,88376,2,0,P|421:372|473:309,1,127.5,2|2,1:2|0:0,0:0:0:0:
464,336,88796,1,10,0:0:0:0:
418,275,89006,1,0,0:0:0:0:
468,217,89216,6,0,L|451:42,1,170,2|10,1:2|0:0,0:0:0:0:
384,11,89845,1,2,0:0:0:0:
337,71,90055,2,0,P|279:82|217:24,1,127.5,2|2,1:2|0:0,0:0:0:0:
225,44,90474,1,10,0:0:0:0:
159,6,90684,1,0,0:0:0:0:
100,55,90894,6,0,L|116:224,1,170,2|10,1:2|0:0,0:0:0:0:
61,278,91523,1,2,0:0:0:0:
107,338,91733,2,0,P|163:331|229:390,1,127.5,2|2,1:2|0:0,0:0:0:0:
219,369,92153,1,10,0:0:0:0:
282,326,92362,1,0,0:0:0:0:
344,370,92572,5,2,1:2:0:0:
409,330,92782,2,0,L|424:234,1,85,2|10,0:0|0:0,0:0:0:0:
368,191,93202,1,2,0:0:0:0:
425,140,93411,2,0,L|410:44,1,85,2|2,1:2|0:0,0:0:0:0:
411,56,93726,1,2,0:0:0:0:
411,56,93831,2,0,L|429:175,1,85,10|2,0:0|0:0,0:0:0:0:
368,191,94251,5,2,1:2:0:0:
291,186,94460,1,2,0:0:0:0:
242,126,94670,1,10,0:0:0:0:
204,131,94775,1,2,0:0:0:0:
166,136,94880,1,2,0:0:0:0:
128,141,94985,1,2,0:0:0:0:
90,147,95090,1,2,1:2:0:0:
0,218,95404,1,2,0:0:0:0:
29,242,95509,1,10,0:0:0:0:
24,279,95614,1,2,0:0:0:0:
16,316,95719,1,2,0:0:0:0:
76,376,95929,6,2,B|140:367|140:367|143:365|143:365|211:355,1,127.5,2|0,0:0|3:0,0:0:0:0:
201,356,96348,6,2,P|221:311|265:320,1,89.2499972763062,2|0,0:0|3:0,0:0:0:0:
314,365,96768,6,2,B|332:239,1,127.5,2|0,0:0|3:0,0:0:0:0:
332,238,97188,6,2,P|316:199|258:204,1,89.2499972763062,2|0,0:3|3:0,0:0:0:0:
273,195,97607,6,0,L|384:180,1,85,6|0,1:2|0:0,0:0:0:0:
414,133,98027,1,10,0:0:0:0:
356,82,98237,1,2,0:0:0:0:
423,231,98446,2,0,L|526:237,1,85,2|0,1:2|0:0,0:0:0:0:
507,235,98761,1,0,0:0:0:0:
507,235,98866,2,0,L|396:228,1,85,10|0,0:2|0:0,0:0:0:0:
372,290,99285,6,2,B|306:275|316:314|247:300,1,127.5,2|0,1:2|3:0,0:0:0:0:
247,300,99705,2,2,B|181:285|191:324|122:310,1,127.5,10|0,1:2|3:0,0:0:0:0:
122,310,100124,2,2,P|53:300|40:246,1,127.5,2|0,1:2|0:0,0:0:0:0:
39,252,100544,1,10,0:0:0:0:
86,191,100754,1,2,0:0:0:0:
16,152,100964,5,2,1:2:0:0:
70,98,101174,1,2,0:0:0:0:
161,187,101383,2,0,L|251:178,1,85,10|2,0:0|0:0,0:0:0:0:
302,126,101803,2,0,L|311:31,1,85,2|0,1:2|0:0,0:0:0:0:
310,41,102118,1,2,0:0:0:0:
310,41,102223,1,10,0:0:0:0:
380,11,102432,1,2,0:0:0:0:
433,66,102642,6,2,L|424:165,1,85,2|0,1:2|3:0,0:0:0:0:
481,211,103062,2,2,P|412:205|390:261,1,127.5,10|0,0:0|3:0,0:0:0:0:
388,249,103481,2,2,B|325:236|330:271|264:261,1,127.5,2|0,1:2|0:0,0:0:0:0:
263,260,103901,1,10,0:0:0:0:
200,223,104111,1,2,0:0:0:0:
151,281,104320,6,0,P|71:293|21:229,1,170,2|10,1:2|0:0,0:0:0:0:
74,173,104950,2,0,L|56:-10,1,170,2|2,1:2|0:0,0:0:0:0:
57,5,105474,1,2,0:0:0:0:
57,5,105579,1,10,0:0:0:0:
134,40,105789,1,2,0:0:0:0:
203,7,105999,5,2,1:2:0:0:
203,7,106418,1,10,0:0:0:0:
252,65,106628,1,2,0:0:0:0:
374,83,106838,1,2,1:2:0:0:
426,148,107048,1,2,0:0:0:0:
426,148,107153,1,2,0:0:0:0:
426,148,107258,1,10,0:0:0:0:
374,203,107467,1,0,0:0:0:0:
430,255,107677,5,2,1:2:0:0:
504,238,107887,1,2,0:0:0:0:
481,311,108097,1,8,0:0:0:0:
443,305,108202,1,2,0:0:0:0:
405,299,108306,1,2,0:0:0:0:
367,293,108411,1,2,0:0:0:0:
329,287,108516,1,2,1:2:0:0:
237,217,108831,1,2,0:0:0:0:
204,237,108936,1,10,0:0:0:0:
208,275,109041,1,0,0:0:0:0:
212,313,109146,1,2,0:0:0:0:
151,358,109355,6,2,B|120:378|80:373|44:339|53:292|53:292|71:265,2,170,6|10|2,1:2|0:0|1:2,0:0:0:0:
212,313,110404,1,2,0:0:0:0:
275,353,110614,2,0,L|360:371,1,85,10|0,0:0|0:0,0:0:0:0:
419,325,111034,6,0,L|412:246,7,42.5,8|0|0|0|0|0|0|0,0:3|0:0|0:0|0:0|0:0|0:0|0:0|0:0,0:0:0:0:
462,232,112712,2,0,L|455:153,5,42.5,0|0|0|0|0|0,0:0|0:0|0:0|0:0|0:0|0:0,0:0:0:0:
412,137,113971,6,0,L|426:22,1,85,2|2,0:0|0:0,0:0:0:0:
350,183,114390,6,0,B|274:168|284:215|200:204,1,152.999995330811,6|0,1:3|0:0,0:0:0:0:
128,174,114810,2,0,P|133:139|207:145,1,101.999996887207,10|2,0:0|0:0,0:0:0:0:
230,345,115230,2,0,P|162:345|73:363,1,152.999995330811,2|0,1:3|0:0,0:0:0:0:
78,361,115649,2,0,P|104:319|84:259,1,101.999996887207,10|0,0:0|0:0,0:0:0:0:
26,35,116069,6,0,B|14:137|14:137|15:142|15:142|1:261,1,203.999993774414,2|10,1:3|0:0,0:0:0:0:
180,384,116698,2,0,P|165:326|95:327,1,101.999996887207,2|0,1:3|0:0,0:0:0:0:
240,239,117118,2,0,P|274:247|297:262,1,50.9999984436036,2|0,0:0|0:0,0:0:0:0:
157,180,117327,1,10,0:0:0:0:
157,180,117537,2,0,P|143:151|145:116,1,50.9999984436036,2|0,0:0|0:0,0:0:0:0:
234,15,117747,5,6,1:3:0:0:
234,15,118167,1,10,0:0:0:0:
251,104,118376,1,2,0:0:0:0:
266,194,118586,2,0,L|395:180,1,101.999996887207,2|0,1:3|0:0,0:0:0:0:
234,15,119006,1,10,0:0:0:0:
448,113,119216,1,2,0:0:0:0:
276,272,119425,2,0,L|405:258,1,101.999996887207,2|0,1:3|0:0,0:0:0:0:
234,15,119845,1,10,0:0:0:0:
139,203,120055,1,2,0:0:0:0:
286,354,120265,2,0,L|415:340,1,101.999996887207,2|2,1:2|0:0,0:0:0:0:
466,331,120684,1,10,0:0:0:0:
466,331,120894,1,2,0:0:0:0:
218,73,121104,6,0,L|234:234,1,152.999995330811,6|0,1:3|0:0,0:0:0:0:
233,225,121523,2,0,P|179:230|130:201,1,101.999996887207,10|2,0:0|0:0,0:0:0:0:
0,380,121943,2,0,P|44:318|127:323,1,152.999995330811,2|0,1:3|0:0,0:0:0:0:
184,353,122362,2,0,L|290:339,1,101.999996887207,10|0,0:0|0:0,0:0:0:0:
506,270,122782,6,0,P|449:244|416:352,1,203.999993774414,2|10,1:3|0:0,0:0:0:0:
275,195,123411,2,0,P|267:144|260:93,1,101.999996887207,2|0,1:3|0:0,0:0:0:0:
195,282,123831,2,0,P|161:302|117:304,1,50.9999984436036,2|0,0:0|0:0,0:0:0:0:
375,254,124041,1,10,0:0:0:0:
375,254,124251,2,0,P|409:274|453:276,1,50.9999984436036,2|0,0:0|0:0,0:0:0:0:
260,93,124460,5,6,1:3:0:0:
293,342,124670,1,0,0:0:0:0:
260,93,124880,1,10,0:0:0:0:
293,342,125090,1,2,0:0:0:0:
293,342,125195,1,2,0:0:0:0:
293,342,125299,1,2,1:3:0:0:
373,187,125509,5,0,0:0:0:0:
205,274,125719,1,10,0:0:0:0:
377,361,125929,1,2,0:0:0:0:
377,361,126034,1,2,0:0:0:0:
377,361,126139,6,0,L|512:343,1,101.999996887207,6|0,1:3|0:0,0:0:0:0:
294,273,126558,1,10,0:0:0:0:
490,203,126768,1,2,0:0:0:0:
269,203,126978,5,6,1:2:0:0:
499,277,127188,1,2,0:0:0:0:
432,156,127397,5,14,0:0:0:0:
339,186,127607,1,2,0:0:0:0:
497,35,127817,5,4,1:3:0:0:
497,35,128027,2,0,P|465:34|439:51,1,63.7500024318696,2|10,0:0|0:0,0:0:0:0:
368,102,128446,1,2,0:0:0:0:
368,102,128656,2,0,P|336:103|310:86,1,63.7500024318696,2|0,1:2|0:0,0:0:0:0:
244,29,129076,2,0,P|212:28|186:45,1,63.7500024318696,10|0,0:0|0:0,0:0:0:0:
126,103,129495,6,0,B|65:96|65:96|63:97|63:97|-2:90,1,127.500004863739,2|10,1:3|0:0,0:0:0:0:
126,103,130125,1,2,1:2:0:0:
327,223,130544,1,2,0:0:0:0:
247,227,130754,2,0,L|259:148,1,63.7500024318696,10|2,0:0|0:0,0:0:0:0:
276,27,131174,5,2,1:2:0:0:
276,27,131593,1,10,0:0:0:0:
347,49,131803,1,2,0:0:0:0:
203,7,132013,1,2,1:2:0:0:
276,27,132432,1,10,0:0:0:0:
347,49,132642,1,2,0:0:0:0:
203,7,132852,1,2,1:2:0:0:
276,27,133271,1,10,0:0:0:0:
347,49,133481,1,2,0:0:0:0:
203,7,133691,1,2,1:2:0:0:
418,71,133901,6,0,L|465:67,3,31.8750012159348,0|2|10|0,0:0|0:0|0:0|0:0,0:0:0:0:
507,119,134320,2,0,L|511:166,1,31.8750012159348,2|0,0:0|0:0,0:0:0:0:
465,216,134530,6,0,B|401:208|414:238|340:231,1,127.500004863739,6|10,1:3|0:0,0:0:0:0:
267,198,135160,1,0,0:0:0:0:
210,254,135369,2,0,L|200:345,1,63.7500024318696,2|0,1:2|0:0,0:0:0:0:
211,141,135789,2,0,L|147:134,1,63.7500024318696,10|0,0:2|0:0,0:0:0:0:
324,142,136209,2,0,L|330:78,1,63.7500024318696,2|0,1:2|0:0,0:0:0:0:
323,255,136628,1,10,0:0:0:0:
323,255,136838,2,0,L|414:265,1,63.7500024318696,2|0,0:0|0:0,0:0:0:0:
492,173,137258,5,2,0:0:0:0:
492,173,137467,1,10,0:0:0:0:
492,173,137677,1,2,0:0:0:0:
467,100,137887,5,2,1:2:0:0:
393,121,138097,1,2,0:0:0:0:
342,64,138306,1,10,0:0:0:0:
304,73,138411,1,2,0:0:0:0:
266,82,138516,1,2,0:0:0:0:
229,91,138621,1,2,0:0:0:0:
192,101,138726,1,2,1:2:0:0:
97,166,139041,1,2,0:0:0:0:
72,195,139146,1,10,0:0:0:0:
109,205,139251,1,2,0:0:0:0:
146,214,139356,1,2,0:0:0:0:
184,223,139461,1,0,0:0:0:0:
222,232,139565,6,0,B|303:198|303:198|384:208,1,170,6|10,1:2|0:0,0:0:0:0:
503,220,140195,1,2,0:0:0:0:
449,169,140404,1,2,1:2:0:0:
95,283,152992,5,2,0:0:0:0:
95,283,153202,1,2,0:0:0:0:
47,231,153411,5,2,0:0:0:0:
47,231,153621,1,2,0:0:0:0:
96,181,153831,5,2,0:0:0:0:
96,181,154041,1,2,0:0:0:0:
48,129,154250,5,2,0:0:0:0:
48,129,154460,1,2,0:0:0:0:
98,80,154670,6,0,B|164:70|164:70|222:88,1,127.500004863739,6|8,1:3|0:0,0:0:0:0:
291,94,155299,2,0,B|386:75|386:75|348:59,1,127.500004863739,2|2,0:0|0:0,0:0:0:0:
357,63,155929,2,0,L|349:147,1,63.7500024318696,8|0,0:0|0:0,0:0:0:0:
331,362,156348,6,0,B|361:339|361:339|346:243,1,127.500004863739,4|0,1:3|0:0,0:0:0:0:
292,205,156978,2,0,B|229:220|229:220|227:222|227:222|163:237,1,127.500004863739,4|0,1:3|0:0,0:0:0:0:
102,254,157607,1,2,0:0:0:0:
102,254,158027,5,2,0:0:0:0:
333,261,160754,6,0,P|358:266|383:271,1,50.9999984436036,6|0,0:0|0:0,0:0:0:0:
333,261,160964,1,14,0:0:0:0:
162,185,161174,2,0,P|137:190|112:195,1,50.9999984436036,6|0,0:0|0:0,0:0:0:0:
257,42,161383,5,6,1:3:0:0:
257,42,161803,1,10,0:0:0:0:
389,166,162013,1,0,0:0:0:0:
245,276,162223,2,0,L|266:142,1,101.999996887207,2|0,1:3|0:0,0:0:0:0:
385,66,162642,1,10,0:0:0:0:
328,355,162852,1,2,0:0:0:0:
147,197,163062,2,0,L|168:63,1,101.999996887207,2|0,1:3|0:0,0:0:0:0:
332,213,163481,1,10,0:0:0:0:
127,341,163691,1,2,1:2:0:0:
332,213,163901,2,0,L|456:229,1,101.999996887207,2|2,1:2|1:3,0:0:0:0:
67,176,164320,1,10,0:0:0:0:
372,87,164530,1,2,0:0:0:0:
208,3,164740,6,0,P|216:79|224:155,1,152.999995330811,6|0,1:3|0:0,0:0:0:0:
199,233,165160,2,0,P|153:222|146:175,1,101.999996887207,10|2,0:0|0:0,0:0:0:0:
452,383,165579,2,0,P|399:315|314:343,1,152.999995330811,2|2,1:3|0:0,0:0:0:0:
339,320,165999,2,0,P|315:292|313:228,1,101.999996887207,10|0,0:0|0:0,0:0:0:0:
9,383,166418,6,0,P|101:342|201:351,1,203.999993774414,2|10,1:3|0:0,0:0:0:0:
232,138,167048,2,0,P|202:178|215:240,1,101.999996887207,2|0,1:3|0:0,0:0:0:0:
319,359,167467,2,0,L|309:292,1,50.9999984436036,2|2,0:0|0:0,0:0:0:0:
402,353,167677,1,10,0:0:0:0:
402,353,167887,2,0,L|392:286,1,50.9999984436036,2|0,0:0|0:0,0:0:0:0:
347,231,168097,5,6,1:2:0:0:
406,52,168306,1,0,0:0:0:0:
208,114,168516,2,0,L|270:124,1,50.9999984436036,10|2,0:0|0:0,0:0:0:0:
346,143,168726,1,2,0:0:0:0:
346,143,168831,1,2,0:0:0:0:
346,143,168936,1,2,1:3:0:0:
121,97,169146,1,2,0:0:0:0:
301,63,169355,1,10,0:0:0:0:
109,191,169565,1,2,0:0:0:0:
109,191,169670,1,2,0:0:0:0:
109,191,169775,6,0,L|90:302,1,101.999996887207,6|2,1:3|0:0,0:0:0:0:
124,87,170195,1,10,0:0:0:0:
256,248,170404,1,2,1:2:0:0:
388,87,170614,1,6,1:2:0:0:
179,150,170824,1,2,1:2:0:0:
333,150,171034,1,14,0:0:0:0:
256,40,171244,1,2,1:2:0:0:
256,248,171453,6,0,P|201:297|98:254,1,152.999995330811,6|0,1:3|0:0,0:0:0:0:
47,251,171873,2,0,P|59:319|54:381,1,101.999996887207,10|2,0:0|0:0,0:0:0:0:
252,119,172292,2,0,B|177:107|181:154|103:140,1,152.999995330811,2|0,1:3|3:0,0:0:0:0:
27,114,172712,2,0,P|22:83|96:90,1,101.999996887207,10|0,0:0|0:0,0:0:0:0:
161,360,173132,6,0,P|126:279|13:303,1,203.999993774414,2|10,1:3|0:0,0:0:0:0:
166,97,173761,2,0,P|181:146|176:201,1,101.999996887207,0|2,0:0|1:2,0:0:0:0:
301,356,174181,2,0,P|301:330|308:297,1,50.9999984436036,2|0,0:0|0:0,0:0:0:0:
388,245,174390,1,10,0:0:0:0:
388,245,174600,2,0,P|418:250|450:258,1,50.9999984436036,2|0,0:0|0:0,0:0:0:0:
303,174,174810,6,0,B|286:131|291:100|304:71|304:71|327:46,1,127.500004863739,10|0,1:3|0:0,0:0:0:0:
318,55,175230,5,10,0:0:0:0:
280,301,175439,1,0,0:0:0:0:
144,187,175649,2,0,L|157:75,1,101.999996887207,2|0,1:3|0:0,0:0:0:0:
350,211,176069,1,10,0:0:0:0:
128,320,176278,1,0,0:0:0:0:
234,384,176488,2,0,L|247:272,1,101.999996887207,2|0,1:3|0:0,0:0:0:0:
35,78,176908,1,10,0:0:0:0:
1,324,177118,1,2,0:0:0:0:
230,85,177327,1,2,1:3:0:0:
196,331,177537,1,2,0:0:0:0:
230,85,177747,1,10,0:0:0:0:
196,331,177957,1,2,0:0:0:0:
0,234,178167,6,0,B|85:238|58:197|150:206,1,152.999995330811,6|0,1:3|0:0,0:0:0:0:
147,205,178586,2,0,L|130:86,1,101.999996887207,10|2,0:0|0:0,0:0:0:0:
311,369,179006,2,0,P|317:292|326:216,1,152.999995330811,2|0,1:3|0:0,0:0:0:0:
387,166,179425,2,0,P|422:176|422:245,1,101.999996887207,10|0,0:0|0:0,0:0:0:0:
132,109,179845,6,0,B|225:88|225:88|227:85|227:85|329:61,1,203.999993774414,2|10,1:3|0:0,0:0:0:0:
507,205,180474,2,0,P|424:195|387:191,1,101.999996887207,2|0,1:3|0:0,0:0:0:0:
242,319,180894,2,0,P|290:309|316:309,1,50.9999984436036,2|0,0:0|0:0,0:0:0:0:
389,382,181104,1,10,0:0:0:0:
389,382,181313,2,0,L|395:331,1,50.9999984436036,2|0,0:0|0:0,0:0:0:0:
422,83,181523,5,6,1:3:0:0:
256,192,181733,1,0,0:0:0:0:
477,272,181943,1,10,0:0:0:0:
321,113,182153,1,2,0:0:0:0:
321,113,182258,1,2,0:0:0:0:
321,113,182362,1,2,1:3:0:0:
256,288,182572,1,0,0:0:0:0:
191,113,182782,1,10,0:0:0:0:
35,272,182992,1,2,0:0:0:0:
35,272,183097,1,2,0:0:0:0:
35,272,183202,6,0,L|134:249,1,101.999996887207,6|0,1:3|0:0,0:0:0:0:
247,220,183621,1,10,0:0:0:0:
81,159,183831,1,2,0:0:0:0:
122,351,184041,5,6,1:2:0:0:
210,126,184251,1,2,0:0:0:0:
385,346,184460,5,14,0:0:0:0:
199,278,184670,1,2,0:0:0:0:
385,346,184880,5,6,1:2:0:0:
342,221,185090,2,0,L|332:309,2,63.7500024318696,2|10|2,0:0|0:0|0:0,0:0:0:0:
477,255,185719,2,0,L|400:267,1,63.7500024318696,2|2,1:2|0:0,0:0:0:0:
414,119,186139,2,0,L|477:129,1,63.7500024318696,10|0,0:2|0:0,0:0:0:0:
280,192,186558,5,2,1:2:0:0:
280,192,186978,2,0,L|270:108,2,63.7500024318696,10|2|2,0:0|0:0|0:0,0:0:0:0:
246,270,187607,1,2,0:0:0:0:
163,327,187817,1,10,0:0:0:0:
62,292,188027,1,2,0:0:0:0:
13,188,188237,5,6,1:2:0:0:
71,140,188446,1,2,0:0:0:0:
132,215,188656,1,10,0:0:0:0:
190,104,188866,1,2,0:0:0:0:
242,248,189076,1,2,1:2:0:0:
306,191,189285,1,2,0:0:0:0:
306,191,189495,2,0,L|375:200,2,63.7500024318696,10|2|6,0:0|0:0|1:2,0:0:0:0:
225,176,190125,5,2,0:0:0:0:
259,57,190334,2,0,L|273:119,1,63.7500024318696,10|2,0:0|0:0,0:0:0:0:
192,300,190754,2,0,L|177:237,1,63.7500024318696,2|2,1:2|0:0,0:0:0:0:
112,209,191069,1,2,0:0:0:0:
112,209,191174,2,0,L|66:205,3,31.8750012159348,10|2|2|2,0:0|0:0|0:0|0:0,0:0:0:0:
9,188,191593,6,0,B|26:212|26:212|9:102|9:102|25:126,1,170,2|10,1:2|0:0,0:0:0:0:
25,126,192223,1,0,0:0:0:0:
90,86,192432,2,0,L|86:53,1,21.25,2|0,1:2|3:0,0:0:0:0:
164,75,192852,2,0,L|160:42,1,21.25,10|0,0:0|3:0,0:0:0:0:
229,114,193271,6,0,B|324:138|324:138|337:124|356:113|356:113|312:122,1,170,2|10,1:2|0:0,0:0:0:0:
325,119,193901,1,0,0:0:0:0:
409,253,194320,2,0,P|451:243|492:241,2,85,2|10|2,0:0|0:0|0:0,0:0:0:0:
331,237,194950,5,2,1:2:0:0:
255,221,195160,1,2,0:0:0:0:
180,204,195369,1,10,0:0:0:0:
168,167,195474,1,2,0:0:0:0:
157,130,195579,1,2,0:0:0:0:
145,93,195684,1,2,0:0:0:0:
144,63,195789,1,2,1:2:0:0:
144,63,196209,1,10,0:0:0:0:
144,63,196314,1,0,0:0:0:0:
144,63,196418,2,0,L|160:5,1,42.5,2|2,0:0|0:0,0:0:0:0:
80,111,196628,6,2,B|161:94|161:94|165:95|165:95|251:78,3,170,2|2|2|2,0:0|0:0|0:0|0:0,0:0:0:0:
