osu file format v14

[General]
AudioFilename: audio.mp3
AudioLeadIn: 0
PreviewTime: 56811
Countdown: 0
SampleSet: Soft
StackLeniency: 0.35
Mode: 0
LetterboxInBreaks: 0
WidescreenStoryboard: 1

[Editor]
Bookmarks: 78694,86771,113939,119393,162610,168904
DistanceSpacing: 0.8
BeatDivisor: 8
GridSize: 32
TimelineZoom: 2.5

[Metadata]
Title:Toxic
TitleUnicode:Toxic
Artist:Britney Spears
ArtistUnicode:Britney Spears
Creator:schoolboy
Version:In The Zone
Source:
Tags:komore emilia estellia- Frakturehawkens shmiklak marvollo m_a_r_v_o_l_l_o djulus english pop
BeatmapID:2223745
BeatmapSetID:1061947

[Difficulty]
HPDrainRate:5
CircleSize:4.5
OverallDifficulty:8
ApproachRate:9.5
SliderMultiplier:1.7
SliderTickRate:1

[Events]
//Background and Video events
0,0,"britney.jpg",0,0
Video,-11,"y2mate.com - Britney Spears - Toxic (Official Music Video)_LOZuxwVk7TU_360p (1).mp4"
//Break Periods
2,141443,151313
2,158227,160229
//Storyboard Layer 0 (Background)
//Storyboard Layer 1 (Fail)
//Storyboard Layer 2 (Pass)
//Storyboard Layer 3 (Foreground)
//Storyboard Layer 4 (Overlay)
//Storyboard Sound Samples

[TimingPoints]
265,419.58041958042,4,2,1,55,1,0
265,-666.666666666658,4,2,1,55,0,0
1943,-50,4,2,1,55,0,0
3621,-666.666666666658,4,2,1,55,0,0
5299,-50,4,2,1,55,0,0
6978,-66.6666666666667,4,2,1,55,0,0
8656,-33.3333333333333,4,2,1,55,0,0
10334,-66.6666666666667,4,2,1,55,0,0
12013,-33.3333333333333,4,2,1,55,0,0
15160,-66.6666666666667,4,2,1,55,0,0
15369,-66.6666666666667,4,2,1,66,0,0
16838,-50,4,2,1,66,0,0
17048,-66.6666666666667,4,2,1,66,0,0
18516,-40,4,2,1,66,0,0
18726,-50,4,2,1,66,0,0
19146,-66.6666666666667,4,2,1,66,0,0
20195,-50,4,2,1,66,0,0
20404,-66.6666666666667,4,2,1,66,0,0
21873,-50,4,2,1,66,0,0
22712,-66.6666666666667,4,2,1,66,0,0
23341,-50,4,2,1,66,0,0
23551,-40,4,2,1,66,0,0
24181,-66.6666666666667,4,2,1,66,0,0
25230,-33.3333333333333,4,2,1,66,0,0
25334,-25,4,2,1,5,0,0
25439,-50,4,2,1,66,0,0
27118,-66.6666666666667,4,2,1,66,0,0
28586,-50,4,2,1,66,0,0
28796,-66.6666666666667,4,2,1,66,0,0
30265,-50,4,2,1,66,0,0
30474,-66.6666666666667,4,2,1,66,0,0
31943,-40,4,2,1,66,0,0
33831,-250,4,2,1,66,0,0
34670,-66.6666666666667,4,2,1,66,0,0
35299,-50,4,2,1,66,0,0
36139,-66.6666666666667,4,2,1,66,0,0
36978,-40,4,2,1,66,0,0
38866,-33.3333333333333,4,2,1,66,0,0
39705,-142.857142857143,4,2,1,66,0,0
40544,-40,4,2,1,66,0,0
40964,-66.6666666666667,4,2,1,66,0,0
41803,-41.6666666666667,4,2,1,66,0,0
42223,-200,4,2,1,66,0,0
43062,-66.6666666666667,4,2,1,66,0,0
43481,-50,4,2,1,66,0,0
43691,-100,4,2,1,66,0,0
44111,-50,4,2,1,66,0,0
44740,-33.3333333333333,4,2,1,66,0,0
45160,-50,4,2,1,66,0,0
45579,-25,4,2,1,66,0,0
46733,-37.593984962406,4,2,1,66,0,0
47258,-133.333333333333,4,2,1,66,0,0
48516,-33.3333333333333,4,2,1,66,0,0
50195,-50,4,2,1,66,0,0
50614,-66.6666666666667,4,2,1,66,0,0
51453,-50,4,2,1,66,0,0
52292,-33.3333333333333,4,2,1,66,0,0
52712,-133.333333333333,4,2,1,66,0,0
53132,-33.3333333333333,4,2,1,66,0,0
53971,-33.3333333333333,4,2,3,45,0,0
54076,-33.3333333333333,4,2,1,45,0,0
56908,-33.3333333333333,4,2,1,70,0,0
57327,-33.3333333333333,4,2,1,81,0,0
57432,-33.3333333333333,4,2,1,81,0,0
58167,-50,4,2,1,81,0,0
58586,-200,4,2,1,81,0,0
59006,-33.3333333333333,4,2,1,81,0,0
59635,-50,4,2,1,81,0,0
60055,-133.333333333333,4,2,1,81,0,0
60684,-399.999999999997,4,2,1,81,0,0
61104,-25,4,2,1,81,0,0
63936,-33.3333333333333,4,2,1,81,0,0
64880,-50,4,2,1,81,0,0
65299,-100,4,2,1,81,0,0
65719,-33.3333333333333,4,2,1,81,0,0
66348,-40,4,2,1,81,0,0
66768,-399.999999999997,4,2,1,81,0,0
67397,-40,4,2,1,81,0,0
69076,-25,4,2,1,81,0,0
69495,-133.333333333333,4,2,1,81,0,0
69915,-23.2558139534884,4,2,1,81,0,0
70334,-35.7142857142857,4,2,1,81,0,0
70964,-285.714285714284,4,2,1,81,0,0
72432,-50,4,2,1,81,0,0
73481,-100,4,2,1,81,0,0
74111,-100,4,2,1,81,0,0
76628,-50,4,2,1,81,0,0
77048,-100,4,2,1,81,0,0
77467,-76.9230769230769,4,2,1,81,0,0
78306,-33.3333333333333,4,2,1,81,0,0
79565,-66.6666666666667,4,2,1,81,0,0
80824,-66.6666666666667,4,2,1,90,0,0
82502,-33.3333333333333,4,2,1,90,0,0
84181,-25,4,2,1,90,0,0
85334,-76.9230769230769,4,2,1,66,0,0
93411,-43.4782608695652,4,2,1,66,0,0
94251,-83.3333333333333,4,2,1,66,0,0
95929,-500,4,2,1,66,0,0
96348,-25,4,2,1,66,0,0
96768,-500,4,2,1,66,0,0
97188,-25,4,2,1,66,0,0
97607,-25,4,2,1,66,0,0
98027,-50,4,2,1,66,0,0
98446,-100,4,2,1,66,0,0
98866,-33.3333333333333,4,2,1,66,0,0
99076,-41.6666666666667,4,2,1,66,0,0
99285,-151.515151515152,4,2,1,66,0,0
100125,-100,4,2,1,66,0,0
100754,-29.4117647058824,4,2,1,66,0,0
101174,-40,4,2,1,66,0,0
101803,-33.3333333333333,4,2,1,66,0,0
102223,-200,4,2,1,66,0,0
102642,-42.9184549356223,4,2,1,66,0,0
103901,-50,4,2,1,66,0,0
104950,-66.6666666666667,4,2,1,66,0,0
105579,-50,4,2,1,66,0,0
108097,-25,4,2,1,66,0,0
108516,-50,4,2,1,66,0,0
108831,-25,4,2,1,66,0,0
109146,-37.593984962406,4,2,1,66,0,0
109303,-37.593984962406,4,2,1,5,0,0
109355,-37.593984962406,4,2,1,66,0,0
111034,-66.6666666666667,4,2,3,41,0,0
111086,-66.6666666666667,4,2,1,41,0,0
113971,-66.6666666666667,4,2,1,70,0,0
114390,-33.3333333333333,4,2,1,81,0,0
115230,-50,4,2,1,81,0,0
115649,-133.333333333333,4,2,1,81,0,0
116069,-25,4,2,1,81,0,0
116278,-50,4,2,1,81,0,0
117118,-25,4,2,1,81,0,0
118167,-200,4,2,1,81,0,0
119845,-25,4,2,1,81,0,0
120474,-66.6666666666667,4,2,1,81,0,0
120684,-50,4,2,1,81,0,0
120894,-40,4,2,1,81,0,0
121104,-33.3333333333333,4,2,1,81,0,0
121943,-200,4,2,1,81,0,0
122362,-40,4,2,1,81,0,0
122782,-50,4,2,1,81,0,0
122992,-33.3333333333333,4,2,1,81,0,0
123411,-66.6666666666667,4,2,1,81,0,0
123831,-50,4,2,1,81,0,0
124041,-100,4,2,1,81,0,0
124460,-33.3333333333333,4,2,1,81,0,0
126139,-222.222222222221,4,2,1,81,0,0
126558,-25,4,2,1,81,0,0
128027,-133.333333333333,4,2,1,81,0,0
130544,-40,4,2,1,81,0,0
131174,-100,4,2,1,81,0,0
133691,-33.3333333333333,4,2,1,81,0,0
134530,-66.6666666666667,4,2,1,81,0,0
135369,-100,4,2,1,81,0,0
136838,-50,4,2,1,81,0,0
137258,-100,4,2,1,81,0,0
139513,-33.3333333333333,4,2,1,81,0,0
140404,-222.222222222221,4,2,1,81,0,0
141244,-25,4,2,1,81,0,0
152992,-25,4,2,1,60,0,0
155090,-1000,4,2,1,68,0,0
155299,-33.3333333333333,4,2,1,68,0,0
155929,-1000,4,2,1,68,0,0
156348,-25,4,2,1,68,0,0
156768,-1000,4,2,1,68,0,0
156978,-25,4,2,1,68,0,0
158027,-25,4,2,1,81,0,0
161383,-149.253731343284,4,2,1,81,0,0
161803,-37.4531835205993,4,2,1,81,0,0
162852,-33.3333333333333,4,2,1,81,0,0
163062,-37.4531835205993,4,2,1,81,0,0
163481,-25,4,2,1,81,0,0
164111,-33.3333333333333,4,2,1,81,0,0
165579,-50,4,2,1,81,0,0
166418,-33.3333333333333,4,2,1,81,0,0
166838,-66.6666666666667,4,2,1,81,0,0
167048,-50,4,2,1,81,0,0
167677,-33.3333333333333,4,2,1,81,0,0
167992,-50,4,2,1,81,0,0
168516,-33.3333333333333,4,2,1,81,0,0
168936,-50,4,2,1,81,0,0
169355,-40,4,2,1,81,0,0
169775,-33.3333333333333,4,2,1,81,0,0
171453,-500,4,2,1,81,0,0
172292,-370.37037037037,4,2,1,81,0,0
172712,-33.3333333333333,4,2,1,81,0,0
173132,-250,4,2,1,81,0,0
173551,-500,4,2,1,81,0,0
174810,-12.5,4,2,3,81,0,0
174862,-12.5,4,2,1,81,0,0
175230,-25,4,2,1,81,0,0
178167,-100,4,2,1,81,0,0
179425,-42.9184549356223,4,2,1,81,0,0
179845,-33.3333333333333,4,2,1,81,0,0
180474,-66.6666666666667,4,2,1,81,0,0
180894,-40,4,2,1,81,0,0
181523,-66.6666666666667,4,2,1,81,0,0
182362,-60.2409638554217,4,2,1,81,0,0
182782,-50,4,2,1,81,0,0
183202,-33.3333333333333,4,2,1,81,0,0
184041,-25,4,2,1,81,0,0
184880,-25,4,2,1,81,0,0
186139,-76.9230769230769,4,2,1,81,0,0
191174,-66.6666666666667,4,2,1,81,0,0
191593,-38.4615384615385,4,2,1,81,0,0
194320,-66.6666666666667,4,2,1,81,0,0
196628,-50,4,2,1,81,0,0

[Colours]
Combo1 : 193,255,255
Combo2 : 204,234,172
Combo3 : 250,250,192
Combo4 : 254,205,253

[HitObjects]
115,235,265,6,0,L|112:207,1,25.4999992218018,2|8,1:2|0:0,0:0:0:0:
194,227,894,1,2,0:0:0:0:
194,227,1104,2,0,L|191:199,1,25.4999992218018,2|10,1:2|0:0,0:0:0:0:
17,301,1733,1,2,0:0:0:0:
17,301,1943,6,2,B|15:293|15:293|124:248|245:288|311:391,3,340,2|10|2|10,1:2|0:0|1:2|0:0,0:0:0:0:
471,152,3621,6,0,L|474:180,1,25.4999992218018,2|8,1:2|0:0,0:0:0:0:
392,160,4251,1,2,0:0:0:0:
392,160,4460,2,0,L|395:188,1,25.4999992218018,2|10,1:2|0:0,0:0:0:0:
512,21,5090,1,2,0:0:0:0:
512,21,5299,6,2,P|472:186|466:355,3,340,2|10|2|10,1:2|0:0|1:2|0:0,0:0:0:0:
0,183,6978,6,0,P|59:184|76:127,1,127.5,6|2,1:2|0:0,0:0:0:0:
237,56,7397,2,0,P|206:60|179:43,1,63.7500024318696,10|0,0:0|0:0,0:0:0:0:
76,127,7607,2,0,P|106:131|133:114,1,63.7500024318696,2|0,0:0|0:0,0:0:0:0:
208,167,7817,1,2,1:2:0:0:
113,360,8132,1,2,0:0:0:0:
57,307,8237,2,0,P|26:302|0:319,1,63.7500024318696,10|0,0:0|0:0,0:0:0:0:
286,205,8446,1,2,0:0:0:0:
286,205,8656,6,2,B|323:83|409:33|512:27|512:27|460:33|388:153,1,382.500014591218,2|0,1:2|3:0,0:0:0:0:
409,384,9076,2,2,B|409:297|320:219|218:236|218:236|289:238|312:291,1,382.500014591218,10|0,0:0|3:0,0:0:0:0:
69,384,9495,2,2,B|87:331|164:298|222:327|222:327|162:318|110:398,1,255.000009727478,2|0,1:2|0:0,0:0:0:0:
65,229,9810,1,2,0:0:0:0:
57,216,9915,2,0,B|37:153|81:69|139:55|139:55|109:73|101:105,1,255.000009727478,10|2,0:0|0:0,0:0:0:0:
103,97,10334,6,0,P|162:95|179:152,1,127.5,6|2,1:2|0:0,0:0:0:0:
426,265,10754,2,0,P|395:260|368:277,1,63.7500024318696,10|0,0:0|0:0,0:0:0:0:
265,194,10964,2,0,P|295:189|322:206,1,63.7500024318696,2|0,0:0|0:0,0:0:0:0:
397,154,11174,1,2,1:2:0:0:
138,319,11488,1,2,0:0:0:0:
73,274,11593,2,0,P|64:243|74:214,1,63.7500024318696,10|0,0:0|0:0,0:0:0:0:
273,366,11803,1,2,0:0:0:0:
273,366,12013,6,2,B|230:290|224:173|326:107|326:107|265:151|280:234,1,382.500014591218,2|0,1:2|3:0,0:0:0:0:
427,295,12432,2,2,B|480:294|519:351|519:351|483:268|379:240|287:287,1,382.500014591218,10|0,0:0|3:0,0:0:0:0:
59,232,12852,2,2,B|1:170|64:96|184:96|186:172|167:208,1,255.000009727478,2|2,1:2|0:0,0:0:0:0:
135,281,13167,5,2,0:0:0:0:
107,384,13271,2,0,B|96:329|127:278|127:278|118:311,1,127.500004863739,10|0,0:0|0:0,0:0:0:0:
0,42,13481,1,2,0:0:0:0:
458,99,14111,5,2,0:0:0:0:
385,161,14320,1,2,0:0:0:0:
472,81,14530,5,2,0:0:0:0:
412,238,14740,1,2,0:0:0:0:
6,106,14950,6,0,B|65:88|65:88|71:89|71:89|244:45,1,127.500004863739,10|0,1:2|0:0,0:0:0:0:
208,46,15160,6,0,B|258:30|258:30|242:13|214:22,1,63.7500024318696,2|0,1:2|0:0,0:0:0:0:
128,74,15369,6,0,P|68:142|80:270,1,191.250007295609,6|0,1:2|3:0,0:0:0:0:
227,371,15789,2,0,P|209:313|149:307,1,127.500004863739,10|0,0:0|0:0,0:0:0:0:
371,222,16209,2,0,P|434:229|497:237,1,127.500004863739,2|0,1:2|0:0,0:0:0:0:
231,126,16523,5,2,0:0:0:0:
303,79,16628,2,0,P|316:49|312:9,1,63.7500024318696,10|0,0:0|0:0,0:0:0:0:
248,210,16838,6,0,B|253:247|253:247|255:250|255:250|263:310,1,85,2|0,0:0|0:0,0:0:0:0:
0,368,17048,6,0,P|30:300|141:316,1,191.250007295609,2|0,1:2|3:0,0:0:0:0:
72,121,17467,2,0,P|52:210|61:282,1,127.500004863739,10|0,0:0|0:0,0:0:0:0:
264,384,17887,2,0,P|257:345|233:323,1,63.7500024318696,2|0,1:2|3:0,0:0:0:0:
354,249,18097,2,0,P|314:242|286:257,1,63.7500024318696,2|0,0:0|0:0,0:0:0:0:
197,245,18306,5,10,0:0:0:0:
482,379,18516,2,0,P|501:337|456:337,1,106.25,2|0,0:0|0:0,0:0:0:0:
450,373,18726,6,0,B|415:238|525:283|474:132,1,255.000009727478,2|0,1:2|3:0,0:0:0:0:
399,86,19146,2,0,P|351:125|347:187,1,127.500004863739,10|0,0:0|0:0,0:0:0:0:
53,99,19565,2,0,B|114:88|114:88|120:89|120:89|179:80,1,127.500004863739,2|0,1:2|0:0,0:0:0:0:
255,277,19880,5,2,0:0:0:0:
327,323,19985,2,0,P|339:352|335:393,1,63.7500024318696,10|0,0:0|0:0,0:0:0:0:
272,193,20195,6,0,B|277:156|277:156|279:153|279:153|287:93,1,85,2|0,0:0|0:0,0:0:0:0:
0,369,20404,6,0,B|-10:368|-10:368|185:339,1,191.250007295609,2|0,1:2|3:0,0:0:0:0:
238,288,20824,2,0,P|291:317|284:377,1,127.500004863739,10|0,0:0|0:0,0:0:0:0:
139,167,21244,2,0,L|115:39,1,127.500004863739,2|0,1:2|0:0,0:0:0:0:
139,167,21558,5,2,0:0:0:0:
68,220,21663,2,0,P|18:237|0:232,1,63.7500024318696,10|0,0:0|0:0,0:0:0:0:
225,126,21873,6,0,B|265:132|265:132|266:133|266:133|362:148,1,85,2|0,0:0|0:0,0:0:0:0:
486,177,22083,5,2,1:2:0:0:
443,241,22502,1,10,0:0:0:0:
485,177,22712,2,0,P|485:145|459:114,1,63.7500024318696,2|0,0:0|0:0,0:0:0:0:
349,369,22922,1,2,1:2:0:0:
272,323,23132,6,0,P|220:334|202:358,1,63.7500024318696,2|0,0:0|0:0,0:0:0:0:
38,264,23341,6,0,L|121:280,1,85,10|0,0:0|0:0,0:0:0:0:
212,210,23551,6,0,B|217:206|217:206|197:86,1,106.25,2|0,0:0|0:0,0:0:0:0:
180,16,23761,5,2,1:2:0:0:
272,323,23971,1,2,0:0:0:0:
512,168,24181,6,0,L|495:240,1,63.7500024318696,8|2,0:0|0:0,0:0:0:0:
434,154,24390,2,0,L|417:226,1,63.7500024318696,2|2,0:0|0:0,0:0:0:0:
487,85,24600,5,2,1:2:0:0:
487,85,24915,1,2,0:0:0:0:
411,67,25020,2,0,B|354:55|354:55|380:50,1,63.7500024318696,10|0,0:0|0:0,0:0:0:0:
487,85,25230,6,0,P|366:102|361:194,1,191.250007295609,2|0,0:0|0:0,0:0:0:0:
419,216,25439,6,2,B|366:133|249:119|163:183|163:183|192:207|191:231,2,340,2|10|2,1:2|0:0|1:2,0:0:0:0:
499,166,26488,1,2,0:0:0:0:
259,342,26698,2,0,B|179:348|179:348|177:352|177:352|89:359,1,170,10|0,0:0|0:0,0:0:0:0:
13,74,27118,6,0,L|18:35,1,31.8750012159348,6|0,1:2|3:0,0:0:0:0:
31,35,27327,1,2,0:0:0:0:
0,208,27537,2,0,P|43:165|103:178,1,127.500004863739,10|0,0:0|0:0,0:0:0:0:
259,342,27957,2,0,P|215:299|155:312,1,127.500004863739,2|0,1:2|0:0,0:0:0:0:
315,210,28271,5,2,0:0:0:0:
397,200,28376,2,0,L|473:192,1,63.7500024318696,10|0,0:0|0:0,0:0:0:0:
358,54,28586,6,0,B|353:93|353:93|354:97|354:97|346:152,1,85,2|0,0:0|0:0,0:0:0:0:
499,384,28796,6,0,P|467:299|368:316,1,191.250007295609,2|0,1:2|3:0,0:0:0:0:
322,358,29216,1,10,0:0:0:0:
124,190,29425,1,2,0:0:0:0:
0,308,29635,2,0,B|-10:307|-10:307|185:278,1,191.250007295609,2|2,1:2|0:0,0:0:0:0:
248,224,30055,6,0,P|253:193|242:163,1,63.7500024318696,10|0,0:0|0:0,0:0:0:0:
299,82,30265,6,0,P|267:55|225:52,1,85,2|0,0:0|0:0,0:0:0:0:
392,208,30474,6,0,L|420:8,1,191.250007295609,2|0,1:2|3:0,0:0:0:0:
471,238,30894,2,0,P|473:280|396:292,1,127.500004863739,10|0,0:0|0:0,0:0:0:0:
152,182,31313,2,0,B|213:171|213:171|219:172|219:172|278:163,1,127.500004863739,2|0,1:2|0:0,0:0:0:0:
362,150,31628,5,2,0:0:0:0:
320,14,31733,2,0,L|309:76,1,63.7500024318696,10|0,0:0|0:0,0:0:0:0:
279,280,31943,6,0,B|293:269|293:269|196:255,1,106.25,2|0,0:0|0:0,0:0:0:0:
58,232,32153,5,2,1:2:0:0:
58,232,32572,5,10,0:0:0:0:
26,130,32782,1,2,0:0:0:0:
153,315,32992,5,2,1:2:0:0:
211,39,33202,1,2,0:0:0:0:
258,99,33306,5,2,0:0:0:0:
265,103,33411,2,0,B|384:133|473:72|420:-16|312:15|365:143,1,318.75,10|0,0:0|3:0,0:0:0:0:
448,229,33831,6,0,P|449:196|457:163,1,68,2|10,1:2|0:0,0:0:0:0:
467,157,34460,1,2,0:0:0:0:
313,376,34670,2,0,P|349:325|410:325,1,127.500004863739,2|0,1:2|0:0,0:0:0:0:
481,374,34985,5,2,0:0:0:0:
231,303,35090,2,0,L|145:315,1,63.7500024318696,10|0,0:0|0:0,0:0:0:0:
344,224,35299,6,0,B|338:210|338:210|387:230|387:230|366:239,1,85,2|0,0:0|0:0,0:0:0:0:
250,73,35509,5,2,1:2:0:0:
232,148,35929,1,10,0:0:0:0:
250,73,36139,2,0,L|240:-3,1,63.7500024318696,2|0,0:0|3:0,0:0:0:0:
5,194,36348,2,0,B|36:165|58:157|58:157|93:156|127:169,1,127.500004863739,2|0,1:2|0:0,0:0:0:0:
282,262,36663,5,2,0:0:0:0:
204,365,36768,2,0,B|200:357|200:357|209:292,1,63.7500024318696,10|0,0:0|0:0,0:0:0:0:
351,218,36978,6,0,B|401:221|401:221|404:222|404:222|466:226,1,106.25,2|0,0:0|0:0,0:0:0:0:
351,218,37188,5,2,1:2:0:0:
339,134,37397,1,2,0:0:0:0:
327,49,37607,5,10,0:0:0:0:
260,11,37712,1,2,0:0:0:0:
193,48,37817,1,2,0:0:0:0:
188,124,37922,1,2,0:0:0:0:
250,169,38027,1,2,1:2:0:0:
64,308,38341,1,2,0:0:0:0:
41,349,38446,5,10,0:0:0:0:
41,264,38551,1,2,0:0:0:0:
114,306,38656,1,2,0:0:0:0:
471,363,38866,6,2,B|512:306|512:306|151:372,1,382.500014591218,2|0,1:2|3:0,0:0:0:0:
36,194,39285,2,2,B|-5:137|-5:137|356:203,1,382.500014591218,10|0,0:0|3:0,0:0:0:0:
384,127,39705,6,2,L|395:52,2,59.4999981842042,2|2|2,1:2|0:0|0:0,0:0:0:0:
3,356,40544,6,0,P|23:361|47:376,6,35.4166666666667,6|0|2|0|2|0|2,1:2|0:0|0:0|0:0|0:0|0:0|0:0,0:0:0:0:
496,262,40964,6,0,L|478:346,1,63.7500024318696,10|0,0:0|3:0,0:0:0:0:
395,208,41174,2,0,L|413:292,1,63.7500024318696,2|0,0:0|3:0,0:0:0:0:
318,257,41383,2,2,L|298:388,1,127.500004863739,2|0,1:2|0:0,0:0:0:0:
318,257,41698,5,2,0:0:0:0:
243,201,41803,2,0,P|232:178|294:136,1,101.999996887207,10|0,0:0|0:0,0:0:0:0:
166,258,42013,6,0,B|119:255|119:255|115:258|115:258|65:255,1,101.999996887207,2|0,0:0|0:0,0:0:0:0:
45,255,42223,6,2,L|63:339,1,63.7500024318696,2|0,1:2|3:0,0:0:0:0:
146,201,42642,2,2,L|128:285,1,63.7500024318696,10|0,0:0|3:0,0:0:0:0:
227,251,43062,2,2,L|239:387,1,127.500004863739,2|0,1:2|0:0,0:0:0:0:
227,251,43376,5,2,0:0:0:0:
293,199,43481,2,0,P|333:210|346:249,1,85,10|0,0:0|0:0,0:0:0:0:
420,295,43691,6,0,L|486:288,2,42.5,2|2|2,0:0|0:0|1:2,0:0:0:0:
82,12,44111,6,0,P|137:36|154:93,1,85,2|0,0:0|0:0,0:0:0:0:
229,17,44320,2,0,P|250:72|222:125,1,85,10|0,0:0|0:0,0:0:0:0:
333,109,44530,2,0,P|309:164|252:181,1,85,2|0,0:0|0:0,0:0:0:0:
227,251,44740,6,0,P|303:156|425:171,1,255.000009727478,2|0,1:2|0:0,0:0:0:0:
251,338,45055,1,2,0:0:0:0:
329,371,45160,6,0,P|384:347|401:290,1,85,10|0,0:0|0:0,0:0:0:0:
476,366,45369,2,0,P|497:310|469:257,1,85,2|0,0:0|0:0,0:0:0:0:
255,61,45579,6,2,P|9:152|279:204,2,680,2|10|2,1:2|0:0|1:2,0:0:0:0:
205,181,46733,5,2,0:0:0:0:
205,181,46838,2,2,P|145:92|183:205,1,339.149986027451,10|2,0:0|0:0,0:0:0:0:
466,366,47258,6,0,B|479:359|479:359|489:263|489:263|506:252,1,127.500004863739,2|10,1:2|0:0,0:0:0:0:
429,190,47887,2,0,B|416:197|416:197|406:293|406:293|389:304,1,127.500004863739,2|2,1:2|0:0,0:0:0:0:
392,301,48411,5,2,0:0:0:0:
466,366,48516,2,0,B|479:359|479:359|489:263|489:263|506:252,1,127.500004863739,10|0,0:0|0:0,0:0:0:0:
353,147,48726,2,0,B|340:154|340:154|330:250|330:250|313:261,1,127.500004863739,2|0,0:0|0:0,0:0:0:0:
135,51,48936,5,2,1:2:0:0:
135,51,49355,5,10,0:0:0:0:
64,212,49565,1,2,0:0:0:0:
201,9,49775,5,2,1:2:0:0:
4,166,49985,1,2,0:0:0:0:
64,212,50090,5,2,0:0:0:0:
74,219,50195,2,0,B|208:181|190:300|316:273,1,255,10|0,0:0|0:0,0:0:0:0:
397,241,50614,6,0,B|407:245|407:245|386:366,1,127.500004863739,2|2,1:2|0:0,0:0:0:0:
331,58,51034,2,0,B|330:61|330:61|342:134,1,63.7500024318696,8|2,0:0|0:0,0:0:0:0:
419,113,51244,2,0,B|420:110|420:110|408:37,1,63.7500024318696,2|2,0:0|0:0,0:0:0:0:
262,170,51453,2,0,B|177:182|201:115|102:132,1,170,2|0,1:2|0:0,0:0:0:0:
26,168,51768,1,2,0:0:0:0:
2,83,51873,6,0,P|15:34|59:8,1,85,10|0,0:0|0:0,0:0:0:0:
86,352,52083,1,2,0:0:0:0:
86,352,52292,6,2,B|235:313|235:313|236:310|236:310|465:251,1,382.500014591218,6|0,1:2|3:0,0:0:0:0:
441,343,52712,6,2,P|411:342|375:286,1,95.6250036478044,10|0,0:0|3:0,0:0:0:0:
489,1,53132,6,2,B|472:125|472:125|472:128|472:128|450:278,2,255.000009727478,2|2|10,1:2|0:0|0:0,0:0:0:0:
29,285,53971,5,8,0:3:0:0:
50,361,54181,1,0,0:0:0:0:
458,356,54390,5,0,0:0:0:0:
479,280,54600,1,0,0:0:0:0:
29,285,54810,5,0,0:0:0:0:
50,361,55020,1,0,0:0:0:0:
458,356,55230,5,0,0:0:0:0:
479,280,55439,1,0,0:0:0:0:
29,285,55649,5,0,0:0:0:0:
50,361,55859,1,0,0:0:0:0:
458,356,56069,5,0,0:0:0:0:
479,280,56278,1,0,0:0:0:0:
29,285,56488,5,0,0:0:0:0:
50,361,56698,1,0,0:0:0:0:
458,356,56908,5,2,0:0:0:0:
505,107,57118,1,2,0:0:0:0:
458,356,57327,6,0,P|469:229|505:107,2,255.000009727478,6|2|10,1:3|0:0|0:0,0:0:0:0:
216,120,57957,1,2,0:0:0:0:
16,242,58167,6,0,B|157:201|114:319|252:290,1,255,2|0,1:3|0:0,0:0:0:0:
326,237,58586,6,0,P|324:204|312:167,1,63.75,10|0,0:0|3:0,0:0:0:0:
216,120,59006,6,0,B|340:141|340:141|341:145|341:145|503:177,2,255.000009727478,2|2|10,1:3|0:0|0:0,0:0:0:0:
0,369,59635,6,0,P|30:259|137:298,1,255,2|0,1:3|0:0,0:0:0:0:
204,350,60055,6,0,L|257:344,1,31.8750012159348,2|0,0:0|0:0,0:0:0:0:
313,334,60265,2,0,L|366:328,1,31.8750012159348,10|0,0:0|0:0,0:0:0:0:
421,316,60474,2,0,L|474:310,1,31.8750012159348,2|0,0:0|0:0,0:0:0:0:
204,350,60684,6,0,L|257:344,1,31.8750012159348,6|0,1:3|3:0,0:0:0:0:
51,22,61104,6,0,L|7:365,1,340,10|0,0:0|0:0,0:0:0:0:
461,22,61523,2,0,L|505:365,1,340,2|0,1:3|0:0,0:0:0:0:
179,59,61838,1,2,0:0:0:0:
261,7,61943,2,0,L|234:360,1,340,10|0,0:0|0:0,0:0:0:0:
7,24,62362,6,0,L|51:362,1,340,2|0,1:3|0:0,0:0:0:0:
145,110,62782,2,0,L|105:376,1,170,10|0,0:0|0:0,0:0:0:0:
231,202,62992,2,0,L|260:393,1,170,2|0,0:0|0:0,0:0:0:0:
389,0,63202,2,0,L|331:359,1,340,2|2,1:3|0:0,0:0:0:0:
454,145,63516,1,2,0:0:0:0:
468,216,63621,2,0,L|490:384,1,170,10|0,0:0|0:0,0:0:0:0:
484,79,63831,2,0,L|450:245,1,170,2|0,0:0|0:0,0:0:0:0:
17,366,64041,6,0,P|78:223|159:256,2,255.000009727478,6|2|10,1:3|0:0|0:0,0:0:0:0:
344,180,64670,1,2,0:0:0:0:
199,23,64880,6,0,B|216:147|216:147|219:151|219:151|237:280,1,255.000009727478,2|0,1:3|0:0,0:0:0:0:
261,362,65299,6,0,P|317:365|313:309,1,127.5,10|0,0:0|3:0,0:0:0:0:
236,274,65719,6,0,P|379:296|480:349,2,255,2|2|10,1:3|0:0|0:0,0:0:0:0:
0,92,66348,6,0,B|90:92|113:186|113:186|94:93|173:52,1,318.75,2|0,1:3|0:0,0:0:0:0:
253,26,66768,6,0,L|251:39,1,10.625,2|0,0:0|0:0,0:0:0:0:
325,32,66978,2,0,L|323:45,1,10.625,10|0,0:0|0:0,0:0:0:0:
396,39,67188,2,0,L|394:52,1,10.625,2|0,0:0|0:0,0:0:0:0:
503,287,67397,6,2,P|346:292|218:384,1,318.75,6|0,1:3|0:0,0:0:0:0:
13,302,67817,2,0,P|65:311|143:372,1,106.25,10|0,0:0|0:0,0:0:0:0:
278,182,68027,2,0,P|243:221|220:269,1,106.25,2|0,0:0|0:0,0:0:0:0:
1,66,68237,2,2,P|82:132|123:229,1,212.5,2|0,1:3|0:0,0:0:0:0:
268,81,68551,1,2,0:0:0:0:
169,48,68656,6,0,P|173:100|192:150,1,106.25,10|0,0:0|0:0,0:0:0:0:
362,107,68866,2,0,P|357:54|338:4,1,106.25,2|2,0:0|0:0,0:0:0:0:
433,382,69076,6,2,B|516:326|516:326|205:382|205:382|292:323,1,510,6|2,1:3|0:0,0:0:0:0:
341,260,69495,6,0,L|336:220,1,31.8750012159348,10|0,0:0|0:0,0:0:0:0:
418,249,69705,2,0,L|413:209,1,31.8750012159348,2|0,0:0|0:0,0:0:0:0:
511,73,69915,6,2,B|505:75|505:75|120:29,1,365.500005577088,6|2,1:2|0:0,0:0:0:0:
0,370,70334,2,0,B|6:372|6:372|384:325,1,356.999989105225,14|0,0:0|0:0,0:0:0:0:
496,308,70754,5,4,1:3:0:0:
496,308,70964,2,0,L|491:276,1,29.7499990921021,2|10,0:2|0:0,0:0:0:0:
463,70,71383,1,2,0:0:0:0:
463,70,71593,2,0,L|468:102,1,29.7499990921021,2|0,1:2|0:0,0:0:0:0:
415,371,72013,2,0,L|420:339,1,29.7499990921021,10|0,0:0|0:0,0:0:0:0:
386,16,72432,6,0,L|362:187,1,170,2|0,1:2|0:0,0:0:0:0:
415,233,72852,1,10,0:0:0:0:
187,374,73062,2,0,B|217:339|258:322|258:322|303:330|343:356,1,170,2|0,1:2|0:0,0:0:0:0:
7,209,73481,6,0,P|30:205|21:179,1,42.5,2|0,0:0|0:0,0:0:0:0:
100,166,73691,2,0,P|113:146|88:134,1,42.5,10|0,0:0|0:0,0:0:0:0:
136,69,73901,2,0,P|132:46|106:55,1,42.5,2|0,0:0|0:0,0:0:0:0:
50,12,74111,1,2,1:2:0:0:
177,284,74530,1,10,0:0:0:0:
50,12,74740,1,2,0:0:0:0:
177,284,74950,1,2,1:2:0:0:
177,284,75369,1,10,0:0:0:0:
50,12,75579,1,2,0:0:0:0:
177,284,75789,1,2,1:2:0:0:
177,284,76209,1,10,0:0:0:0:
50,12,76418,1,2,0:0:0:0:
177,284,76628,2,0,B|263:270|263:270|268:271|268:271|351:258,1,170,2|0,1:2|0:0,0:0:0:0:
498,229,76943,5,2,0:0:0:0:
422,242,77048,2,0,L|463:250,2,42.5,10|0|2,0:0|0:0|0:0,0:0:0:0:
341,222,77362,1,2,0:0:0:0:
352,16,77467,6,0,P|404:78|402:164,1,165.749992412568,4|0,1:3|3:0,0:0:0:0:
341,222,77887,2,0,P|311:203|335:131,1,110.499994941712,10|0,0:0|0:0,0:0:0:0:
479,355,78306,6,0,B|450:351|450:351|449:352|449:352|376:341,1,63.7500024318696,2|0,1:2|3:0,0:0:0:0:
479,355,78516,1,2,0:0:0:0:
155,258,78726,6,0,B|184:254|184:254|185:255|185:255|258:244,1,63.7500024318696,10|0,0:2|3:0,0:0:0:0:
155,258,78936,1,2,0:0:0:0:
348,53,79146,6,0,B|352:80|352:80|351:81|351:81|362:154,1,63.7500024318696,2|0,1:2|3:0,0:0:0:0:
348,53,79355,1,2,0:0:0:0:
272,371,79565,6,0,P|261:358|283:368,1,63.7500024318696,10|0,0:0|0:0,0:0:0:0:
352,320,79775,2,2,P|255:316|184:372,1,191.250007295609,2|0,0:0|3:0,0:0:0:0:
105,332,80195,6,0,P|90:318|102:339,1,63.7500024318696,2|0,0:0|0:0,0:0:0:0:
128,217,80404,6,0,P|107:217|130:224,1,63.7500024318696,10|0,0:0|0:0,0:0:0:0:
31,132,80614,6,0,P|17:146|38:135,1,63.7500024318696,2|0,0:0|0:0,0:0:0:0:
113,58,80824,5,2,1:2:0:0:
113,58,81034,1,2,0:0:0:0:
113,58,81244,5,10,0:0:0:0:
191,73,81348,5,2,0:0:0:0:
269,89,81453,5,2,0:0:0:0:
347,104,81558,5,2,0:0:0:0:
425,120,81663,5,2,1:2:0:0:
425,120,81978,1,2,0:0:0:0:
476,188,82083,5,10,0:0:0:0:
472,219,82188,5,2,0:0:0:0:
468,251,82292,5,2,0:0:0:0:
464,282,82397,6,0,L|512:269,1,31.8750012159348,2|2,0:0|0:0,0:0:0:0:
457,320,82502,6,2,B|357:149|223:146|87:233|159:345|236:363|295:320,1,510.000019454957,6|10,1:2|0:0,0:0:0:0:
20,101,83132,1,2,0:0:0:0:
89,39,83341,2,2,L|35:290,2,255.000009727478,2|2|10,1:2|0:0|0:0,0:0:0:0:
281,328,83971,1,2,0:0:0:0:
496,222,84181,6,0,B|465:193|465:193|501:219,1,85,6|0,1:2|3:0,0:0:0:0:
64,64,85334,1,2,0:0:0:0:
64,64,85439,1,10,0:0:0:0:
164,259,85649,1,2,0:0:0:0:
96,320,85859,6,0,P|88:247|99:146,1,165.749992412568,6|0,1:2|3:3,0:0:0:0:
337,77,86278,1,10,0:0:0:0:
255,31,86488,2,0,P|263:86|259:141,2,110.499994941712,2|2|2,0:0|1:2|0:0,0:0:0:0:
470,311,87013,1,2,0:0:0:0:
396,353,87118,2,0,P|388:298|392:243,1,110.499994941712,10|0,0:0|0:0,0:0:0:0:
407,63,87537,6,0,P|415:136|404:237,1,165.749992412568,2|0,1:2|3:0,0:0:0:0:
132,352,87957,1,10,0:0:0:0:
216,384,88167,2,0,P|208:329|212:274,2,110.499994941712,2|2|2,0:0|1:2|0:0,0:0:0:0:
380,314,88691,1,2,0:0:0:0:
300,275,88796,2,0,P|295:329|302:384,1,110.499994941712,10|0,0:0|0:0,0:0:0:0:
96,64,89216,6,0,P|88:137|99:238,1,165.749992412568,2|0,1:2|3:0,0:0:0:0:
64,312,89635,2,0,P|27:302|36:216,1,110.499994941712,10|2,0:0|0:0,0:0:0:0:
235,112,90055,1,2,1:2:0:0:
183,363,90265,1,2,0:0:0:0:
262,306,90369,1,2,0:0:0:0:
177,355,90474,2,0,P|169:300|174:245,2,110.499994941712,10|0|2,0:0|0:0|1:2,0:0:0:0:
177,355,91313,6,0,P|169:300|174:245,1,110.499994941712,10|2,0:0|0:0,0:0:0:0:
371,123,91733,2,0,P|379:178|374:233,1,110.499994941712,2|2,1:2|0:0,0:0:0:0:
371,123,92048,1,2,0:0:0:0:
397,310,92153,2,0,P|446:294|450:242,2,110.499994941712,10|0|2,0:0|0:0|1:2,0:0:0:0:
72,155,92782,5,2,0:0:0:0:
108,256,92992,1,10,0:0:0:0:
141,73,93202,5,2,0:0:0:0:
39,351,93411,2,0,P|128:298|272:324,1,195.500003728867,2|0,1:2|0:0,0:0:0:0:
217,298,93726,1,2,0:0:0:0:
268,374,93831,2,0,P|298:357|279:274,2,97.7500018644333,10|0|2,0:0|0:0|0:0,0:0:0:0:
84,11,94251,6,0,L|93:79,1,50.9999984436036,2|0,1:2|0:0,0:0:0:0:
107,86,94460,2,0,L|98:18,1,50.9999984436036,2|0,0:0|0:0,0:0:0:0:
66,153,94670,5,10,0:0:0:0:
66,153,94775,1,2,0:0:0:0:
66,153,94880,1,2,0:0:0:0:
66,153,94985,1,2,0:0:0:0:
197,13,95090,5,2,1:2:0:0:
197,13,95404,5,2,0:0:0:0:
256,76,95509,1,10,0:0:0:0:
341,59,95614,1,2,0:0:0:0:
400,122,95719,1,2,0:0:0:0:
400,122,95929,6,2,L|431:115,1,25.5,2|0,0:0|3:0,0:0:0:0:
501,99,96348,6,2,B|381:71|381:71|377:69|377:69|324:56|324:56|355:170|355:170|355:175|355:175|381:278|381:278|231:249,1,510,2|0,0:0|3:0,0:0:0:0:
208,252,96768,6,2,L|213:284,1,25.5,2|0,0:0|3:0,0:0:0:0:
221,363,97188,6,2,B|367:171|169:-6|29:117|22:254|142:296,1,510,2|0,0:3|3:0,0:0:0:0:
75,352,97607,6,0,P|47:348|27:328,6,56.6666666666667,6|0|2|0|2|0|2,1:2|0:0|0:0|0:0|0:0|0:0|0:0,0:0:0:0:
503,197,98027,6,0,P|462:199|438:233,1,85,10|0,0:0|3:0,0:0:0:0:
367,285,98237,2,0,P|325:283|301:249,1,85,2|0,0:0|3:0,0:0:0:0:
223,209,98446,2,2,P|181:210|157:244,1,85,2|0,1:2|0:0,0:0:0:0:
74,221,98761,5,2,0:0:0:0:
157,242,98866,2,0,B|145:180|145:180|147:177|147:177|125:56,1,127.500004863739,10|0,0:0|0:0,0:0:0:0:
94,43,99076,6,0,B|106:15|101:-7|101:-7|103:17|131:35,1,101.999996887207,2|0,0:0|0:0,0:0:0:0:
136,117,99285,6,2,P|177:115|201:82,1,84.1499997431946,2|0,1:2|3:0,0:0:0:0:
272,31,99705,2,2,P|313:32|338:68,1,84.1499997431946,10|0,0:0|3:0,0:0:0:0:
413,117,100125,2,2,P|454:110|473:58,1,85,2|0,1:2|0:0,0:0:0:0:
413,117,100439,5,2,0:0:0:0:
419,194,100544,2,0,L|425:262,1,42.5,10|0,0:0|0:0,0:0:0:0:
429,335,100754,6,0,P|410:278|335:314,2,144.500002756119,2|0|2,0:0|0:0|1:2,0:0:0:0:
67,142,101174,6,0,B|74:68|0:101|85:159,1,106.25,2|0,0:0|0:0,0:0:0:0:
141,199,101383,2,0,B|201:242|210:161|117:206,1,106.25,10|0,0:0|0:0,0:0:0:0:
59,234,101593,2,0,B|-8:264|56:312|64:209,1,106.25,2|0,0:0|0:0,0:0:0:0:
93,195,101803,6,0,P|177:221|200:387,1,255.000009727478,2|0,1:2|0:0,0:0:0:0:
400,183,102118,1,2,0:0:0:0:
355,248,102223,6,0,L|352:270,1,21.25,10|0,0:0|0:0,0:0:0:0:
427,255,102432,2,0,L|424:277,1,21.25,2|0,0:0|0:0,0:0:0:0:
448,32,102642,6,2,B|479:40|479:40|411:364|411:364|454:379,2,396.100015865517,2|10|2,1:2|0:0|1:2,0:0:0:0:
28,191,103796,5,2,0:0:0:0:
100,236,103901,2,2,P|163:239|211:146,2,170,10|2|2,0:0|0:0|1:2,0:0:0:0:
326,9,104740,5,10,0:0:0:0:
388,57,104950,2,2,B|412:50|412:50|385:64|385:64|179:29,1,255.000009727478,2|2,1:2|0:0,0:0:0:0:
90,24,105474,5,2,0:0:0:0:
90,24,105579,2,0,P|108:51|104:119,1,85,10|0,0:0|0:0,0:0:0:0:
41,120,105789,2,0,P|23:93|27:25,1,85,2|0,0:0|0:0,0:0:0:0:
37,380,105999,5,2,1:2:0:0:
37,379,106418,2,0,P|117:353|202:348,1,170,10|2,0:0|0:0,0:0:0:0:
307,270,106838,2,0,P|350:276|354:393,1,170,2|2,1:2|0:0,0:0:0:0:
213,247,107153,1,2,0:0:0:0:
213,247,107258,2,0,B|177:177|209:94|264:72|264:72|244:94|244:121,1,255,8|0,0:0|0:0,0:0:0:0:
244,118,107677,6,0,L|34:150,1,170,2|2,1:2|0:0,0:0:0:0:
309,309,108097,6,0,L|519:277,1,170,8|2,0:0|0:0,0:0:0:0:
244,118,108306,2,0,L|34:150,1,170,2|2,0:0|0:0,0:0:0:0:
309,309,108516,6,0,L|519:277,1,170,2|0,1:2|3:0,0:0:0:0:
318,102,108831,5,2,0:0:0:0:
244,118,108936,2,0,L|34:150,1,170,10|0,0:0|0:0,0:0:0:0:
309,309,109146,2,0,L|517:278,1,169.574993013726,2|0,0:0|0:0,0:0:0:0:
495,268,109355,6,2,B|325:204|358:380|181:329,1,339.149986027451,6|0,1:2|3:0,0:0:0:0:
19,277,109775,2,2,B|-30:213|34:149|116:170|177:248|114:349|13:384,1,339.149986027451,10|0,0:0|3:0,0:0:0:0:
19,277,110195,2,0,L|37:165,2,113.049995342484,2|0|2,1:2|0:0|0:0,0:0:0:0:
190,30,110509,1,0,0:0:0:0:
1,98,110614,2,2,B|56:121|110:92|110:92|146:132|201:148|201:148|263:131|315:159,1,339.149986027451,10|0,0:0|0:3,0:0:0:0:
424,183,111034,6,0,L|399:32,1,127.500004863739,8|0,0:3|0:0,0:0:0:0:
465,13,111453,1,0,0:0:0:0:
392,264,111663,2,0,L|241:288,1,127.500004863739,0|0,0:0|0:0,0:0:0:0:
208,338,112083,1,0,0:0:0:0:
512,384,112292,2,0,L|361:360,1,127.500004863739,0|0,0:0|0:0,0:0:0:0:
60,181,112712,6,0,L|86:328,1,127.500004863739,0|0,0:0|0:0,0:0:0:0:
10,353,113132,1,0,0:0:0:0:
74,300,113341,2,0,L|206:325,1,127.500004863739,0|0,0:0|0:0,0:0:0:0:
0,238,113761,1,0,0:0:0:0:
143,384,113971,2,0,L|275:359,1,127.500004863739,2|2,0:0|0:0,0:0:0:0:
462,381,114390,6,0,P|481:266|368:236,2,255.000009727478,6|2|10,1:3|0:0|0:0,0:0:0:0:
139,165,115020,1,2,0:0:0:0:
269,35,115230,6,0,B|284:107|241:161|241:161|269:281,1,255,2|0,1:3|0:0,0:0:0:0:
268,372,115649,6,0,P|223:376|200:337,1,95.6250036478044,10|0,0:0|0:3,0:0:0:0:
269,280,116069,6,0,B|185:293|185:293|182:295|182:295|29:320,1,170,2|0,1:3|0:0,0:0:0:0:
14,318,116278,6,0,B|26:253|26:253|33:300,1,85,2|0,0:0|3:0,0:0:0:0:
14,318,116488,2,0,B|2:383|2:383|-5:336,1,85,10|0,0:0|0:0,0:0:0:0:
132,166,116698,6,0,P|151:77|3:75,1,255,2|0,1:3|0:0,0:0:0:0:
76,108,117118,6,0,B|248:81|248:81|251:82|251:82|449:52,3,340,2|10|2|6,0:0|0:0|0:0|1:3,0:0:0:0:
76,108,118167,6,0,L|63:170,1,63.75,10|0,0:0|3:0,0:0:0:0:
68,98,118586,2,0,L|84:20,1,63.75,2|0,1:3|3:0,0:0:0:0:
406,202,119006,6,0,L|418:264,1,63.75,10|0,0:0|3:0,0:0:0:0:
414,192,119425,2,0,L|398:114,1,63.75,2|0,1:3|3:0,0:0:0:0:
188,340,119845,6,0,L|258:-41,2,340,10|2|2,0:0|0:0|1:2,0:0:0:0:
140,278,120369,1,2,0:0:0:0:
188,340,120474,6,0,P|146:360|100:346,1,63.7500024318696,2|2,0:0|0:0,0:0:0:0:
284,252,120684,6,0,P|274:212|279:170,1,85,10|0,0:0|0:0,0:0:0:0:
395,328,120894,6,0,P|447:334|488:366,1,106.25,2|0,0:0|0:0,0:0:0:0:
364,205,121104,6,0,P|236:220|191:361,2,255.000009727478,6|2|10,1:3|0:0|0:0,0:0:0:0:
413,260,121733,1,2,0:0:0:0:
206,62,121943,6,0,L|217:131,1,63.75,2|0,1:3|0:0,0:0:0:0:
158,182,122362,6,0,B|93:233|-36:236|-45:96|47:59|105:127,1,318.75,10|0,0:0|0:0,0:0:0:0:
102,106,122782,6,0,L|78:-18,1,85,2|0,1:3|0:0,0:0:0:0:
0,281,122992,6,0,B|59:270|59:270|62:266|62:266|143:252,1,127.500004863739,2|0,0:0|0:0,0:0:0:0:
215,238,123202,6,0,B|304:223|304:223|206:213,1,127.500004863739,10|0,0:0|0:0,0:0:0:0:
158,182,123411,6,0,B|173:275|173:275|176:278|176:278|192:383,1,191.250007295609,2|0,1:3|0:0,0:0:0:0:
189,369,123831,2,0,P|231:367|191:352,1,85,2|0,0:0|0:0,0:0:0:0:
3,238,124041,6,0,L|-2:305,1,42.5,10|0,0:0|3:3,0:0:0:0:
12,302,124251,2,0,L|17:235,1,42.5,2|0,0:0|0:0,0:0:0:0:
27,38,124460,6,0,P|130:41|194:196,1,255.000009727478,6|0,1:3|0:0,0:0:0:0:
407,63,124775,1,2,0:0:0:0:
505,79,124880,2,0,P|444:99|437:204,1,127.500004863739,10|0,0:0|0:0,0:0:0:0:
321,162,125090,2,0,P|382:182|389:287,1,127.500004863739,2|0,0:0|0:0,0:0:0:0:
512,259,125299,2,0,P|409:262|345:417,1,255.000009727478,2|0,1:3|0:0,0:0:0:0:
87,246,125614,1,2,0:0:0:0:
186,223,125719,6,0,P|125:203|118:98,1,127.500004863739,10|0,0:0|0:0,0:0:0:0:
2,140,125929,2,0,P|63:120|70:15,1,127.500004863739,2|2,0:0|0:0,0:0:0:0:
80,47,126086,1,2,0:0:0:0:
72,29,126139,6,0,L|8:38,1,57.374998249054,6|0,1:3|0:0,0:0:0:0:
35,368,126558,6,0,B|-8:159,1,170,10|0,0:0|0:0,0:0:0:0:
124,314,126768,2,0,L|153:131,1,170,2|0,0:0|0:0,0:0:0:0:
237,373,126978,2,0,L|187:10,1,340,6|0,1:2|0:0,0:0:0:0:
243,104,127292,1,2,0:0:0:0:
498,155,127397,6,0,B|225:63|301:341|30:252,1,510,14|0,0:0|0:0,0:0:0:0:
243,104,127817,1,4,1:3:0:0:
0,0,128027,6,0,L|8:42,1,31.8750012159348,2|0,0:0|3:3,0:0:0:0:
0,0,128237,1,10,0:0:0:0:
84,67,128446,6,0,L|76:106,1,31.8750012159348,2|0,0:0|3:3,0:0:0:0:
84,67,128656,1,2,1:2:0:0:
5,144,129076,6,0,L|15:200,1,31.8750012159348,10|0,0:0|3:0,0:0:0:0:
89,211,129495,6,0,L|78:267,1,31.8750012159348,2|0,1:3|3:0,0:0:0:0:
89,211,129915,5,10,0:0:0:0:
20,376,130125,2,0,L|6:282,1,95.6250036478044,2|0,1:2|0:0,0:0:0:0:
6,282,130544,6,0,P|40:296|18:299,1,106.25,2|0,0:0|0:0,0:0:0:0:
119,355,130754,6,0,B|166:346|166:346|170:344|170:344|229:332,1,106.25,10|0,0:0|0:0,0:0:0:0:
220,320,130964,2,0,B|167:330|167:330|164:332|164:332|116:341,1,106.25,2|0,0:0|0:0,0:0:0:0:
355,384,131174,6,0,B|377:284|377:284|382:330,1,127.5,2|0,1:2|3:0,0:0:0:0:
392,312,131593,1,10,0:0:0:0:
267,197,131803,1,2,0:0:0:0:
392,312,132013,6,0,B|370:212|370:212|365:258,1,127.5,2|0,1:2|3:0,0:0:0:0:
355,240,132432,1,10,0:0:0:0:
480,125,132642,1,2,0:0:0:0:
355,240,132852,6,0,B|377:140|377:140|382:186,1,127.5,2|0,1:2|3:0,0:0:0:0:
392,168,133271,1,10,0:0:0:0:
267,53,133481,1,2,0:0:0:0:
491,369,133691,6,0,P|398:283|267:303,1,255.000009727478,2|0,1:2|0:0,0:0:0:0:
221,361,134006,1,2,0:0:0:0:
221,361,134111,2,0,B|192:341|157:362|157:362|192:341|192:294,2,127.500004863739,10|0|2,0:0|0:0|0:0,0:0:0:0:
6,163,134530,6,0,P|102:146|172:25,1,191.250007295609,6|0,1:3|0:0,0:0:0:0:
227,14,134950,2,0,B|235:76|235:76|234:78|234:78|245:150,1,127.500004863739,10|0,0:0|0:0,0:0:0:0:
256,384,135369,6,0,L|260:356,1,21.25,2|0,1:2|3:0,0:0:0:0:
184,371,135789,6,0,L|188:343,1,21.25,10|0,0:2|3:0,0:0:0:0:
113,359,136209,6,0,L|117:331,1,21.25,2|0,1:2|3:0,0:0:0:0:
113,359,136628,5,10,0:0:0:0:
49,298,136838,2,2,B|4:248|-10:131|82:116|122:157|121:191|100:214,1,255,2|0,0:0|3:0,0:0:0:0:
119,219,137258,6,0,B|134:218|134:218|137:215|137:215|164:215,1,42.5,2|0,0:0|0:0,0:0:0:0:
238,206,137467,6,0,B|253:205|253:205|256:202|256:202|283:202,1,42.5,10|0,0:0|0:0,0:0:0:0:
358,191,137677,6,0,B|373:190|373:190|376:187|376:187|403:187,1,42.5,2|0,0:0|0:0,0:0:0:0:
478,174,137887,5,2,1:2:0:0:
10,64,138097,1,2,0:0:0:0:
237,26,138306,5,10,0:0:0:0:
305,48,138411,1,2,0:0:0:0:
303,120,138516,1,2,0:0:0:0:
234,142,138621,1,2,0:0:0:0:
193,82,138726,5,2,1:2:0:0:
490,18,138936,1,2,0:0:0:0:
416,284,139146,5,10,0:0:0:0:
402,208,139251,1,2,0:0:0:0:
386,133,139355,2,0,L|398:57,1,42.5,2|0,0:0|0:0,0:0:0:0:
355,361,139565,6,0,P|398:195|513:314,1,382.500014591218,6|0,1:2|0:0,0:0:0:0:
81,92,139985,2,0,L|115:248,1,127.500004863739,10|0,0:0|0:0,0:0:0:0:
206,200,140195,2,0,L|178:324,1,127.500004863739,2|0,0:0|0:0,0:0:0:0:
80,309,140404,6,0,L|93:384,2,76.4999976654053,2|2|2,1:2|0:0|1:1,0:0:0:0:
145,307,152992,5,2,0:0:0:0:
154,297,153202,1,2,0:0:0:0:
131,84,153411,5,2,0:0:0:0:
141,93,153621,1,2,0:0:0:0:
367,77,153831,5,2,0:0:0:0:
358,87,154041,1,2,0:0:0:0:
381,300,154251,5,2,0:0:0:0:
371,291,154460,1,2,0:0:0:0:
281,125,154670,6,2,B|239:32|239:32|272:351|272:351|230:258,1,510.000019454957,6|0,1:3|3:0,0:0:0:0:
177,171,155090,6,0,L|176:165,1,4.25,8|0,0:0|3:0,0:0:0:0:
177,171,155299,6,2,B|96:208|96:208|415:175|415:175|322:217,1,510.000019454957
129,340,155929,6,0,L|130:346,2,4.25,8|0|0,0:0|0:0|0:0,0:0:0:0:
129,340,156348,6,2,B|80:363|-32:350|-82:222|-66:63|90:49|205:68|201:224|113:237,1,510,4|0,1:3|3:0,0:0:0:0:
251,279,156768,6,0,L|250:274,1,4.25,8|0,0:0|3:0,0:0:0:0:
465,351,156978,6,2,B|520:302|498:209|394:131|226:227|353:423|99:330,2,510,4|2|2,1:3|0:0|0:0,0:0:0:0:
455,331,157660,6,0,B|450:309|427:301|427:301|422:323|439:342,5,85
361,112,158027,5,2,0:0:0:0:
90,96,160754,6,0,B|125:91|125:91|128:90|128:90|203:81,1,85,6|0,0:0|3:0,0:0:0:0:
352,26,160964,6,0,B|356:61|356:61|357:64|357:64|366:139,1,85,14|0,0:0|3:0,0:0:0:0:
422,288,161174,6,0,B|386:292|386:292|383:293|383:293|308:302,1,85,6|0,0:0|3:0,0:0:0:0:
159,358,161383,6,0,B|155:322|155:322|154:319|154:319|149:273,1,85.4249959592058,6|0,1:3|3:0,0:0:0:0:
159,358,161803,6,0,B|192:283|285:252|371:289|371:289|297:269|218:330,1,340.425011817427,10|0,0:0|3:0,0:0:0:0:
463,122,162223,2,0,B|465:65|520:25|520:25|450:46|403:142|442:207,1,340.425011817427,2|0,1:3|3:0,0:0:0:0:
474,363,162642,6,0,P|494:335|470:362,1,113.475003939142,10|0,0:0|3:0,0:0:0:0:
332,229,162852,6,0,P|315:193|329:232,1,127.500004863739,2|0,0:0|3:0,0:0:0:0:
149,381,163062,6,0,P|200:280|43:312,1,340.425011817427,2|0,1:3|0:0,0:0:0:0:
123,305,163481,6,0,P|100:143|-15:-2,2,340,10|2|2,0:0|1:2|1:2,0:0:0:0:
487,127,164111,2,0,B|425:109|425:109|423:110|423:110|363:94,1,127.500004863739,2|0,0:3|0:0,0:0:0:0:
487,127,164320,1,10,0:0:0:0:
404,23,164530,2,0,B|342:41|342:41|340:40|340:40|280:56,1,127.500004863739,2|0,0:0|0:0,0:0:0:0:
7,147,164740,6,0,B|51:105|139:116|169:191|169:191|169:199|169:199|195:266|268:283|320:248,1,382.500014591218,6|0,1:3|0:0,0:0:0:0:
7,147,165160,1,10,0:0:0:0:
352,181,165369,6,0,P|371:175|337:229,1,127.500004863739,2|0,0:0|3:0,0:0:0:0:
314,251,165579,6,0,L|357:-24,1,255.000009727478,2|2,1:3|0:0,0:0:0:0:
420,45,165999,2,0,B|400:65|400:65|204:42|204:42|178:70,1,255,10|0,0:0|0:0,0:0:0:0:
113,108,166418,6,0,P|52:106|28:38,1,127.500004863739,2|0,1:3|0:0,0:0:0:0:
117,118,166628,6,0,B|120:177|120:177|118:180|118:180|122:268,1,127.500004863739,2|0,0:0|0:0,0:0:0:0:
123,348,166838,2,0,B|124:371|124:371|94:361|109:324,1,63.7500024318696,10|0,0:0|0:0,0:0:0:0:
219,290,167048,6,0,B|359:243|329:370|460:336,1,255,2|0,1:3|3:0,0:0:0:0:
466,325,167467,6,0,P|423:328|390:354,1,85,2|2,0:0|0:0,0:0:0:0:
411,116,167677,2,0,B|422:138|422:138|399:274,1,127.500004863739,10|0,0:0|0:0,0:0:0:0:
411,116,167887,1,2,0:0:0:0:
472,32,168097,6,0,P|311:113|190:81,1,255,6|0,1:2|0:0,0:0:0:0:
140,28,168516,2,0,B|150:93|150:93|153:98|153:98|161:153,1,127.500004863739,10|2,0:0|0:0,0:0:0:0:
308,87,168726,1,2,0:0:0:0:
261,38,168831,1,2,0:0:0:0:
242,104,168936,6,0,B|229:185|229:185|226:190|226:190|211:292,1,170,2|2,1:3|0:0,0:0:0:0:
195,359,169251,1,0,0:0:0:0:
56,353,169355,6,0,P|84:304|175:335,1,106.25,10|0,0:0|0:0,0:0:0:0:
404,298,169565,2,0,P|376:347|285:316,1,106.25,2|2,0:0|0:0,0:0:0:0:
320,349,169723,1,2,0:0:0:0:
311,342,169775,6,0,L|361:56,1,255.000009727478,6|2,1:3|0:0,0:0:0:0:
425,167,170090,1,0,0:0:0:0:
512,136,170195,2,0,L|488:10,1,127.500004863739,10|0,0:0|0:0,0:0:0:0:
484,363,170404,2,0,L|513:238,1,127.500004863739,2|0,1:2|0:0,0:0:0:0:
241,141,170614,5,2,1:3:0:0:
279,74,170719,1,2,0:0:0:0:
354,90,170824,1,2,1:2:0:0:
362,166,170929,1,2,0:0:0:0:
292,196,171034,5,10,0:0:0:0:
217,154,171139,5,2,1:2:0:0:
143,213,171244,5,2,1:2:0:0:
78,121,171348,5,2,1:2:0:0:
19,224,171453,6,0,L|27:261,1,34,6|10,1:3|0:0,0:0:0:0:
26,265,172083,1,2,0:0:0:0:
96,207,172292,6,0,L|103:244,1,34.4250008404541,2|0,1:3|3:0,0:0:0:0:
25,384,172712,6,0,B|130:217|294:308|260:448|126:394|112:311,1,382.500014591218,10|0,0:0|0:0,0:0:0:0:
103,241,173132,6,0,L|96:206,1,34,2|2,1:3|0:0,0:0:0:0:
26,257,173551,6,0,L|18:221,1,34,10|2,0:0|1:2,0:0:0:0:
186,102,174181,6,0,L|187:93,1,8.5,2|0,0:0|0:0,0:0:0:0:
256,117,174390,2,0,L|257:108,1,8.5,10|0,0:0|0:0,0:0:0:0:
327,132,174600,2,0,L|328:123,1,8.5,2|0,0:0|0:0,0:0:0:0:
418,77,174810,6,0,B|396:65|396:65|125:168|125:168|95:156,1,340,10|0,1:3|0:0,0:0:0:0:
22,7,175230,6,0,B|135:354,1,340,10|0,0:0|0:0,0:0:0:0:
490,7,175649,2,0,B|377:354,1,340,2|0,1:3|0:0,0:0:0:0:
168,52,175964,1,2,0:0:0:0:
240,3,176069,2,0,B|253:168|253:168|254:171|254:171|267:343,1,340,10|0,0:0|0:0,0:0:0:0:
0,8,176488,6,0,B|13:173|13:173|14:176|14:176|27:348,1,340,2|0,1:3|0:0,0:0:0:0:
216,198,176908,2,0,P|201:249|88:253,1,170,10|0,0:0|0:0,0:0:0:0:
271,312,177118,2,0,B|348:330|348:330|353:333|353:333|467:358,1,170,2|0,0:0|0:0,0:0:0:0:
507,78,177327,6,0,B|301:154|301:154|255:112|255:112|288:132|331:122,1,340,2|2,1:3|0:0,0:0:0:0:
471,195,177642,1,2,0:0:0:0:
379,231,177747,2,0,P|393:147|430:70,1,170,10|0,0:0|0:0,0:0:0:0:
496,319,177957,2,0,B|418:337|418:337|414:340|414:340|300:365,1,170,2|0,0:0|0:0,0:0:0:0:
15,201,178167,6,0,P|79:205|138:229,1,127.5,6|0,1:3|0:0,0:0:0:0:
148,218,178586,1,10,0:0:0:0:
313,86,178796,1,2,0:0:0:0:
386,134,179006,6,0,P|322:138|263:162,1,127.5,2|0,1:3|0:0,0:0:0:0:
182,187,179425,6,0,B|75:85|153:-38|264:23|224:88,1,297.075011899138,10|0,0:0|3:0,0:0:0:0:
246,270,179845,6,0,B|127:296|127:296|122:301|122:301|-1:328,2,255.000009727478,2|2|10,1:3|0:0|0:0,0:0:0:0:
499,229,180474,6,0,P|462:145|341:175,1,191.250007295609,2|0,1:3|0:0,0:0:0:0:
301,103,180894,2,0,B|296:93|296:93|310:10|310:10|304:2,1,106.25,2|0,0:0|0:0,0:0:0:0:
301,103,181104,1,10,0:0:0:0:
215,1,181313,2,0,B|220:11|220:11|206:94|206:94|212:102,1,106.25,2|0,0:0|0:0,0:0:0:0:
13,229,181523,6,0,P|50:145|171:175,1,191.250007295609,6|0,1:3|3:0,0:0:0:0:
201,199,181943,2,0,L|192:262,1,63.7500024318696,10|0,0:0|0:0,0:0:0:0:
127,28,182153,1,2,0:0:0:0:
189,76,182258,1,0,0:0:0:0:
119,106,182362,6,0,B|225:78|225:78|227:75|227:75|326:47,1,211.650003068047,2|2,1:3|0:0,0:0:0:0:
391,98,182782,2,0,P|418:66|407:27,1,85,10|0,0:0|0:0,0:0:0:0:
329,154,182992,2,0,L|342:261,1,85,2|2,0:0|0:0,0:0:0:0:
349,334,183149,1,0,0:0:0:0:
352,351,183202,6,0,B|209:225|209:225|35:307,1,382.500014591218,6|0,1:3|0:0,0:0:0:0:
0,222,183621,6,0,L|57:31,1,127.500004863739,10|0,0:0|0:0,0:0:0:0:
242,371,183831,2,0,B|232:377|232:377|116:363,1,127.500004863739,2|0,0:0|0:0,0:0:0:0:
283,184,184041,5,6,1:2:0:0:
365,164,184146,1,2,0:0:0:0:
384,247,184251,1,2,0:0:0:0:
302,266,184355,1,2,0:0:0:0:
335,214,184460,6,0,B|441:112|441:112|-37:246,1,510,14|0,0:0|0:0,0:0:0:0:
13,238,184880,6,0,B|7:279|7:279|8:282|8:282|-2:344,1,85,6|0,1:2|3:0,0:0:0:0:
13,238,185090,5,2,0:0:0:0:
113,81,185299,1,10,0:0:0:0:
91,209,185509,1,2,0:0:0:0:
231,83,185719,1,2,1:2:0:0:
209,211,185929,1,2,0:0:0:0:
441,145,186139,6,0,B|348:125|379:179|272:157,1,165.749992412568,10|0,0:2|3:1,0:1:0:0:
441,145,186558,1,2,1:2:0:0:
441,145,186978,5,10,0:0:0:0:
402,311,187188,1,2,0:0:0:0:
235,273,187397,1,2,0:0:0:0:
274,106,187607,1,2,0:0:0:0:
33,183,187817,6,0,B|60:178|57:187|88:182,1,55.2499974708558,10|0,0:0|0:0,0:0:0:0:
165,181,188027,2,0,B|192:176|189:185|220:180,1,55.2499974708558,2|0,0:0|0:0,0:0:0:0:
219,180,188237,1,6,1:2:0:0:
495,16,188446,5,2,0:0:0:0:
407,36,188656,5,10,0:0:0:0:
329,122,188866,5,2,0:0:0:0:
315,256,189076,5,2,1:2:0:0:
435,373,189285,5,2,0:0:0:0:
512,190,189495,6,0,B|448:183|474:208|398:204,2,110.499994941712,10|2|6,0:0|0:0|1:2,0:0:0:0:
512,190,190125,5,2,0:0:0:0:
451,131,190334,5,10,0:0:0:0:
384,220,190544,5,2,0:0:0:0:
285,113,190754,5,2,1:2:0:0:
212,261,190964,5,2,0:0:0:0:
212,261,191069,1,2,0:0:0:0:
212,261,191174,2,0,P|174:256|155:231,1,63.7500024318696,10|2,0:0|0:0,0:0:0:0:
91,276,191383,2,0,P|69:254|70:202,1,63.7500024318696,2|2,0:0|0:0,0:0:0:0:
97,155,191593,5,2,1:2:0:0:
97,155,192013,1,10,0:0:0:0:
97,155,192432,6,0,B|112:159|112:159|115:162|115:162|158:174,1,55.2499974708558,2|0,1:2|3:0,0:0:0:0:
97,155,192852,2,0,B|86:165|86:165|81:167|81:167|50:198,1,55.2499974708558,10|0,0:0|3:0,0:0:0:0:
97,155,193271,2,0,B|92:140|92:140|94:135|94:135|82:92,1,55.2499974708558,2|0,1:2|3:0,0:0:0:0:
68,31,193691,5,10,0:0:0:0:
68,31,194111,1,2,1:2:0:0:
68,31,194320,6,0,P|56:58|55:106,1,63.7500024318696,2|0,0:0|0:0,0:0:0:0:
127,110,194530,2,0,P|139:83|140:35,1,63.7500024318696,10|0,0:0|0:0,0:0:0:0:
68,31,194740,2,0,P|56:58|55:106,1,63.7500024318696,2|0,0:0|0:0,0:0:0:0:
179,188,194950,5,2,1:2:0:0:
293,163,195160,1,2,0:0:0:0:
293,163,195369,5,10,0:0:0:0:
361,181,195474,1,2,0:0:0:0:
293,163,195579,1,2,0:0:0:0:
361,181,195684,1,2,0:0:0:0:
293,163,195789,1,2,1:2:0:0:
361,181,196209,5,10,0:0:0:0:
361,181,196418,1,2,0:0:0:0:
385,175,196523,1,2,0:0:0:0:
410,170,196628,6,2,B|364:120|373:107|368:101|350:120|338:85|341:112|313:118|294:158|277:129|273:125|272:118|272:128|270:134|266:133|265:128|264:123|263:119|253:120|249:122|248:124|250:128|254:130|259:133|256:136|249:136|241:126|239:122|235:122|231:124|231:129|233:132|236:135|241:133|241:129|195:117|192:132|165:149|188:190|177:194|169:209|200:246|218:229,3,340
