osu file format v14

[General]
AudioFilename: audio.mp3
AudioLeadIn: 0
PreviewTime: 56811
Countdown: 0
SampleSet: Soft
StackLeniency: 0.3
Mode: 0
LetterboxInBreaks: 0
WidescreenStoryboard: 0

[Editor]
Bookmarks: 13659,40512,57295,84149,97575,114358,141212,157995,161351,184848
DistanceSpacing: 1.5
BeatDivisor: 4
GridSize: 32
TimelineZoom: 1.7

[Metadata]
Title:Toxic
TitleUnicode:Toxic
Artist:Britney Spears
ArtistUnicode:Britney Spears
Creator:schoolboy
Version:Frakturehawkens' Hard
Source:
Tags:komore emilia estellia- Frakturehawkens shmiklak marvollo m_a_r_v_o_l_l_o djulus english pop
BeatmapID:2249351
BeatmapSetID:1061947

[Difficulty]
HPDrainRate:4
CircleSize:4
OverallDifficulty:6
ApproachRate:7.7
SliderMultiplier:1.5
SliderTickRate:1

[Events]
//Background and Video events
0,0,"britney.jpg",0,0
Video,-11,"y2mate.com - Britney Spears - Toxic (Official Music Video)_LOZuxwVk7TU_360p (1).mp4"
//Break Periods
2,54171,56277
2,111234,113340
2,141444,146907
//Storyboard Layer 0 (Background)
//Storyboard Layer 1 (Fail)
//Storyboard Layer 2 (Pass)
//Storyboard Layer 3 (Foreground)
//Storyboard Layer 4 (Overlay)
//Storyboard Sound Samples

[TimingPoints]
265,419.58041958042,4,2,1,43,1,0
265,-125,4,2,1,43,0,0
13691,-100,4,2,1,43,0,0
15369,-100,4,2,1,55,0,0
23761,-90.9090909090909,4,2,1,55,0,0
25439,-71.4285714285714,4,2,1,55,0,0
27118,-100,4,2,1,55,0,0
37188,-90.9090909090909,4,2,1,55,0,0
38866,-71.4285714285714,4,2,1,55,0,0
40544,-90.9090909090909,4,2,1,55,0,0
47677,-166.666666666667,4,2,1,55,0,0
50614,-90.9090909090909,4,2,1,55,0,0
52292,-71.4285714285714,4,2,1,55,0,0
53971,-71.4285714285714,4,2,3,33,0,0
54076,-71.4285714285714,4,2,1,33,0,0
56908,-71.4285714285714,4,2,1,60,0,0
57327,-83.3333333333333,4,2,1,69,0,0
69076,-71.4285714285714,4,2,1,69,0,0
70964,-83.3333333333333,4,2,1,69,0,0
80824,-83.3333333333333,4,2,1,74,0,0
82502,-71.4285714285714,4,2,1,74,0,0
84181,-100,4,2,1,74,0,0
85334,-100,4,2,1,55,0,0
94251,-90.9090909090909,4,2,1,55,0,0
97607,-90.9090909090909,4,2,1,55,0,0
104740,-166.666666666667,4,2,1,55,0,0
107677,-90.9090909090909,4,2,1,55,0,0
109303,-90.9090909090909,4,2,1,5,0,0
109355,-71.4285714285714,4,2,1,55,0,0
111034,-71.4285714285714,4,2,3,33,0,0
111086,-71.4285714285714,4,2,1,33,0,0
113971,-71.4285714285714,4,2,1,60,0,0
114390,-83.3333333333333,4,2,1,69,0,0
126139,-71.4285714285714,4,2,1,69,0,0
128027,-83.3333333333333,4,2,1,69,0,0
139565,-71.4285714285714,4,2,1,69,0,0
147957,-222.222222222221,4,2,1,55,0,0
155509,-100,4,2,1,55,0,0
156348,-76.9230769230769,4,2,1,55,0,0
157607,-222.222222222221,4,2,1,55,0,0
161383,-83.3333333333333,4,2,1,69,0,0
169775,-71.4285714285714,4,2,1,69,0,0
171453,-83.3333333333333,4,2,1,69,0,0
174810,-83.3333333333333,4,2,3,69,0,0
174862,-83.3333333333333,4,2,1,69,0,0
183202,-71.4285714285714,4,2,1,69,0,0
184880,-76.9230769230769,4,2,1,69,0,0
196628,-181.818181818181,4,2,1,69,0,0

[Colours]
Combo1 : 193,255,255
Combo2 : 204,234,172
Combo3 : 250,250,192
Combo4 : 254,205,253

[HitObjects]
498,205,265,5,2,1:2:0:0:
458,277,684,5,8,0:0:0:0:
458,277,894,1,2,0:0:0:0:
458,277,1104,1,2,1:2:0:0:
449,358,1523,5,10,0:0:0:0:
374,240,1943,6,0,L|240:277,1,120,2|10,1:2|0:0,0:0:0:0:
258,271,2572,1,0,0:0:0:0:
195,357,2782,2,0,L|158:223,1,120,2|10,1:2|0:0,0:0:0:0:
14,179,3621,5,2,1:2:0:0:
54,107,4040,5,8,0:0:0:0:
54,107,4250,1,2,0:0:0:0:
54,107,4460,1,2,1:2:0:0:
61,26,4879,5,10,0:0:0:0:
138,143,5299,6,0,P|197:125|274:107,1,120,2|10,1:2|0:0,0:0:0:0:
253,112,5928,1,0,0:0:0:0:
317,27,6138,6,0,P|339:93|354:161,1,120,2|10,1:2|0:0,0:0:0:0:
249,384,6978,5,6,1:2:0:0:
249,384,7397,6,0,L|220:311,2,60,10|2|2,0:0|0:0|1:2,0:0:0:0:
365,335,8132,5,2,0:0:0:0:
365,335,8237,1,10,0:0:0:0:
332,258,8446,1,2,0:0:0:0:
388,197,8656,6,0,P|354:149|281:150,1,120,2|10,1:2|0:0,0:0:0:0:
296,143,9285,1,0,0:0:0:0:
256,217,9495,1,2,1:2:0:0:
146,153,9810,5,0,0:0:0:0:
146,153,9915,1,10,0:0:0:0:
181,76,10125,1,2,0:0:0:0:
108,33,10334,5,6,1:2:0:0:
108,33,10754,6,0,L|35:4,2,60,10|2|2,0:0|0:0|1:2,0:0:0:0:
232,13,11488,1,2,0:0:0:0:
232,13,11593,1,10,0:0:0:0:
296,67,11803,1,2,0:0:0:0:
256,141,12013,6,0,B|227:195|294:251|299:215,1,120,2|10,1:2|0:0,0:0:0:0:
298,216,12642,1,0,0:0:0:0:
369,161,12852,1,2,1:2:0:0:
475,228,13167,5,2,0:0:0:0:
475,228,13271,1,10,0:0:0:0:
490,310,13481,1,2,0:0:0:0:
256,192,13691,12,10,14950,1:2:0:0:
420,313,15369,6,0,B|407:275|371:267|371:282|318:272|312:218,1,150,6|10,1:2|0:0,0:0:0:0:
343,153,15999,1,0,0:0:0:0:
391,95,16209,2,0,P|384:57|368:15,1,75,2|0,1:2|0:0,0:0:0:0:
371,22,16523,1,2,0:0:0:0:
371,22,16628,1,10,0:0:0:0:
301,48,16838,1,2,0:0:0:0:
343,153,17048,6,0,P|243:129|170:122,1,150,2|10,1:2|0:0,0:0:0:0:
151,184,17677,1,0,0:0:0:0:
87,144,17887,2,0,P|77:105|59:49,1,75,2|2,1:2|0:0,0:0:0:0:
66,71,18202,2,0,P|95:66|123:56,1,37.5,0|10,0:0|0:0,0:0:0:0:
177,50,18516,1,2,0:0:0:0:
166,162,18726,6,0,P|246:186|305:233,1,150,2|10,1:2|0:0,0:0:0:0:
354,275,19355,2,0,P|339:329|250:338,1,150,0|0,0:0|0:0,0:0:0:0:
255,341,19880,1,2,0:0:0:0:
255,341,19985,1,10,0:0:0:0:
227,271,20195,1,2,0:0:0:0:
118,300,20404,5,2,1:2:0:0:
69,80,20824,1,10,0:0:0:0:
69,80,21034,1,0,0:0:0:0:
69,80,21558,6,0,L|135:90,1,37.5,2|10,0:0|0:0,0:0:0:0:
180,99,21873,1,2,0:0:0:0:
108,185,22083,5,2,1:2:0:0:
260,349,22502,1,10,0:0:0:0:
260,349,22712,1,2,0:0:0:0:
260,349,22922,2,0,P|285:324|333:317,1,75,2|2,1:2|0:0,0:0:0:0:
393,290,23341,2,0,P|414:255|402:208,1,75,10|2,0:0|0:0,0:0:0:0:
335,122,23761,5,2,1:2:0:0:
335,122,23971,1,2,0:0:0:0:
312,202,24181,1,8,0:0:0:0:
320,217,24286,1,2,0:0:0:0:
328,232,24391,1,2,0:0:0:0:
292,306,24600,1,2,1:2:0:0:
438,358,24915,5,2,0:0:0:0:
438,358,25020,2,0,P|420:326|382:279,1,82.5000025177003,10|2,0:0|0:0,0:0:0:0:
255,288,25439,6,0,B|198:305|177:354|177:354|170:302|128:262,1,209.999993591309,2|10,1:2|0:0,0:0:0:0:
129,263,26069,1,0,0:0:0:0:
137,158,26278,2,0,P|81:142|25:132,2,104.999996795654,2|2|10,1:2|0:0|0:0,0:0:0:0:
326,280,27118,6,0,B|363:267|371:231|356:231|366:178|420:172,1,150,6|10,1:2|0:0,0:0:0:0:
452,106,27748,1,0,0:0:0:0:
397,54,27958,2,0,P|359:47|317:31,1,75,2|0,1:2|0:0,0:0:0:0:
324,34,28271,2,0,L|309:82,1,37.5,2|10,0:0|0:0,0:0:0:0:
285,140,28587,1,2,0:0:0:0:
172,149,28797,6,0,B|238:199|158:247|240:288,1,150,2|10,1:2|0:0,0:0:0:0:
202,350,29425,1,2,0:0:0:0:
276,339,29635,2,0,P|315:346|358:320,1,75,2|0,1:2|0:0,0:0:0:0:
346,332,29950,1,2,0:0:0:0:
346,332,30055,1,10,0:0:0:0:
391,272,30265,1,2,0:0:0:0:
363,163,30474,6,0,B|403:123|466:130|466:130|486:177,1,150,2|10,1:2|0:0,0:0:0:0:
462,238,31104,1,0,0:0:0:0:
391,272,31313,2,0,P|357:251|307:245,1,75,2|0,1:2|0:0,0:0:0:0:
323,244,31628,2,0,P|320:265|309:278,1,37.5,2|10,0:0|0:0,0:0:0:0:
248,320,31943,1,2,0:0:0:0:
186,225,32153,6,0,B|109:226|36:257,1,150,0|10,0:0|0:0,0:0:0:0:
6,187,32782,2,0,P|31:110|123:91,1,150,2|2,0:0|0:0,0:0:0:0:
90,85,33306,1,2,0:0:0:0:
90,85,33411,1,10,0:0:0:0:
169,119,33621,1,0,0:0:0:0:
129,13,33831,5,2,1:2:0:0:
351,49,34251,1,10,0:0:0:0:
351,49,34461,1,2,0:0:0:0:
351,49,34985,6,0,L|358:102,1,37.5,2|10,0:0|0:0,0:0:0:0:
368,160,35300,1,2,0:0:0:0:
466,105,35510,5,2,1:2:0:0:
297,253,35929,1,10,0:0:0:0:
339,314,36139,1,2,0:0:0:0:
405,279,36349,2,0,P|418:240|438:200,1,75,2|0,1:2|0:0,0:0:0:0:
407,138,36768,2,0,P|369:153|358:204,1,75,10|2,0:0|0:0,0:0:0:0:
372,59,37188,5,2,1:2:0:0:
372,59,37398,1,2,0:0:0:0:
292,36,37608,1,10,0:0:0:0:
277,44,37713,1,2,0:0:0:0:
262,52,37818,1,2,0:0:0:0:
188,16,38027,1,2,1:2:0:0:
54,81,38341,5,2,0:0:0:0:
54,81,38446,2,0,B|48:122|48:122|77:156,1,82.5000025177003,10|2,0:0|0:0,0:0:0:0:
47,287,38866,6,0,P|120:225|241:234,1,209.999993591309,2|10,1:2|0:0,0:0:0:0:
229,228,39495,1,0,0:0:0:0:
271,358,39705,6,0,P|277:193|294:102,2,209.999993591309,2|2|6,1:2|0:0|1:2,0:0:0:0:
255,193,40964,6,0,P|293:229|283:281,1,82.5000025177003,10|2,0:0|0:0,0:0:0:0:
328,331,41383,2,0,P|272:295|205:287,1,123.75000377655,2|2,1:2|0:0,0:0:0:0:
216,286,41803,1,10,0:0:0:0:
169,353,42013,1,2,0:0:0:0:
83,287,42223,6,0,P|59:196|38:117,1,165.000005035401,2|10,1:2|0:0,0:0:0:0:
86,58,42852,1,0,0:0:0:0:
86,57,43062,2,0,B|157:102|150:33|231:82,1,123.75000377655,2|2,1:2|0:0,0:0:0:0:
204,68,43481,1,2,0:0:0:0:
252,135,43691,2,0,L|319:119,1,41.2500012588501,2|2,0:0|0:0,0:0:0:0:
333,118,43901,5,2,1:2:0:0:
333,118,44320,6,0,P|371:97|383:31,1,82.5000025177003,10|2,0:0|0:0,0:0:0:0:
307,38,44740,2,0,P|318:119|323:224,1,165.000005035401,2|10,1:2|0:0,0:0:0:0:
409,265,45369,1,2,0:0:0:0:
347,352,45579,6,0,P|315:328|265:323,1,82.5000025177003,2|0,1:2|0:0,0:0:0:0:
246,243,45999,1,10,0:0:0:0:
165,261,46209,1,0,0:0:0:0:
85,281,46418,2,0,P|75:242|63:198,1,82.5000025177003,2|0,1:2|0:0,0:0:0:0:
63,201,46733,1,2,0:0:0:0:
63,201,46838,1,10,0:0:0:0:
145,187,47048,1,0,0:0:0:0:
246,243,47258,5,2,1:2:0:0:
264,329,47677,5,10,0:0:0:0:
246,243,47887,2,0,L|305:235,2,44.999998626709,2|0|2,1:2|0:0|0:0,0:0:0:0:
246,243,48411,1,2,0:0:0:0:
246,243,48516,1,10,0:0:0:0:
264,329,48726,1,2,0:0:0:0:
369,227,48936,5,2,1:2:0:0:
264,329,49355,5,10,0:0:0:0:
246,243,49565,2,0,L|305:235,2,44.999998626709,2|2|2,0:0|1:2|0:0,0:0:0:0:
246,243,50089,1,2,0:0:0:0:
246,243,50194,1,8,0:0:0:0:
243,163,50404,1,0,0:0:0:0:
173,326,50614,5,2,1:2:0:0:
173,326,50824,1,2,0:0:0:0:
150,246,51034,1,8,0:0:0:0:
158,231,51139,1,2,0:0:0:0:
166,216,51244,1,2,0:0:0:0:
130,142,51453,1,2,1:2:0:0:
251,289,51768,5,2,0:0:0:0:
251,289,51873,2,0,P|283:307|330:345,1,82.5000025177003,10|2,0:0|0:0,0:0:0:0:
430,328,52292,6,0,B|488:255|399:151|332:212|371:274,1,209.999993591309,6|10,1:2|0:0,0:0:0:0:
361,248,52922,1,0,0:0:0:0:
397,358,53132,6,0,B|474:240|373:255|425:156,2,209.999993591309,2|10|8,1:2|0:0|0:3,0:0:0:0:
512,238,57327,6,0,P|446:239|402:289,1,134.999995880127,6|0,1:3|0:0,0:0:0:0:
402,287,57747,2,0,B|398:346|441:323|424:396,2,89.9999972534181,10|2|2,0:0|0:0|1:3,0:0:0:0:
312,244,58376,1,0,0:0:0:0:
371,164,58586,2,0,B|362:99|417:118|410:41,1,134.999995880127,10|0,0:0|3:0,0:0:0:0:
409,40,59006,6,0,P|399:35|369:55,1,44.999998626709,2|0,1:3|0:0,0:0:0:0:
321,43,59216,2,0,P|295:61|267:37,1,44.999998626709,2|0,0:0|0:0,0:0:0:0:
236,42,59425,1,10,0:0:0:0:
236,42,59635,6,0,B|203:56|191:88|191:88|120:97|78:118,1,179.999994506836,2|2,1:3|0:0,0:0:0:0:
26,199,60265,2,0,B|13:244|13:244|48:282,1,89.9999972534181,10|2,0:0|0:0,0:0:0:0:
132,315,60684,1,6,1:3:0:0:
170,120,61104,5,10,0:0:0:0:
170,120,61313,1,0,0:0:0:0:
118,204,61523,2,0,P|161:207|222:222,1,89.9999972534181,2|0,1:3|0:0,0:0:0:0:
304,235,61943,5,10,0:0:0:0:
304,235,62153,1,0,0:0:0:0:
286,332,62362,2,0,P|329:322|374:319,1,89.9999972534181,2|0,1:3|0:0,0:0:0:0:
461,367,62782,5,10,0:0:0:0:
461,267,62992,1,2,0:0:0:0:
374,319,63202,2,0,P|364:220|336:118,2,179.999994506836,2|10|6,1:3|0:0|1:3,0:0:0:0:
185,377,64460,6,0,B|145:367|164:337|108:327,2,89.9999972534181,10|2|2,0:0|0:0|1:3,0:0:0:0:
268,322,65090,1,0,0:0:0:0:
191,260,65299,2,0,P|183:179|159:108,1,134.999995880127,10|0,0:0|3:0,0:0:0:0:
167,127,65719,6,0,P|180:113|212:128,1,44.999998626709,2|0,1:3|0:0,0:0:0:0:
252,128,65929,2,0,P|271:131|274:166,1,44.999998626709,2|0,0:0|0:0,0:0:0:0:
280,203,66139,1,10,0:0:0:0:
280,203,66348,6,0,P|188:222|74:277,1,179.999994506836,2|2,1:3|0:0,0:0:0:0:
30,194,66978,2,0,P|6:245|31:295,1,89.9999972534181,10|2,0:0|0:0,0:0:0:0:
79,349,67397,5,6,1:3:0:0:
79,349,67607,1,0,0:0:0:0:
140,270,67817,1,10,0:0:0:0:
143,258,67922,1,0,0:0:0:0:
146,246,68027,1,2,0:0:0:0:
149,235,68132,1,0,0:0:0:0:
152,224,68237,1,2,1:3:0:0:
270,383,68656,6,0,P|292:351|295:298,1,89.9999972534181,10|2,0:0|0:0,0:0:0:0:
400,251,69076,6,0,B|342:133|192:174|263:259|305:189,1,209.999993591309,6|10,1:3|0:0,0:0:0:0:
187,147,69705,1,2,0:0:0:0:
123,243,69915,2,0,P|146:129|168:32,2,209.999993591309,6|14|4,1:2|0:0|1:3,0:0:0:0:
69,326,70964,6,0,B|110:308|106:364|172:324,1,89.9999972534181,2|10,0:2|0:0,0:0:0:0:
220,259,71383,1,2,0:0:0:0:
305,308,71593,2,0,B|346:290|342:346|408:306,1,89.9999972534181,2|0,1:2|0:0,0:0:0:0:
441,229,72013,1,10,0:0:0:0:
499,309,72223,1,0,0:0:0:0:
447,224,72432,6,0,P|464:123|488:20,1,179.999994506836,2|10,1:2|0:0,0:0:0:0:
382,31,73062,2,0,P|362:118|348:207,1,179.999994506836,2|2,1:2|0:0,0:0:0:0:
250,191,73691,2,0,B|209:209|213:153|147:193,1,89.9999972534181,10|2,0:0|0:0,0:0:0:0:
157,283,74111,6,0,P|111:198|26:193,1,179.999994506836,2|10,1:2|0:0,0:0:0:0:
58,285,74740,1,2,0:0:0:0:
113,367,74950,2,0,P|183:324|282:325,1,179.999994506836,2|10,1:2|0:0,0:0:0:0:
363,375,75579,1,2,0:0:0:0:
423,296,75789,6,0,P|419:233|385:213,1,89.9999972534181,2|0,1:2|0:0,0:0:0:0:
310,177,76209,1,10,0:0:0:0:
316,78,76418,1,2,0:0:0:0:
415,80,76628,1,2,1:2:0:0:
231,4,77048,5,10,0:0:0:0:
37,45,77467,6,0,B|72:138|-30:119|0:211,1,179.999994506836,4|10,1:3|0:0,0:0:0:0:
62,283,78097,1,0,0:0:0:0:
129,210,78306,2,0,B|125:188|135:192|131:165,2,44.999998626709,2|0|2,1:2|0:0|0:0,0:0:0:0:
213,262,78726,2,0,B|221:241|227:249|237:224,2,44.999998626709,10|0|2,0:2|0:0|0:0,0:0:0:0:
150,339,79146,6,0,B|238:310|219:413|313:377,1,179.999994506836,2|10,1:2|0:0,0:0:0:0:
409,357,79775,2,0,B|380:268|483:287|447:193,1,179.999994506836,2|2,0:0|0:0,0:0:0:0:
373,128,80404,2,0,B|328:145|337:104|287:123,1,89.9999972534181,10|2,0:0|0:0,0:0:0:0:
241,211,80824,5,2,1:2:0:0:
241,211,81034,1,2,0:0:0:0:
177,134,81244,1,10,0:0:0:0:
180,122,81349,1,2,0:0:0:0:
183,110,81454,1,2,0:0:0:0:
186,98,81558,1,0,0:0:0:0:
189,85,81664,1,2,1:2:0:0:
19,187,82083,6,0,P|55:212|65:264,1,89.9999972534181,10|2,0:0|0:0,0:0:0:0:
11,357,82503,6,0,B|69:239|219:280|148:365|106:295,1,209.999993591309,6|10,1:2|0:0,0:0:0:0:
233,272,83132,1,2,0:0:0:0:
282,375,83341,2,0,P|326:345|419:329,1,104.999996795654,2|2,1:2|0:0,0:0:0:0:
398,216,83761,2,0,P|464:225|485:290,1,104.999996795654,10|2,0:0|0:0,0:0:0:0:
482,369,84181,5,6,1:2:0:0:
512,35,85334,5,2,0:0:0:0:
512,35,85439,1,10,0:0:0:0:
444,81,85649,5,2,0:0:0:0:
395,18,85859,6,0,B|357:31|349:67|364:67|354:120|300:126,1,150,6|10,1:2|0:0,0:0:0:0:
231,107,86489,1,2,0:0:0:0:
164,141,86699,2,0,P|133:173|84:164,1,75,2|2,1:2|0:0,0:0:0:0:
102,171,87013,1,2,0:0:0:0:
102,167,87118,1,10,0:0:0:0:
40,121,87328,1,0,0:0:0:0:
48,232,87538,6,0,P|24:332|17:405,1,150,2|10,1:2|0:0,0:0:0:0:
93,381,88167,1,2,0:0:0:0:
146,327,88376,2,0,B|158:312|158:312|224:289,1,75,2|2,1:2|0:0,0:0:0:0:
210,293,88691,2,0,L|270:311,1,37.5,2|10,0:0|0:0,0:0:0:0:
315,331,89006,1,0,0:0:0:0:
398,255,89216,6,0,P|422:175|357:122,1,150,2|10,1:2|0:0,0:0:0:0:
396,55,89845,2,0,P|357:110|278:74,1,150,2|2,0:0|0:0,0:0:0:0:
283,87,90369,1,2,0:0:0:0:
279,86,90474,2,0,L|185:115,1,75,10|0,0:0|0:0,0:0:0:0:
98,139,90894,5,2,1:2:0:0:
278,5,91313,1,10,0:0:0:0:
349,27,91523,1,2,0:0:0:0:
349,27,92048,6,0,L|337:62,1,37.5,2|10,0:0|0:0,0:0:0:0:
315,134,92363,1,0,0:0:0:0:
395,212,92573,5,2,1:2:0:0:
235,370,92992,1,10,0:0:0:0:
202,302,93202,1,2,0:0:0:0:
156,242,93411,2,0,P|121:262|81:249,1,75,2|0,1:2|0:0,0:0:0:0:
78,180,93831,2,0,P|113:160|153:173,1,75,10|2,0:0|0:0,0:0:0:0:
267,190,94251,5,2,1:2:0:0:
267,190,94461,1,2,0:0:0:0:
347,213,94671,1,10,0:0:0:0:
362,205,94776,1,2,0:0:0:0:
377,197,94881,1,2,0:0:0:0:
451,233,95090,1,2,1:2:0:0:
356,118,95405,5,2,0:0:0:0:
356,118,95510,2,0,P|342:72|323:36,2,82.5000025177003,10|2|2,0:0|0:0|0:0,0:0:0:0:
255,191,97607,5,6,1:2:0:0:
255,191,98027,6,0,P|293:155|283:103,1,82.5000025177003,10|2,0:0|0:0,0:0:0:0:
270,48,98446,2,0,B|313:93|313:93|393:92,1,123.75000377655,2|2,1:2|0:0,0:0:0:0:
374,92,98866,1,10,0:0:0:0:
431,32,99076,1,2,0:0:0:0:
478,128,99286,6,0,P|455:198|372:170,1,165.000005035401,2|10,1:2|0:0,0:0:0:0:
308,225,99915,1,0,0:0:0:0:
308,224,100125,2,0,B|237:269|244:200|163:249,1,123.75000377655,2|2,1:2|0:0,0:0:0:0:
189,235,100544,1,2,0:0:0:0:
111,262,100754,2,0,L|127:329,1,41.2500012588501,2|0,0:0|0:0,0:0:0:0:
128,343,100964,5,2,1:2:0:0:
128,343,101383,6,0,B|168:352|168:352|214:317,1,82.5000025177003,10|2,0:0|0:0,0:0:0:0:
150,261,101803,2,0,B|112:187|183:191|131:100,1,165.000005035401,2|10,1:2|0:0,0:0:0:0:
196,16,102432,1,2,0:0:0:0:
286,74,102642,6,0,P|325:77|359:43,1,82.5000025177003,2|0,1:2|0:0,0:0:0:0:
435,75,103062,1,10,0:0:0:0:
468,150,103272,1,0,0:0:0:0:
427,221,103481,2,0,P|413:260|405:304,1,82.5000025177003,2|0,1:2|0:0,0:0:0:0:
405,300,103796,1,2,0:0:0:0:
405,300,103901,1,10,0:0:0:0:
471,363,104111,1,2,0:0:0:0:
504,260,104321,5,2,1:2:0:0:
471,363,104740,5,10,0:0:0:0:
504,260,104950,2,0,L|445:268,2,44.999998626709,2|0|2,1:2|0:0|0:0,0:0:0:0:
504,260,105474,1,2,0:0:0:0:
504,260,105579,1,10,0:0:0:0:
471,363,105789,1,2,0:0:0:0:
333,327,105999,5,2,1:2:0:0:
277,226,106418,5,10,0:0:0:0:
333,327,106628,2,0,L|325:386,2,44.999998626709,2|2|2,0:0|1:2|0:0,0:0:0:0:
333,327,107152,1,2,0:0:0:0:
333,327,107257,1,8,0:0:0:0:
238,349,107467,1,0,0:0:0:0:
172,263,107677,5,2,1:2:0:0:
172,263,107887,1,2,0:0:0:0:
252,240,108097,1,8,0:0:0:0:
267,248,108202,1,2,0:0:0:0:
282,256,108307,1,2,0:0:0:0:
354,218,108516,1,2,1:2:0:0:
338,65,108831,5,2,0:0:0:0:
338,65,108936,2,0,P|306:47|259:9,1,82.5000025177003,10|2,0:0|0:0,0:0:0:0:
159,26,109355,6,0,B|101:99|190:203|257:142|169:111,1,209.999993591309,6|10,1:2|0:0,0:0:0:0:
177,114,109985,1,0,0:0:0:0:
261,51,110195,6,0,B|379:-26|364:75|463:23,2,209.999993591309,2|10|8,1:2|0:0|0:3,0:0:0:0:
0,146,114390,6,0,P|66:145|110:95,1,134.999995880127,6|0,1:3|0:0,0:0:0:0:
109,96,114810,2,0,P|81:60|87:-13,2,89.9999972534181,10|2|2,0:0|0:0|1:3,0:0:0:0:
207,86,115439,1,0,0:0:0:0:
255,172,115649,2,0,B|264:237|209:218|216:295,1,134.999995880127,10|0,0:0|0:3,0:0:0:0:
216,295,116069,6,0,L|286:285,1,44.999998626709,2|0,1:3|0:0,0:0:0:0:
309,297,116279,2,0,L|365:288,1,44.999998626709,2|0,0:0|3:0,0:0:0:0:
401,301,116488,1,10,0:0:0:0:
401,301,116698,6,0,B|458:322|511:362|511:362|505:328|465:306,1,179.999994506836,2|2,1:3|0:0,0:0:0:0:
466,219,117328,2,0,B|472:197|460:175|460:175|482:168|493:147,1,89.9999972534181,10|2,0:0|0:0,0:0:0:0:
418,82,117747,1,6,1:3:0:0:
316,251,118167,5,10,0:0:0:0:
316,251,118376,1,0,0:0:0:0:
263,335,118586,2,0,B|218:346|218:346|177:306,1,89.9999972534181,2|0,1:3|0:0,0:0:0:0:
202,217,119006,5,10,0:0:0:0:
202,217,119216,1,0,0:0:0:0:
216,119,119425,2,0,B|171:108|171:108|130:148,1,89.9999972534181,2|0,1:3|0:0,0:0:0:0:
109,233,119845,5,10,0:0:0:0:
13,259,120055,1,2,0:0:0:0:
110,241,120265,2,0,L|285:289,2,179.999994506836,2|10|6,1:2|0:0|1:3,0:0:0:0:
211,71,121523,6,0,B|221:31|251:50|261:-6,2,89.9999972534181,10|2|2,0:0|0:0|1:3,0:0:0:0:
297,120,122153,1,0,0:0:0:0:
262,212,122362,2,0,P|281:286|294:364,1,134.999995880127,10|0,0:0|0:0,0:0:0:0:
291,343,122782,6,0,P|304:357|336:342,1,44.999998626709,2|0,1:3|0:0,0:0:0:0:
377,349,122992,2,0,P|398:340|388:290,1,44.999998626709,2|0,0:0|0:0,0:0:0:0:
415,271,123202,1,10,0:0:0:0:
415,271,123411,6,0,P|430:181|469:76,1,179.999994506836,2|2,1:3|0:0,0:0:0:0:
392,23,124041,2,0,P|344:45|335:89,1,89.9999972534181,10|2,0:0|0:0,0:0:0:0:
389,159,124460,5,6,1:3:0:0:
389,159,124670,1,0,0:0:0:0:
346,248,124880,1,10,0:0:0:0:
349,260,124985,1,0,0:0:0:0:
352,272,125090,1,2,0:0:0:0:
355,283,125195,1,0,0:0:0:0:
359,294,125300,1,2,1:3:0:0:
200,211,125719,6,0,B|180:228|180:228|94:206,1,89.9999972534181,10|2,0:0|0:0,0:0:0:0:
91,325,126139,6,0,B|150:233|59:157|0:235|25:264,1,209.999993591309,6|10,1:3|0:0,0:0:0:0:
1,370,126768,1,2,0:0:0:0:
21,256,126978,2,0,P|44:142|66:45,2,209.999993591309,6|14|4,1:2|0:0|1:3,0:0:0:0:
91,325,128027,6,0,B|135:329|104:376|181:374,1,89.9999972534181,2|10,0:0|0:0,0:0:0:0:
240,315,128446,1,2,0:0:0:0:
338,304,128656,2,0,B|320:262|376:267|336:201,1,89.9999972534181,2|0,1:2|0:0,0:0:0:0:
390,129,129076,1,10,0:0:0:0:
299,88,129286,1,0,0:0:0:0:
251,174,129495,6,0,P|150:157|47:133,1,179.999994506836,2|10,1:3|0:0,0:0:0:0:
92,237,130125,2,0,P|105:148|126:60,1,179.999994506836,2|2,1:2|0:0,0:0:0:0:
210,8,130754,2,0,B|251:24|209:61|284:79,1,89.9999972534181,10|2,0:0|0:0,0:0:0:0:
213,158,131174,6,0,P|259:243|344:248,1,179.999994506836,2|10,1:2|0:0,0:0:0:0:
373,160,131803,1,2,0:0:0:0:
461,205,132013,2,0,P|447:294|446:391,1,179.999994506836,2|10,1:2|0:0,0:0:0:0:
354,344,132642,1,2,0:0:0:0:
258,370,132852,6,0,P|205:352|193:305,1,89.9999972534181,2|0,1:2|0:0,0:0:0:0:
224,229,133272,1,10,0:0:0:0:
135,186,133481,1,2,0:0:0:0:
93,275,133691,1,2,1:2:0:0:
86,76,134111,5,10,0:0:0:0:
281,45,134530,6,0,B|379:61|311:140|406:160,1,179.999994506836,6|10,1:3|0:0,0:0:0:0:
495,120,135160,1,0,0:0:0:0:
477,216,135369,2,0,B|474:228|474:228|496:265,2,44.999998626709,2|0|0,1:2|0:0|0:0,0:0:0:0:
385,254,135789,2,0,B|376:262|376:262|376:305,2,44.999998626709,10|0|0,0:2|0:0|0:0,0:0:0:0:
295,211,136209,6,0,B|207:240|226:137|132:173,1,179.999994506836,2|10,1:2|0:0,0:0:0:0:
109,76,136838,2,0,B|138:165|35:146|71:240,1,179.999994506836,2|2,0:0|0:0,0:0:0:0:
23,325,137467,2,0,P|74:331|115:352,1,89.9999972534181,10|2,0:0|0:0,0:0:0:0:
165,265,137887,5,2,1:2:0:0:
165,265,138097,1,2,0:0:0:0:
263,277,138307,1,10,0:0:0:0:
268,288,138412,1,2,0:0:0:0:
275,299,138517,1,2,0:0:0:0:
279,311,138621,1,0,0:0:0:0:
284,322,138727,1,2,1:2:0:0:
108,347,139146,6,0,B|72:321|72:321|66:266,1,89.9999972534181,10|2,0:0|0:0,0:0:0:0:
2,179,139566,6,0,B|60:297|210:256|139:171|150:146,1,209.999993591309,6|10,1:2|0:0,0:0:0:0:
212,95,140195,1,2,0:0:0:0:
316,142,140404,1,2,1:2:0:0:
316,142,140824,5,2,0:0:0:0:
305,376,141244,5,2,1:2:0:0:
0,125,147957,5,2,0:0:0:0:
74,156,148376,1,10,0:0:0:0:
74,156,148586,2,0,L|96:257,1,101.249996910095,2|8,0:0|0:0,0:0:0:0:
150,140,149635,5,2,0:0:0:0:
224,171,150054,1,10,0:0:0:0:
224,171,150264,2,0,L|246:272,1,101.249996910095,2|8,0:0|0:0,0:0:0:0:
289,128,151313,5,2,0:0:0:0:
363,159,151732,1,10,0:0:0:0:
363,159,151943,2,0,L|385:260,1,101.249996910095,2|8,0:0|0:0,0:0:0:0:
417,100,152992,5,2,0:0:0:0:
439,93,153202,1,2,0:0:0:0:
455,76,153411,1,2,0:0:0:0:
465,55,153621,1,2,0:0:0:0:
448,37,153831,5,2,0:0:0:0:
425,44,154041,1,2,0:0:0:0:
407,59,154251,1,2,0:0:0:0:
397,80,154460,1,2,0:0:0:0:
400,113,154670,5,6,1:3:0:0:
283,62,155090,2,0,P|268:49|242:44,1,33.7499989700318,8|2,0:0|0:0,0:0:0:0:
230,116,155509,6,0,B|205:185|185:141|156:218,1,112.5
162,202,155929,2,0,B|167:220|167:220|235:208,1,75,8|0,0:0|0:0,0:0:0:0:
365,243,156348,6,0,B|370:232|370:232|292:236|257:308|274:364,1,194.999991073609,4|0,1:3|0:0,0:0:0:0:
148,279,156978,2,0,B|135:280|135:280|178:345|258:340|298:297,1,194.999991073609,4|0,1:3|0:0,0:0:0:0:
404,383,157607,6,0,P|412:347|425:311,1,67.4999979400635,2|2,0:0|0:0,0:0:0:0:
256,192,158237,12,0,160334,0:0:0:0:
75,162,160754,6,0,P|71:182|67:207,2,33.7499989700318,6|14|6,0:0|0:0|0:0,0:0:0:0:
151,190,161383,1,6,1:3:0:0:
0,94,161803,5,10,0:0:0:0:
99,52,162012,1,0,0:0:0:0:
185,116,162222,2,0,P|184:157|146:193,1,89.9999972534181,2|0,1:3|0:0,0:0:0:0:
251,233,162642,5,10,0:0:0:0:
152,191,162851,1,2,0:0:0:0:
66,255,163061,2,0,P|67:296|105:332,1,89.9999972534181,2|0,1:3|0:0,0:0:0:0:
207,339,163481,5,10,0:0:0:0:
314,331,163691,1,2,1:2:0:0:
201,344,163901,2,0,P|191:245|163:143,2,179.999994506836,2|10|6,1:2|0:0|1:3,0:0:0:0:
408,285,165159,6,0,B|436:314|453:283|489:326,2,89.9999972534181,10|2|2,0:0|0:0|1:3,0:0:0:0:
338,201,165789,1,0,0:0:0:0:
417,128,165998,2,0,P|475:113|483:39,1,134.999995880127,10|0,0:0|0:0,0:0:0:0:
445,11,166418,6,0,P|423:6|407:21,1,44.999998626709,2|0,1:3|0:0,0:0:0:0:
353,27,166628,2,0,P|350:46|315:49,1,44.999998626709,2|0,0:0|0:0,0:0:0:0:
335,109,166838,1,10,0:0:0:0:
335,109,167047,6,0,P|243:128|129:183,1,179.999994506836,2|2,1:3|0:0,0:0:0:0:
99,74,167677,2,0,P|75:125|100:175,1,89.9999972534181,10|2,0:0|0:0,0:0:0:0:
143,244,168096,5,6,1:2:0:0:
143,244,168306,1,0,0:0:0:0:
77,330,168516,1,10,0:0:0:0:
65,333,168621,1,2,0:0:0:0:
53,336,168726,1,2,0:0:0:0:
41,339,168831,1,2,0:0:0:0:
29,342,168936,2,0,P|17:301|4:255,1,89.9999972534181,2|2,1:3|0:0,0:0:0:0:
22,148,169355,6,0,B|53:112|11:106|47:63,1,89.9999972534181,10|2,0:0|0:0,0:0:0:0:
168,96,169775,6,0,B|110:-22|-40:19|31:104|73:34,1,209.999993591309,6|10,1:3|0:0,0:0:0:0:
115,164,170404,1,2,1:2:0:0:
127,289,170614,2,0,P|203:201|271:128,1,209.999993591309,2|10,1:3|0:0,0:0:0:0:
267,132,171244,1,2,1:2:0:0:
255,26,171453,6,0,P|321:27|365:77,1,134.999995880127,6|0,1:3|0:0,0:0:0:0:
364,75,171873,2,0,B|422:78|399:36|472:53,2,89.9999972534181,10|2|2,0:0|0:0|1:3,0:0:0:0:
414,170,172502,1,0,0:0:0:0:
331,239,172712,2,0,B|324:316|379:297|370:362,1,134.999995880127,10|0,0:0|0:0,0:0:0:0:
318,380,173132,6,0,L|255:359,1,44.999998626709,2|0,1:3|0:0,0:0:0:0:
222,353,173341,2,0,L|159:332,1,44.999998626709,2|0,0:0|0:0,0:0:0:0:
125,328,173551,1,10,0:0:0:0:
125,328,173761,6,0,B|139:295|171:283|171:283|187:226|140:175,1,179.999994506836,0|2,0:0|0:0,0:0:0:0:
36,157,174391,2,0,B|23:202|23:202|58:240,1,89.9999972534181,10|2,0:0|0:0,0:0:0:0:
142,178,174810,1,10,1:3:0:0:
317,51,175230,5,10,0:0:0:0:
417,89,175439,1,0,0:0:0:0:
332,156,175649,2,0,B|311:168|311:168|295:254,1,89.9999972534181,2|0,1:3|0:0,0:0:0:0:
400,193,176069,5,10,0:0:0:0:
300,231,176278,1,0,0:0:0:0:
385,298,176488,2,0,B|406:310|406:310|422:396,1,89.9999972534181,2|0,1:3|0:0,0:0:0:0:
315,337,176908,5,10,0:0:0:0:
300,231,177118,1,2,0:0:0:0:
309,338,177328,2,0,B|243:334|241:245|108:300,2,179.999994506836,2|10|6,1:3|0:0|1:3,0:0:0:0:
395,140,178586,6,0,P|412:97|437:59,2,89.9999972534181,10|2|2,0:0|0:0|1:3,0:0:0:0:
472,215,179216,1,0,0:0:0:0:
364,218,179425,2,0,P|325:193|317:107,1,134.999995880127,10|0,0:0|3:0,0:0:0:0:
296,59,179845,6,0,P|270:46|239:62,1,44.999998626709,2|0,1:3|0:0,0:0:0:0:
203,67,180055,2,0,P|177:86|172:122,1,44.999998626709,2|0,0:0|0:0,0:0:0:0:
176,151,180265,1,10,0:0:0:0:
176,151,180474,6,0,P|141:233|123:321,1,179.999994506836,2|2,1:3|0:0,0:0:0:0:
29,375,181104,2,0,B|3:338|3:338|32:272,1,89.9999972534181,10|2,0:0|0:0,0:0:0:0:
123,321,181523,5,6,1:3:0:0:
123,321,181733,1,0,0:0:0:0:
221,276,181943,1,10,0:0:0:0:
224,288,182048,1,0,0:0:0:0:
227,300,182153,1,2,0:0:0:0:
230,312,182258,1,0,0:0:0:0:
233,324,182363,2,0,P|192:336|146:349,1,89.9999972534181,2|0,1:3|0:0,0:0:0:0:
147,240,182782,6,0,B|138:193|177:209|167:153,1,89.9999972534181,10|2,0:0|0:0,0:0:0:0:
41,162,183202,6,0,P|137:142|275:108,1,209.999993591309,6|10,1:3|0:0,0:0:0:0:
346,40,183831,1,2,0:0:0:0:
337,165,184041,2,0,P|357:261|391:399,1,209.999993591309,6|14,1:2|0:0,0:0:0:0:
274,304,184671,1,0,0:0:0:0:
337,165,184880,5,6,1:2:0:0:
337,165,185299,6,0,P|284:188|278:264,1,97.4999955368044,10|2,0:0|0:0,0:0:0:0:
298,336,185719,2,0,P|304:278|241:235,1,97.4999955368044,2|2,1:2|0:0,0:0:0:0:
169,216,186139,2,0,P|215:250|284:217,1,97.4999955368044,10|0,0:2|0:0,0:0:0:0:
209,137,186558,5,2,1:2:0:0:
209,137,186978,6,0,B|218:58|158:60|196:102,1,97.4999955368044,10|2,0:0|0:0,0:0:0:0:
156,206,187397,2,0,B|83:237|114:288|132:234,1,97.4999955368044,2|2,0:0|0:0,0:0:0:0:
242,217,187817,2,0,B|305:264|334:211|278:223,1,97.4999955368044,10|2,0:0|0:0,0:0:0:0:
323,109,188237,5,6,1:2:0:0:
323,109,188656,6,0,B|352:99|352:99|362:64|395:51,1,97.4999955368044,10|2,0:0|0:0,0:0:0:0:
446,156,189076,2,0,B|422:135|422:135|387:144|359:122,1,97.4999955368044,2|2,1:2|0:0,0:0:0:0:
426,26,189495,2,0,B|420:56|420:56|445:82|440:117,1,97.4999955368044,10|2,0:0|0:0,0:0:0:0:
389,223,189915,5,6,1:2:0:0:
389,223,190334,1,10,0:0:0:0:
316,251,190544,1,2,0:0:0:0:
244,282,190754,1,2,1:2:0:0:
178,323,190964,6,0,L|132:306,1,48.7499977684022,2|2,0:0|0:0,0:0:0:0:
161,332,191174,6,0,L|115:315,1,48.7499977684022,10|2,0:0|0:0,0:0:0:0:
143,342,191383,6,0,L|97:325,1,48.7499977684022,2|2,0:0|0:0,0:0:0:0:
65,253,191593,5,2,1:2:0:0:
65,253,192013,6,0,B|39:182|39:182|72:202,1,97.4999955368044,10|0,0:0|0:0,0:0:0:0:
167,233,192432,2,0,B|118:291|118:291|119:252,1,97.4999955368044,2|0,1:2|0:0,0:0:0:0:
99,155,192852,2,0,B|173:167|173:167|139:186,1,97.4999955368044,10|0,0:0|0:0,0:0:0:0:
264,218,193271,5,2,1:2:0:0:
264,218,193691,6,0,P|252:166|213:88,1,97.4999955368044,10|0,0:0|0:0,0:0:0:0:
350,148,194111,2,0,P|310:184|262:257,1,97.4999955368044,2|2,1:2|0:0,0:0:0:0:
247,109,194530,2,0,P|298:124|385:129,1,97.4999955368044,10|2,0:0|0:0,0:0:0:0:
459,127,194950,5,2,1:2:0:0:
459,127,195160,1,2,0:0:0:0:
415,235,195369,5,10,0:0:0:0:
398,245,195474,1,2,0:0:0:0:
391,263,195579,1,2,0:0:0:0:
392,282,195684,1,2,0:0:0:0:
404,297,195789,1,2,1:2:0:0:
490,376,195999,6,0,P|497:325|505:271,2,97.4999955368044,0|10|2,0:0|0:0|0:0,0:0:0:0:
404,297,196628,6,0,P|360:300|306:316,3,82.5000025177003,2|2|2|2,0:0|0:0|0:0|0:0,0:0:0:0:
