osu file format v14

[General]
AudioFilename: audio.mp3
AudioLeadIn: 0
PreviewTime: 56811
Countdown: 0
SampleSet: Soft
StackLeniency: 0.3
Mode: 0
LetterboxInBreaks: 0
WidescreenStoryboard: 1

[Editor]
Bookmarks: 13659,40512,57295,67680,76386,84149,97575,114358,141212,157995,161351,184848
DistanceSpacing: 0.1
BeatDivisor: 4
GridSize: 16
TimelineZoom: 1.7

[Metadata]
Title:Toxic
TitleUnicode:Toxic
Artist:Britney Spears
ArtistUnicode:Britney Spears
Creator:schoolboy
Version:Emilia's Expert
Source:
Tags:komore emilia estellia- Frakturehawkens shmiklak marvollo m_a_r_v_o_l_l_o djulus english pop
BeatmapID:2251926
BeatmapSetID:1061947

[Difficulty]
HPDrainRate:5
CircleSize:4
OverallDifficulty:8
ApproachRate:9.1
SliderMultiplier:3.59999990463257
SliderTickRate:1

[Events]
//Background and Video events
0,0,"britney.jpg",0,0
Video,-11,"y2mate.com - Britney Spears - Toxic (Official Music Video)_LOZuxwVk7TU_360p (1).mp4"
//Break Periods
2,141244,152408
2,157807,160170
//Storyboard Layer 0 (Background)
//Storyboard Layer 1 (Fail)
//Storyboard Layer 2 (Pass)
//Storyboard Layer 3 (Foreground)
//Storyboard Layer 4 (Overlay)
//Storyboard Sound Samples

[TimingPoints]
265,419.58041958042,4,2,1,43,1,0
15369,-100,4,2,1,55,0,0
53971,-1000,4,2,3,33,0,0
54076,-100,4,2,1,33,0,0
56908,-100,4,2,1,60,0,0
57327,-90.9090909090909,4,2,1,69,0,0
80824,-100,4,2,1,74,0,0
85334,-100,4,2,1,55,0,0
95929,-1000,4,2,1,55,0,0
96348,-125,4,2,1,55,0,0
96768,-200,4,2,1,55,0,0
97188,-100,4,2,1,55,0,0
109303,-100,4,2,1,5,0,0
109355,-100,4,2,1,55,0,0
111034,-1000,4,2,3,33,0,0
111086,-100,4,2,1,33,0,0
113971,-100,4,2,1,60,0,0
114390,-90.9090909090909,4,2,1,69,0,0
140404,-1000,4,2,1,69,0,0
152992,-1000,4,2,1,45,0,0
154670,-100,4,2,1,45,0,0
155090,-100,4,2,1,55,0,0
158027,-100,4,2,1,69,0,0
160754,-90.9090909090909,4,2,1,69,0,0
174810,-90.9090909090909,4,2,3,69,0,0
174862,-90.9090909090909,4,2,1,69,0,0
184880,-100,4,2,1,69,0,0

[Colours]
Combo1 : 193,255,255
Combo2 : 204,234,172
Combo3 : 250,250,192
Combo4 : 254,205,253

[HitObjects]
62,361,265,6,0,B|67:350|67:350|49:170,1,179.999995231629,2|0,1:2|0:0,0:0:0:0:
52,274,684,2,0,B|48:267|48:267|62:170,1,89.9999976158143,8|0,0:0|0:0,0:0:0:0:
92,111,894,2,0,B|103:29|103:29|99:22,1,89.9999976158143,2|0,0:0|0:0,0:0:0:0:
90,30,1104,1,2,1:2:0:0:
211,302,1418,1,0,0:0:0:0:
211,293,1523,2,0,B|201:300|201:300|173:427,1,89.9999976158143,10|0,0:0|0:0,0:0:0:0:
160,227,1733,1,2,0:0:0:0:
413,377,1943,6,2,B|416:380|416:380|454:334|454:334|448:305|448:305|443:296|443:296|431:213|431:213|366:254|366:254|356:251|356:251|346:325|346:325|371:323,3,359.999990463257,2|10|2|10,1:2|0:0|1:2|0:0,0:0:0:0:
0,30,3621,6,0,B|7:38|7:38|207:54,1,179.999995231629,2|0,1:2|0:0,0:0:0:0:
83,70,4041,2,0,B|90:65|90:65|193:53,1,89.9999976158143,8|0,0:0|0:0,0:0:0:0:
214,124,4251,2,0,B|207:129|207:129|104:141,1,89.9999976158143,2|0,0:0|0:0,0:0:0:0:
134,148,4460,1,2,1:2:0:0:
174,384,4775,1,0,0:0:0:0:
180,381,4880,2,0,B|185:378|185:378|203:283,1,89.9999976158143,10|0,0:0|0:0,0:0:0:0:
212,214,5090,1,2,0:0:0:0:
301,82,5299,6,2,B|304:79|304:79|343:110|343:110|346:119|346:119|392:153|392:153|403:149|403:149|425:66|425:66|421:61|421:61|441:42|441:42|438:34|438:34|346:15|346:15|337:23,3,359.999990463257,2|10|2|10,1:2|0:0|1:2|0:0,0:0:0:0:
218,204,6978,6,0,B|212:208|212:208|180:399,1,179.999995231629,6|2,1:2|0:0,0:0:0:0:
152,299,7397,2,0,B|158:303|158:303|182:411,1,89.9999976158143,10|0,0:0|0:0,0:0:0:0:
94,372,7607,2,0,B|88:369|88:369|-11:382,1,89.9999976158143,2|0,0:0|0:0,0:0:0:0:
13,373,7817,1,2,1:2:0:0:
196,62,8132,1,2,0:0:0:0:
203,59,8237,2,0,B|197:64|197:64|179:177,1,89.9999976158143,10|0,0:0|0:0,0:0:0:0:
126,21,8446,1,2,0:0:0:0:
318,210,8656,6,2,B|317:202|317:202|386:212|386:212|389:217|389:217|367:367|367:367|359:371|359:371|350:367|350:367|329:331|329:331|322:326|322:326|297:284|297:284|314:273,2,359.999990463257,2|10|2,1:2|0:0|1:2,0:0:0:0:
484,114,9810,1,0,0:0:0:0:
477,109,9915,2,0,B|395:127|395:127|389:189,1,89.9999976158143,10|0,0:0|0:0,0:0:0:0:
337,39,10125,2,0,B|329:83|329:83|347:65|347:65|325:1,1,89.9999976158143,2|0,0:0|0:0,0:0:0:0:
208,237,10334,6,0,B|203:243|203:243|20:269,1,179.999995231629,6|2,1:2|0:0,0:0:0:0:
125,271,10754,2,0,B|119:274|119:274|5:254,1,89.9999976158143,10|0,0:0|0:0,0:0:0:0:
6,183,10964,2,0,B|-10:104|-10:104|0:87,1,89.9999976158143,2|0,0:0|0:0,0:0:0:0:
2,102,11174,1,2,1:2:0:0:
212,211,11488,1,2,0:0:0:0:
205,215,11593,2,0,B|216:292|216:292|205:323,1,89.9999976158143,10|0,0:0|0:0,0:0:0:0:
202,384,11803,1,2,0:0:0:0:
407,292,12013,6,2,B|406:285|406:285|374:252|374:252|369:255|369:255|377:318|377:318|443:351|443:351|446:356|446:356|483:372|483:372|490:366|490:366|509:324|509:324|488:274|488:274|469:283,2,359.999990463257,2|10|2,1:2|0:0|1:2,0:0:0:0:
429,189,13167,1,2,0:0:0:0:
429,189,13271,2,0,B|433:181|433:181|528:162,1,89.9999976158143,10|0,0:0|0:0,0:0:0:0:
307,49,13481,2,0,B|298:58|298:58|299:91|299:91|315:63|315:63|312:50,1,89.9999976158143,2|0,0:0|0:0,0:0:0:0:
31,155,14950,2,0,P|69:129|120:149,1,89.9999976158143,10|0,1:2|0:2,0:2:0:0:
170,193,15160,2,0,P|218:205|281:209,1,89.9999976158143,2|0,1:2|0:2,0:2:0:0:
89,231,15369,6,0,B|100:222|100:222|331:194,1,179.999995231629,6|0,1:2|0:2,0:2:0:0:
338,236,15684,2,0,B|416:248|416:248|425:242,1,89.9999976158143,0|10,0:2|0:2,0:2:0:0:
334,244,15999,2,0,P|385:249|432:229,1,89.9999976158143,0|0,0:2|0:2,0:2:0:0:
512,384,16209,2,0,P|393:334|309:353,1,179.999995231629,2|0,1:2|0:2,0:2:0:0:
269,367,16523,2,0,P|216:361|185:312,1,89.9999976158143,2|10,0:2|0:2,0:2:0:0:
260,360,16838,2,0,P|193:370|137:395,1,89.9999976158143,2|0,0:2|0:2,0:2:0:0:
0,384,17048,6,0,B|9:377|9:377|47:183,1,179.999995231629,2|0,1:2|0:2,0:2:0:0:
48,130,17362,2,0,B|37:124|37:124|22:34,1,89.9999976158143,0|10,0:2|0:2,0:2:0:0:
33,133,17677,2,0,P|29:67|74:41,1,89.9999976158143,0|0,0:2|0:2,0:2:0:0:
211,0,17887,2,0,P|196:113|149:179,1,179.999995231629,2|2,1:2|0:2,0:2:0:0:
203,236,18202,2,0,P|202:295|235:343,1,89.9999976158143,0|10,0:2|0:2,0:2:0:0:
212,240,18516,2,0,B|193:318|193:318|200:337,1,89.9999976158143,2|0,0:2|0:2,0:2:0:0:
256,384,18726,6,0,P|309:359|375:363,1,89.9999976158143,2|0,1:2|0:2,0:2:0:0:
419,373,18936,2,0,P|484:345|494:294,1,89.9999976158143,0|0,0:2|0:2,0:2:0:0:
510,251,19146,2,0,P|454:240|406:204,1,89.9999976158143,10|0,0:2|0:2,0:2:0:0:
364,170,19355,2,0,P|367:117|410:90,1,89.9999976158143,0|0,0:2|0:2,0:2:0:0:
502,245,19565,2,0,P|348:267|260:312,1,179.999995231629,2|0,1:2|0:2,0:2:0:0:
254,236,19880,2,0,P|204:237|172:194,1,89.9999976158143,2|10,0:2|0:2,0:2:0:0:
259,224,20195,2,0,B|180:239|180:239|160:269,1,89.9999976158143,2|0,0:2|0:2,0:2:0:0:
342,191,20404,6,0,B|351:186|351:186|392:5,1,179.999995231629,2|0,1:2|0:2,0:2:0:0:
461,58,20719,2,0,B|468:64|468:64|491:161,1,89.9999976158143,0|10,0:2|0:2,0:2:0:0:
469,60,21034,2,0,P|476:119|446:162,1,89.9999976158143,0|0,0:2|0:2,0:2:0:0:
362,283,21244,2,0,P|250:276|172:303,1,179.999995231629,2|0,1:2|0:2,0:2:0:0:
124,347,21558,2,0,P|79:365|21:335,1,89.9999976158143,2|10,0:2|0:2,0:2:0:0:
119,340,21873,2,0,B|111:346|111:346|-16:373,1,89.9999976158143,2|0,0:2|0:2,0:2:0:0:
367,303,22083,6,0,B|360:295|360:295|154:268,1,179.999995231629,2|0,1:2|0:2,0:2:0:0:
121,232,22397,2,0,B|103:154|103:154|124:124,1,89.9999976158143,0|10,0:2|0:2,0:2:0:0:
112,239,22712,2,0,P|112:190|136:133,1,89.9999976158143,2|0,0:2|0:2,0:2:0:0:
184,95,22922,2,0,P|159:39|101:33,1,89.9999976158143,2|0,1:2|0:2,0:2:0:0:
58,1,23132,2,0,P|33:72|8:101,1,89.9999976158143,2|0,0:2|0:2,0:2:0:0:
4,161,23341,2,0,P|82:271|41:362,1,179.999995231629,10|2,0:2|0:2,0:2:0:0:
118,377,23656,2,0,P|166:346|213:355,1,89.9999976158143,0|2,0:2|1:2,0:2:0:0:
125,380,23971,6,0,B|129:372|129:372|246:331,1,89.9999976158143,2|0,0:2|0:2,0:2:0:0:
215,263,24181,1,8,0:2:0:0:
206,261,24285,1,2,0:2:0:0:
197,259,24390,1,2,0:2:0:0:
188,257,24495,1,2,0:2:0:0:
179,255,24600,1,2,1:2:0:0:
124,64,24915,1,2,0:2:0:0:
128,70,25020,2,0,B|132:80|132:80|116:171,1,89.9999976158143,10|0,0:2|0:2,0:2:0:0:
46,96,25230,1,2,0:2:0:0:
355,286,25439,6,2,B|350:290|350:290|366:329|366:329|392:338|392:338|443:326|443:326|448:329|448:329|421:243|421:243|403:226|403:226|400:220|400:220|371:195|371:195|312:214|312:214|320:242,3,359.999990463257,2|10|2|10,1:2|0:2|1:2|0:2,0:2:0:0:
148,7,27118,6,0,B|152:13|152:13|381:42,1,179.999995231629,6|2,1:2|0:2,0:2:0:0:
396,69,27432,2,0,B|401:63|401:63|511:48,1,89.9999976158143,0|10,0:2|0:2,0:2:0:0:
401,58,27747,2,0,P|453:61|500:95,1,89.9999976158143,0|0,0:2|0:2,0:2:0:0:
282,109,27957,2,0,P|341:208|281:306,1,179.999995231629,2|0,1:2|0:2,0:2:0:0:
274,327,28271,2,0,P|208:346|165:330,1,89.9999976158143,2|10,0:2|0:2,0:2:0:0:
274,319,28586,2,0,B|202:354|202:354|149:338,1,89.9999976158143,2|0,0:2|0:2,0:2:0:0:
0,233,28796,6,0,B|170:263|170:263|202:240,1,179.999995231629,2|0,1:2|0:2,0:2:0:0:
225,195,29111,2,0,B|212:116|212:116|185:97,1,89.9999976158143,0|10,0:2|0:2,0:2:0:0:
231,196,29425,2,0,P|226:149|170:106,1,89.9999976158143,2|0,0:2|0:2,0:2:0:0:
231,384,29635,2,0,P|272:271|402:247,1,179.999995231629,2|0,1:2|0:2,0:2:0:0:
396,217,29950,2,0,P|430:171|415:113,1,89.9999976158143,2|10,0:2|0:2,0:2:0:0:
403,225,30265,2,0,P|424:181|411:124,1,89.9999976158143,2|0,0:2|0:2,0:2:0:0:
512,0,30474,6,0,B|507:6|507:6|293:46,1,179.999995231629,2|0,1:2|0:2,0:2:0:0:
256,48,30789,2,0,B|253:52|253:52|141:72,1,89.9999976158143,0|10,0:2|0:2,0:2:0:0:
251,56,31104,2,0,P|201:56|135:39,1,89.9999976158143,0|0,0:2|0:2,0:2:0:0:
87,15,31313,2,0,P|31:31|8:83,1,89.9999976158143,2|0,1:2|0:2,0:2:0:0:
84,95,31523,2,0,P|121:177|117:221,1,89.9999976158143,0|2,0:2|0:2,0:2:0:0:
69,239,31733,2,0,P|41:294|60:343,1,89.9999976158143,10|0,0:2|0:2,0:2:0:0:
201,384,31943,2,0,B|195:379|195:379|90:359,1,89.9999976158143,2|0,0:2|0:2,0:2:0:0:
282,342,32153,6,0,B|279:347|279:347|75:375,1,179.999995231629,0|0,0:2|0:2,0:2:0:0:
37,327,32467,2,0,P|40:279|98:241,1,89.9999976158143,0|10,0:2|0:2,0:2:0:0:
47,324,32782,2,0,P|34:283|95:236,1,89.9999976158143,2|0,0:2|0:2,0:2:0:0:
47,163,32992,2,0,P|36:102|12:61,1,89.9999976158143,2|0,1:2|0:2,0:2:0:0:
78,16,33202,2,0,P|146:27|162:67,1,89.9999976158143,2|2,0:2|0:2,0:2:0:0:
231,12,33411,2,0,P|283:12|335:0,1,89.9999976158143,10|0,0:2|0:2,0:2:0:0:
374,65,33621,2,0,P|334:124|357:162,1,89.9999976158143,0|0,0:2|0:2,0:2:0:0:
512,0,33831,6,0,P|458:165|414:220,1,179.999995231629,2|0,1:2|0:2,0:2:0:0:
412,238,34146,2,0,B|420:241|420:241|441:362,1,89.9999976158143,0|10,0:2|0:2,0:2:0:0:
421,239,34460,2,0,P|421:325|396:356,1,89.9999976158143,2|0,0:2|0:2,0:2:0:0:
361,79,34670,2,0,P|241:18|127:9,1,179.999995231629,2|0,1:2|0:2,0:2:0:0:
114,13,34985,2,0,P|81:32|25:14,1,89.9999976158143,2|10,0:2|0:2,0:2:0:0:
117,24,35299,2,0,P|55:24|22:-7,1,89.9999976158143,2|0,0:2|0:2,0:2:0:0:
261,61,35509,6,0,B|270:70|270:70|301:289,1,179.999995231629,2|0,1:2|0:2,0:2:0:0:
342,300,35824,2,0,B|336:305|336:305|309:401,1,89.9999976158143,0|10,0:2|0:2,0:2:0:0:
334,301,36139,2,0,P|317:344|331:387,1,89.9999976158143,2|0,0:2|0:2,0:2:0:0:
405,356,36348,2,0,P|465:335|510:334,1,89.9999976158143,2|0,1:2|0:2,0:2:0:0:
459,257,36558,2,0,P|468:181|503:157,1,89.9999976158143,0|2,0:2|0:2,0:2:0:0:
508,99,36768,2,0,P|400:60|314:12,1,179.999995231629,10|2,0:2|0:2,0:2:0:0:
262,46,37083,2,0,B|185:27|185:27|161:-6,1,89.9999976158143,0|2,0:2|1:2,0:2:0:0:
0,242,37397,6,0,B|77:223|77:223|101:190,1,89.9999976158143,2|0,0:2|0:2,0:2:0:0:
32,154,37607,1,10,0:2:0:0:
29,145,37712,1,2,0:2:0:0:
26,136,37817,1,2,0:2:0:0:
23,127,37922,1,2,0:2:0:0:
20,118,38027,1,2,1:2:0:0:
174,299,38341,1,2,0:2:0:0:
182,302,38446,2,0,B|190:306|190:306|214:397,1,89.9999976158143,10|2,0:2|0:2,0:2:0:0:
216,232,38656,1,2,0:2:0:0:
467,130,38866,6,2,B|462:129|462:129|435:174|435:174|444:188|444:188|512:158|512:158|518:149|518:149|435:38|435:38|442:38|442:38|491:55|491:55|482:82,3,359.999990463257,6|10|2|10,1:2|0:2|1:2|0:2,0:2:0:0:
0,384,40544,6,0,B|168:358|168:358|194:386,1,179.999995231629,6|2,1:2|0:2,0:2:0:0:
255,376,40859,2,0,P|270:317|280:245,1,89.9999976158143,0|10,0:2|0:2,0:2:0:0:
262,380,41174,2,0,P|277:319|221:271,1,89.9999976158143,2|0,0:2|0:2,0:2:0:0:
243,220,41383,2,0,P|188:139|260:47,1,179.999995231629,2|0,1:2|0:2,0:2:0:0:
284,24,41698,2,0,B|292:28|292:28|315:136,1,89.9999976158143,2|10,0:2|0:2,0:2:0:0:
306,28,42013,2,0,B|297:106|297:106|313:125,1,89.9999976158143,2|0,0:2|0:2,0:2:0:0:
512,154,42223,6,0,P|350:183|310:216,1,179.999995231629,2|0,1:2|0:2,0:2:0:0:
287,250,42537,2,0,P|230:254|192:203,1,89.9999976158143,0|10,0:2|0:2,0:2:0:0:
288,257,42852,2,0,P|249:247|172:243,1,89.9999976158143,0|0,0:2|0:2,0:2:0:0:
135,292,43062,2,0,P|51:285|13:390,1,179.999995231629,2|0,1:2|0:2,0:2:0:0:
87,356,43376,2,0,P|105:305|111:245,1,89.9999976158143,2|10,0:2|0:2,0:2:0:0:
96,363,43691,2,0,B|108:283|108:283|94:257,1,89.9999976158143,2|2,0:2|0:2,0:2:0:0:
15,180,43901,6,0,B|4:98|4:98|26:74,1,89.9999976158143,2|0,1:2|0:2,0:2:0:0:
68,36,44111,2,0,P|111:42|153:10,1,89.9999976158143,2|0,0:2|0:2,0:2:0:0:
188,87,44320,2,0,P|251:84|314:65,1,89.9999976158143,10|0,0:2|0:2,0:2:0:0:
286,159,44530,2,0,P|360:185|372:230,1,89.9999976158143,2|0,0:2|0:2,0:2:0:0:
390,267,44740,2,0,P|425:108|460:57,1,179.999995231629,2|0,1:2|0:2,0:2:0:0:
465,26,45055,2,0,P|406:23|372:60,1,89.9999976158143,2|10,0:2|0:2,0:2:0:0:
468,17,45369,2,0,P|416:22|347:43,1,89.9999976158143,2|0,0:2|0:2,0:2:0:0:
320,150,45579,6,0,P|233:149|322:163,1,269.999992847443,2|0,1:2|0:2,0:2:0:0:
389,206,45999,2,0,P|397:148|352:72,1,89.9999976158143,10|0,0:2|0:2,0:2:0:0:
335,58,46209,2,0,P|262:42|201:71,1,89.9999976158143,0|0,0:2|0:2,0:2:0:0:
178,85,46418,2,0,P|151:177|203:266,1,179.999995231629,2|0,1:2|0:2,0:2:0:0:
245,194,46733,2,0,P|230:162|274:118,1,89.9999976158143,2|10,0:2|0:2,0:2:0:0:
253,297,47048,2,0,B|255:305|255:305|234:392,1,89.9999976158143,0|2,0:2|0:2,0:2:0:0:
455,345,47258,6,0,B|449:341|449:341|415:151,1,179.999995231629,2|0,1:2|0:2,0:2:0:0:
406,90,47572,2,0,B|391:8|391:8|377:-1,1,89.9999976158143,0|10,0:2|0:2,0:2:0:0:
394,88,47887,2,0,B|391:82|391:82|402:-26,1,89.9999976158143,2|0,1:2|0:2,0:2:0:0:
512,197,48097,2,0,B|506:192|506:192|318:227,1,179.999995231629,0|2,0:2|0:2,0:2:0:0:
269,267,48411,2,0,B|263:272|263:272|165:259,1,89.9999976158143,2|10,0:2|0:2,0:2:0:0:
264,260,48726,2,0,B|185:273|185:273|163:297,1,89.9999976158143,2|0,0:2|0:2,0:2:0:0:
398,368,48936,6,0,B|419:197|419:197|432:186,1,179.999995231629,2|0,1:2|0:2,0:2:0:0:
473,126,49251,2,0,P|508:79|499:28,1,89.9999976158143,0|10,0:2|0:2,0:2:0:0:
480,131,49565,2,0,P|496:88|492:2,1,89.9999976158143,2|0,0:2|0:2,0:2:0:0:
431,0,49775,2,0,P|354:15|344:58,1,89.9999976158143,2|0,1:2|0:2,0:2:0:0:
330,97,49985,2,0,P|350:161|344:212,1,89.9999976158143,2|2,0:2|0:2,0:2:0:0:
321,260,50195,2,0,P|210:220|88:215,1,179.999995231629,10|0,0:2|0:2,0:2:0:0:
81,257,50509,2,0,B|5:237|5:237|-17:203,1,89.9999976158143,0|2,0:2|1:2,0:2:0:0:
80,244,50824,6,0,B|77:252|77:252|-12:285,1,89.9999976158143,2|0,0:2|0:2,0:2:0:0:
145,303,51034,1,8,0:2:0:0:
147,311,51139,1,2,0:2:0:0:
149,319,51244,1,2,0:2:0:0:
151,327,51348,1,2,0:2:0:0:
153,335,51453,1,2,1:2:0:0:
188,79,51768,1,2,0:2:0:0:
183,86,51873,2,0,B|178:78|178:78|196:-7,1,89.9999976158143,10|0,0:2|0:2,0:2:0:0:
101,61,52083,1,2,0:2:0:0:
368,305,52292,6,2,B|363:307|363:307|356:277|356:277|401:266|401:266|410:269|410:269|451:260|451:260|462:230|462:230|452:188|452:188|309:171|309:171|304:204,3,359.999990463257,2|10|2|2,1:2|0:2|1:2|0:2,0:2:0:0:
375,381,53971,2,0,L|395:378,13,17.9999995231628,8|0|0|0|0|0|0|0|0|0|0|0|0|0,0:3|0:0|0:0|0:0|0:0|0:0|0:0|0:0|0:0|0:0|0:0|0:0|0:0|0:0,0:0:0:0:
480,132,56908,6,0,P|427:140|377:90,1,89.9999976158143,2|0,0:0|0:0,0:0:0:0:
351,55,57118,2,0,P|410:40|488:35,1,89.9999976158143,2|0,0:0|0:0,0:0:0:0:
431,245,57327,6,0,B|423:176|375:156|375:156|386:177|386:177|353:137|284:85|202:176|310:216|322:136,1,297.000001195908,6|0,1:3|0:0,0:0:0:0:
494,294,57747,2,0,P|433:331|391:302,1,99.0000003986359,10|0,0:0|0:0,0:0:0:0:
346,368,57957,2,0,P|328:293|327:243,1,99.0000003986359,2|0,0:0|0:0,0:0:0:0:
216,225,58167,6,0,B|169:190|126:194|126:194|143:205|143:205|81:208|44:251|44:251|63:209|133:185,1,297.000001195908,2|0,1:3|0:0,0:0:0:0:
0,274,58586,2,0,B|11:270|11:270|151:360|234:215|234:215|283:200,1,297.000001195908,10|0,0:0|3:0,0:0:0:0:
454,91,59006,6,0,P|369:105|311:136,1,99.0000003986359,2|0,1:3|0:0,0:0:0:0:
277,104,59216,2,0,P|230:57|177:70,1,99.0000003986359,2|0,0:0|0:0,0:0:0:0:
126,30,59425,2,0,P|126:84|156:142,1,99.0000003986359,10|0,0:0|0:0,0:0:0:0:
2,206,59635,6,0,B|-3:196|-3:196|26:182|64:191|64:191|61:199|61:199|137:212|157:270|157:270|152:202|89:190,1,297.000001195908,2|0,1:3|0:0,0:0:0:0:
133,348,60055,2,0,B|142:356|142:356|265:331,1,99.0000003986359,2|0,0:0|0:0,0:0:0:0:
302,365,60265,2,0,B|310:359|310:359|331:252,1,99.0000003986359,10|0,0:0|0:0,0:0:0:0:
342,193,60474,2,0,B|359:105|359:105|367:99,1,99.0000003986359,2|0,0:0|0:0,0:0:0:0:
477,0,60684,6,0,B|507:190|507:190|562:216,1,198.000000797272,6|0,1:3|0:0,0:0:0:0:
177,329,61104,6,0,B|199:335|214:359|214:359|215:309|154:285|71:336|83:340|59:398|-3:396|-4:344|15:326|61:381,1,297.000001195908,10|0,0:0|0:0,0:0:0:0:
182,239,61523,2,0,B|158:217|145:157|200:180|181:96|181:96|205:179|264:132|273:217|236:255,1,297.000001195908,2|2,1:3|0:0,0:0:0:0:
335,329,61943,2,0,B|313:335|298:359|298:359|297:309|358:285|441:336|429:340|453:398|515:396|516:344|497:326|451:381,1,297.000001195908,10|0,0:0|0:0,0:0:0:0:
330,239,62362,2,0,B|353:217|366:157|311:180|330:96|330:96|306:179|247:132|238:217|275:255,1,297.000001195908,2|0,1:3|0:0,0:0:0:0:
256,80,62782,6,0,P|246:29|290:15,1,99.0000003986359,10|0,0:0|0:0,0:0:0:0:
255,80,62992,2,0,P|268:35|228:13,1,99.0000003986359,2|0,0:0|0:0,0:0:0:0:
107,12,63202,6,0,P|253:34|400:16,1,297.000001195908,2|2,1:3|0:0,0:0:0:0:
475,40,63621,2,0,P|506:78|494:133,1,99.0000003986359,10|0,0:0|0:0,0:0:0:0:
441,179,63831,2,0,P|435:240|403:297,1,99.0000003986359,2|0,0:0|0:0,0:0:0:0:
140,137,64041,6,0,B|114:162|119:200|119:200|156:103|237:81|237:81|248:144|321:115,1,297.000001195908,6|0,1:3|0:0,0:0:0:0:
376,11,64460,2,0,P|327:21|317:79,1,99.0000003986359,10|0,0:0|0:0,0:0:0:0:
388,86,64670,2,0,P|461:110|516:112,1,99.0000003986359,2|0,0:0|0:0,0:0:0:0:
350,255,64880,6,0,B|352:264|352:264|395:258|395:258|396:251|396:251|440:236|435:172|410:153|355:146|306:166|277:182|299:259|341:254,1,297.000001195908,2|0,1:3|0:0,0:0:0:0:
325,332,65299,2,0,P|390:350|445:380,1,99.0000003986359,10|0,0:0|0:0,0:0:0:0:
347,373,65509,2,0,P|386:343|433:321,1,99.0000003986359,0|0,0:0|3:0,0:0:0:0:
507,302,65719,6,0,P|497:249|510:198,1,99.0000003986359,2|0,1:3|0:0,0:0:0:0:
497,126,65929,2,0,P|446:136|431:194,1,99.0000003986359,2|0,0:0|0:0,0:0:0:0:
354,144,66139,2,0,P|294:129|237:93,1,99.0000003986359,10|0,0:0|0:0,0:0:0:0:
117,170,66348,6,0,B|139:205|165:216|203:196|206:175|195:147|156:137|128:152|139:246|196:297|272:284|305:220,1,297.000001195908,2|0,1:3|0:0,0:0:0:0:
360,270,66768,2,0,B|368:272|368:272|397:382,1,99.0000003986359,2|0,0:0|0:0,0:0:0:0:
467,334,66978,2,0,P|504:290|493:236,1,99.0000003986359,10|0,0:0|0:0,0:0:0:0:
451,188,67188,2,0,P|461:127|483:72,1,99.0000003986359,2|0,0:0|0:0,0:0:0:0:
284,20,67397,6,0,B|242:26|233:-1|233:-1|270:18|292:77|283:112|245:133|245:99|213:159|237:206|290:198|259:154,1,297.000001195908,6|0,1:3|0:0,0:0:0:0:
304,252,67817,2,0,P|255:264|200:246,1,99.0000003986359,10|0,0:0|0:0,0:0:0:0:
234,373,68027,2,0,P|254:338|276:373,1,99.0000003986359,2|0,0:0|0:0,0:0:0:0:
156,270,68237,6,0,P|256:258|364:276,1,198.000000797272,2|0,1:3|0:0,0:0:0:0:
254,185,68551,1,2,0:0:0:0:
254,185,68656,2,0,P|263:144|200:112,1,99.0000003986359,10|0,0:0|0:0,0:0:0:0:
254,184,68866,2,0,P|245:143|308:111,1,99.0000003986359,2|2,0:0|0:0,0:0:0:0:
91,23,69076,6,0,B|119:43|119:43|195:2|195:2|211:29|211:29|244:31|244:31|256:37|256:37|268:31|268:31|301:29|301:29|317:2|317:2|393:43|393:43|421:19,3,396.000001594544,6|10|6|14,1:3|0:0|1:2|0:0,0:0:0:0:
256,116,70544,1,0,0:0:0:0:
64,106,70754,5,4,1:3:0:0:
59,100,70964,2,0,B|52:104|52:104|13:325,2,198.000000797272,2|10|2,0:2|0:0|0:0,0:0:0:0:
189,42,71593,2,0,B|185:34|185:34|6:6|6:6|-25:29,1,198.000000797272,2|0,1:2|0:0,0:0:0:0:
0,163,72013,2,0,B|7:166|7:166|69:381,2,198.000000797272,10|0|2,0:0|0:0|1:2,0:0:0:0:
36,55,72642,2,0,B|33:62|33:62|121:93|121:93|162:14|162:14|155:10,1,198.000000797272,0|10,0:0|0:0,0:0:0:0:
213,120,73062,2,0,B|216:124|216:124|144:302|144:302|127:110|127:110|144:101,1,396.000001594544,2|2,1:2|0:0,0:0:0:0:
264,220,73691,6,0,P|333:188|390:187,1,99.0000003986359,10|0,0:0|0:0,0:0:0:0:
404,122,73901,2,0,P|457:168|441:221,1,99.0000003986359,2|0,0:0|0:0,0:0:0:0:
251,139,74111,6,0,B|242:98|202:85|211:109|166:78|175:7|237:15|256:35|256:35|292:5|346:31|338:121|232:106,1,297.000001195908,2|0,1:2|0:0,0:0:0:0:
208,209,74530,2,0,P|256:218|303:207,1,99.0000003986359,10|0,0:0|0:0,0:0:0:0:
236,293,74740,2,0,P|255:328|277:293,1,99.0000003986359,2|0,0:0|0:0,0:0:0:0:
160,384,74950,6,0,P|255:362|351:384,1,198.000000797272,2|0,1:2|0:0,0:0:0:0:
372,269,75265,1,0,0:0:0:0:
372,269,75369,2,0,P|320:287|262:293,1,99.0000003986359,10|0,0:0|0:0,0:0:0:0:
235,292,75579,2,0,P|186:285|140:269,1,99.0000003986359,2|0,0:0|0:0,0:0:0:0:
256,143,75789,6,0,B|179:94|188:-26|337:-52|359:59|276:96,1,297.000001195908,2|0,1:2|0:0,0:0:0:0:
301,205,76209,2,0,P|255:219|209:204,1,99.0000003986359,10|0,0:0|0:0,0:0:0:0:
235,329,76418,2,0,P|254:293|276:328,1,99.0000003986359,2|0,0:0|0:0,0:0:0:0:
159,240,76628,6,0,P|254:218|350:240,1,198.000000797272,2|0,1:2|0:0,0:0:0:0:
298,141,76943,1,2,0:0:0:0:
298,141,77048,2,0,B|256:130|256:60|256:60|256:130|196:149,1,198.000000797272,10|2,0:0|0:0,0:0:0:0:
317,10,77467,6,0,B|323:15|323:15|519:-1,2,198.000000797272,4|0|10,1:3|0:0|0:0,0:0:0:0:
376,92,78097,1,0,0:0:0:0:
382,96,78306,2,0,B|389:101|389:101|424:361,1,198.000000797272,2|2,1:2|0:0,0:0:0:0:
429,384,78726,2,0,B|436:380|436:380|437:290|437:290|360:335|360:335|362:359,1,198.000000797272,10|2,0:2|0:0,0:0:0:0:
307,263,79146,2,0,B|304:257|304:257|267:246|267:246|324:153|324:153|351:183|351:183|379:174,1,198.000000797272,2|2,1:2|0:0,0:0:0:0:
446,86,79565,1,10,0:0:0:0:
454,85,79775,2,0,B|479:82|479:82|489:90|489:90|507:198|507:198|500:206|500:206|434:181|434:181|405:23|405:23|416:15,1,396.000001594544,2|2,0:0|0:0,0:0:0:0:
388,173,80404,2,0,B|392:177|392:177|337:253|337:253|338:160|338:160|353:157,1,198.000000797272,10|2,0:0|0:0,0:0:0:0:
205,57,80824,6,0,B|200:61|200:61|87:47,1,89.9999976158143,2|0,1:2|0:0,0:0:0:0:
34,0,81034,2,0,B|30:5|30:5|44:118,1,89.9999976158143,2|0,0:0|0:0,0:0:0:0:
113,134,81244,1,10,0:0:0:0:
111,142,81348,1,2,0:0:0:0:
109,150,81453,1,2,0:0:0:0:
107,158,81558,1,2,0:0:0:0:
105,166,81663,1,2,1:2:0:0:
72,261,81873,2,0,B|76:268|76:268|153:294,1,89.9999976158143,0|2,0:0|0:0,0:0:0:0:
0,384,82083,2,0,B|4:376|4:376|80:349,1,89.9999976158143,10|2,0:0|0:0,0:0:0:0:
193,142,82292,2,0,B|209:225|209:225|215:227,1,89.9999976158143,2|2,0:0|0:0,0:0:0:0:
400,358,82502,6,2,B|399:363|399:363|439:372|439:372|456:327|456:327|451:319|451:319|307:368|307:368|336:273|336:273|389:290,2,359.999990463257,6|10|2,1:2|0:0|1:2,0:0:0:0:
487,185,83551,2,0,B|490:180|490:180|452:145|452:145|442:150|442:150|419:253|419:253|364:265,2,179.999995231629,2|10|2,0:0|0:0|0:0,0:0:0:0:
256,268,84181,5,6,1:2:0:0:
256,268,85334,1,2,0:2:0:0:
248,263,85439,2,0,P|197:276|154:299,1,89.9999976158143,10|0,0:2|0:2,0:2:0:0:
121,222,85649,2,0,P|69:210|51:156,1,89.9999976158143,2|0,0:2|0:2,0:2:0:0:
280,342,85859,6,0,B|274:336|274:336|308:115,1,179.999995231629,6|0,1:2|0:2,0:2:0:0:
377,193,86174,2,0,B|372:199|372:199|383:294,1,89.9999976158143,0|10,0:2|0:2,0:2:0:0:
386,197,86488,2,0,P|384:237|367:293,1,89.9999976158143,2|0,0:2|0:2,0:2:0:0:
280,342,86698,2,0,P|195:341|75:403,1,179.999995231629,2|2,1:2|0:2,0:2:0:0:
88,296,87013,2,0,P|43:296|10:264,1,89.9999976158143,2|10,0:2|0:2,0:2:0:0:
93,300,87327,2,0,B|21:286|21:286|-6:266,1,89.9999976158143,0|0,0:2|0:2,0:2:0:0:
158,232,87537,6,0,B|138:58|138:58|155:39,1,179.999995231629,2|0,1:2|0:2,0:2:0:0:
202,0,87852,2,0,B|206:4|206:4|315:15,1,89.9999976158143,0|10,0:2|0:2,0:2:0:0:
207,10,88167,2,0,P|241:20|304:-10,1,89.9999976158143,2|0,0:2|0:2,0:2:0:0:
295,84,88376,2,0,P|302:140|326:211,1,89.9999976158143,2|0,1:2|0:2,0:2:0:0:
391,162,88586,2,0,P|383:218|338:242,1,89.9999976158143,2|2,0:2|0:2,0:2:0:0:
331,314,88796,2,0,P|280:329|230:365,1,89.9999976158143,10|0,0:2|0:2,0:2:0:0:
186,225,89006,2,0,B|192:231|192:231|289:248,1,89.9999976158143,0|0,0:2|0:2,0:2:0:0:
92,263,89216,6,0,B|97:258|97:258|289:235,1,179.999995231629,2|0,1:2|0:2,0:2:0:0:
328,292,89530,2,0,P|370:313|430:321,1,89.9999976158143,0|10,0:2|0:2,0:2:0:0:
512,0,89845,2,0,P|444:13|384:39,1,89.9999976158143,2|0,0:2|0:2,0:2:0:0:
343,6,90055,2,0,P|327:62|266:73,1,89.9999976158143,2|0,1:2|0:2,0:2:0:0:
239,128,90265,2,0,P|186:108|143:111,1,89.9999976158143,2|2,0:2|0:2,0:2:0:0:
129,31,90474,2,0,P|60:41|47:85,1,89.9999976158143,10|0,0:2|0:2,0:2:0:0:
195,199,90684,2,0,B|171:278|171:278|165:282,1,89.9999976158143,0|0,0:2|0:2,0:2:0:0:
146,106,90894,6,0,B|150:109|150:109|182:301,1,179.999995231629,2|0,1:2|0:2,0:2:0:0:
258,300,91209,2,0,B|252:304|252:304|227:401,1,89.9999976158143,0|10,0:2|0:2,0:2:0:0:
251,298,91523,2,0,P|236:364|216:385,1,89.9999976158143,2|0,0:2|0:2,0:2:0:0:
258,219,91733,2,0,P|349:222|440:141,1,179.999995231629,2|2,1:2|0:2,0:2:0:0:
429,92,92048,2,0,P|381:66|324:85,1,89.9999976158143,2|10,0:2|0:2,0:2:0:0:
433,98,92362,2,0,B|423:86|423:86|334:59,1,89.9999976158143,0|0,0:2|0:2,0:2:0:0:
198,0,92572,6,0,B|225:169|225:169|270:190,1,179.999995231629,2|2,1:2|0:2,0:2:0:0:
221,253,92887,2,0,P|286:274|343:316,1,89.9999976158143,0|10,0:2|0:2,0:2:0:0:
224,259,93202,2,0,P|269:255|299:303,1,89.9999976158143,2|0,0:2|0:2,0:2:0:0:
313,365,93411,2,0,P|371:343|441:336,1,89.9999976158143,2|0,1:2|0:2,0:2:0:0:
466,383,93621,2,0,P|497:338|463:284,1,89.9999976158143,0|2,0:2|0:2,0:2:0:0:
421,261,93831,2,0,P|383:158|408:48,1,179.999995231629,10|2,0:2|0:2,0:2:0:0:
415,12,94146,2,0,B|408:8|408:8|305:23,1,89.9999976158143,0|2,0:2|1:2,0:2:0:0:
158,71,94460,6,0,B|118:0|118:0|109:0,1,89.9999976158143,2|0,0:2|0:2,0:2:0:0:
67,95,94670,1,10,0:2:0:0:
58,93,94775,1,2,0:2:0:0:
49,91,94880,1,2,0:2:0:0:
40,89,94985,1,2,0:2:0:0:
31,87,95090,1,2,1:2:0:0:
137,290,95404,1,2,0:2:0:0:
130,284,95509,2,0,B|125:291|125:291|149:411,1,89.9999976158143,10|2,0:2|0:2,0:2:0:0:
208,250,95719,1,2,0:2:0:0:
342,274,95929,6,2,L|348:304,1,26.9999992847443,2|0,0:0|3:0,0:0:0:0:
345,308,96348,6,2,B|342:317|342:317|357:374|357:374|366:379|366:379|467:353|467:353|471:345|471:345|454:276,1,215.999994277954,2|0,0:0|3:0,0:0:0:0:
462,314,96768,6,2,B|445:256|445:256|448:246|448:246|492:218|492:218|506:186,1,134.999996423721,2|0,0:0|3:0,0:0:0:0:
499,199,97188,6,2,B|506:162|506:162|500:152|500:152|397:136|397:136|389:128|389:128|395:74|395:74|402:67|402:67|461:75,1,269.999992847443,2|0,0:3|3:0,0:0:0:0:
512,15,97607,6,0,B|344:39|344:39|317:21,1,179.999995231629,6|2,1:2|0:2,0:2:0:0:
255,15,97922,2,0,P|175:37|160:79,1,89.9999976158143,0|10,0:2|0:2,0:2:0:0:
259,7,98237,2,0,P|203:15|177:54,1,89.9999976158143,2|0,0:2|0:2,0:2:0:0:
232,102,98446,2,0,P|207:203|148:266,1,179.999995231629,2|0,1:2|0:2,0:2:0:0:
82,289,98761,2,0,B|76:293|76:293|55:377,1,89.9999976158143,2|10,0:2|0:2,0:2:0:0:
67,288,99076,2,0,B|73:371|73:371|88:387,1,89.9999976158143,2|0,0:2|0:2,0:2:0:0:
10,159,99285,6,0,P|108:164|177:244,1,179.999995231629,2|0,1:2|0:2,0:2:0:0:
227,163,99600,2,0,P|279:156|304:119,1,89.9999976158143,0|10,0:2|0:2,0:2:0:0:
228,174,99915,2,0,P|273:156|321:122,1,89.9999976158143,0|0,0:2|0:2,0:2:0:0:
334,55,100125,2,0,P|422:77|477:2,1,179.999995231629,2|0,1:2|0:2,0:2:0:0:
395,0,100439,2,0,P|367:81|367:127,1,89.9999976158143,2|10,0:2|0:2,0:2:0:0:
387,2,100754,2,0,B|371:83|371:83|401:138,1,89.9999976158143,2|0,0:2|0:2,0:2:0:0:
512,190,100964,6,0,P|428:159|392:160,1,89.9999976158143,2|0,1:2|0:2,0:2:0:0:
433,240,101174,2,0,P|464:277|450:328,1,89.9999976158143,2|0,0:2|0:2,0:2:0:0:
392,361,101383,2,0,P|369:316|365:238,1,89.9999976158143,10|0,0:2|0:2,0:2:0:0:
353,196,101593,2,0,P|290:224|293:279,1,89.9999976158143,2|0,0:2|0:2,0:2:0:0:
256,315,101803,2,0,P|126:355|61:276,1,179.999995231629,2|0,1:2|0:2,0:2:0:0:
40,280,102118,2,0,P|28:225|38:172,1,89.9999976158143,2|10,0:2|0:2,0:2:0:0:
46,275,102432,2,0,P|20:235|60:189,1,89.9999976158143,2|0,0:2|0:2,0:2:0:0:
12,121,102642,6,0,B|108:99|83:195|191:159,1,179.999995231629,2|0,1:2|0:2,0:2:0:0:
233,103,102957,2,0,P|234:54|201:19,1,89.9999976158143,0|10,0:2|0:2,0:2:0:0:
226,99,103271,2,0,P|236:55|187:3,1,89.9999976158143,0|0,0:2|0:2,0:2:0:0:
333,85,103481,2,0,P|359:168|336:83,1,269.999992847443,2|2,1:2|0:2,0:2:0:0:
354,0,103901,2,0,P|415:16|465:66,1,89.9999976158143,10|0,0:2|0:2,0:2:0:0:
512,150,104111,2,0,B|507:155|507:155|490:247,1,89.9999976158143,2|0,0:2|0:2,0:2:0:0:
348,323,104320,6,0,B|342:320|342:320|151:344,1,179.999995231629,2|0,1:2|0:2,0:2:0:0:
88,352,104635,2,0,B|4:363|4:363|-12:350,1,89.9999976158143,0|10,0:2|0:2,0:2:0:0:
89,359,104950,2,0,B|4:350|4:350|-14:326,1,89.9999976158143,2|0,1:2|0:2,0:2:0:0:
242,384,105160,2,0,B|271:212|271:212|247:187,1,179.999995231629,0|2,0:2|0:2,0:2:0:0:
292,131,105474,2,0,B|288:127|288:127|306:31,1,89.9999976158143,2|10,0:2|0:2,0:2:0:0:
305,136,105789,2,0,B|297:52|297:52|274:38,1,89.9999976158143,2|0,0:2|0:2,0:2:0:0:
512,285,105999,6,0,B|507:291|507:291|282:310,1,179.999995231629,2|0,1:2|0:2,0:2:0:0:
256,288,106313,2,0,P|195:303|145:331,1,89.9999976158143,0|10,0:2|0:2,0:2:0:0:
251,296,106628,2,0,P|205:290|174:332,1,89.9999976158143,2|0,0:2|0:2,0:2:0:0:
127,384,106838,2,0,P|73:367|22:365,1,89.9999976158143,2|0,1:2|0:2,0:2:0:0:
1,291,107048,2,0,P|42:248|90:258,1,89.9999976158143,2|2,0:2|0:2,0:2:0:0:
142,210,107258,2,0,P|101:101|97:20,1,179.999995231629,10|0,0:2|0:2,0:2:0:0:
172,9,107572,2,0,B|180:12|180:12|231:108,1,89.9999976158143,0|2,0:2|1:2,0:2:0:0:
178,0,107887,6,0,B|211:62|211:62|205:116,1,89.9999976158143,2|0,0:2|0:2,0:2:0:0:
96,38,108097,1,8,0:2:0:0:
87,36,108202,1,2,0:2:0:0:
78,34,108306,1,2,0:2:0:0:
69,32,108411,1,2,0:2:0:0:
60,30,108516,1,2,1:2:0:0:
124,252,108831,1,2,0:2:0:0:
119,259,108936,2,0,B|130:265|130:265|214:248,1,89.9999976158143,10|0,0:2|0:2,0:2:0:0:
89,333,109146,1,2,0:2:0:0:
487,194,109355,6,2,B|484:188|484:188|479:191|479:191|469:232|469:232|466:231|466:231|469:232|469:232|462:256|462:256|465:257|465:257|462:256|462:256|456:276|456:276|458:279|458:279|443:295|443:295|432:295|432:295|432:311|432:311|432:295|432:295|425:295|425:295|396:255|396:255|393:258|393:258|395:255|395:255|383:242|383:242|383:237|383:237|393:231|393:231|390:225|390:225|400:193|400:193|404:191|404:191|391:170|391:170|386:172|386:172|375:216,3,359.999990463257,6|10|2|10,1:2|0:0|1:2|0:0,0:0:0:0:
338,335,111034,2,0,L|363:331,13,17.9999995231628,8|0|0|0|0|0|0|0|0|0|0|0|0|0,0:3|0:0|0:0|0:0|0:0|0:0|0:0|0:0|0:0|0:0|0:0|0:0|0:0|0:0,0:0:0:0:
266,302,113971,6,0,P|193:291|154:273,1,89.9999976158143,2|0,0:0|0:0,0:0:0:0:
110,331,114181,2,0,P|156:369|213:356,1,89.9999976158143,2|0,0:0|0:0,0:0:0:0:
182,191,114390,6,0,B|172:234|122:256|122:256|136:238|136:238|100:272|29:245|82:269|27:214|-27:228|10:321|76:296|92:223,1,297.000001195908,6|0,1:3|0:0,0:0:0:0:
51,96,114810,2,0,P|50:150|119:178,1,99.0000003986359,10|0,0:0|0:0,0:0:0:0:
128,112,115020,2,0,P|144:64|152:4,1,99.0000003986359,2|0,0:0|0:0,0:0:0:0:
281,106,115230,6,0,B|300:96|300:96|316:65|342:53|342:53|375:58|375:58|400:43|400:43|437:47|457:68|457:68|478:72|478:72|443:77|421:125,1,297.000001195908,2|0,1:3|0:0,0:0:0:0:
243,120,115649,2,0,B|266:122|266:122|392:188|495:76|495:76|536:59,1,297.000001195908,10|0,0:0|0:3,0:0:0:0:
267,209,116069,6,0,P|296:281|301:338,1,99.0000003986359,2|0,1:3|0:0,0:0:0:0:
256,368,116278,2,0,P|191:371|158:317,1,99.0000003986359,2|0,0:0|0:0,0:0:0:0:
183,271,116488,2,0,P|89:293|47:323,1,99.0000003986359,10|0,0:0|0:0,0:0:0:0:
19,144,116698,6,0,B|8:128|-27:126|-30:178|27:196|74:177|72:149|63:150|74:134|112:109|151:129|151:129|165:174|135:199|135:199|109:185,1,297.000001195908,2|0,1:3|0:0,0:0:0:0:
49,64,117118,2,0,B|53:58|53:58|156:37,1,99.0000003986359,2|0,0:0|0:0,0:0:0:0:
212,0,117327,2,0,B|216:6|216:6|319:27,1,99.0000003986359,10|0,0:0|0:0,0:0:0:0:
284,101,117537,2,0,B|279:105|279:105|251:210,1,99.0000003986359,2|0,0:0|0:0,0:0:0:0:
512,212,117747,6,0,B|323:237|323:237|310:269,1,198.000000797272,6|0,1:3|0:0,0:0:0:0:
45,176,118167,6,0,B|64:184|64:184|50:275|137:308|137:308|57:274|2:354|77:395|125:327|125:306|117:294|113:298|120:298|112:293|110:303|121:294|126:293,1,297.000001195908,10|0,0:0|3:0,0:0:0:0:
159,213,118586,2,0,B|146:223|146:223|216:221|256:280|256:280|292:220|366:223|366:223|349:206,1,297.000001195908,2|0,1:3|3:0,0:0:0:0:
467,176,119006,2,0,B|447:184|447:184|461:275|374:308|374:308|454:274|509:354|434:395|386:327|386:306|394:294|398:298|391:298|399:293|401:303|390:294|385:293,1,297.000001195908,10|0,0:0|3:0,0:0:0:0:
296,384,119425,2,0,B|302:375|302:375|306:303|256:250|256:250|204:306|210:375|210:375|216:384,1,297.000001195908,2|0,1:3|3:0,0:0:0:0:
211,192,119845,6,0,P|256:176|302:192,1,99.0000003986359,10|0,0:0|0:0,0:0:0:0:
241,60,120055,2,0,P|256:96|271:60,1,99.0000003986359,2|0,0:0|0:0,0:0:0:0:
109,119,120265,2,0,P|255:139|402:118,1,297.000001195908,2|2,1:2|0:0,0:0:0:0:
512,238,120684,2,0,P|448:194|406:216,1,99.0000003986359,10|0,0:0|0:0,0:0:0:0:
395,267,120894,2,0,P|374:343|352:373,1,99.0000003986359,2|0,0:0|0:0,0:0:0:0:
113,260,121104,6,0,B|88:254|74:224|100:203|134:210|140:276|119:236|144:356|212:381|287:358|311:311|278:250|226:267,1,297.000001195908,6|0,1:3|0:0,0:0:0:0:
90,337,121523,2,0,P|57:367|0:360,1,99.0000003986359,10|0,0:0|0:0,0:0:0:0:
21,284,121733,2,0,P|4:235|-1:183,1,99.0000003986359,2|0,0:0|0:0,0:0:0:0:
160,128,121943,6,0,B|158:137|158:137|115:131|115:131|114:124|114:124|70:109|75:45|100:26|155:19|204:39|233:55|211:132|168:128,1,297.000001195908,2|0,1:3|0:0,0:0:0:0:
185,205,122362,2,0,P|120:223|65:253,1,99.0000003986359,10|0,0:0|0:0,0:0:0:0:
79,194,122572,2,0,P|123:215|162:245,1,99.0000003986359,0|0,0:0|0:0,0:0:0:0:
198,370,122782,6,0,P|210:307|287:295,1,99.0000003986359,2|0,1:3|0:0,0:0:0:0:
281,223,122992,2,0,P|341:214|394:184,1,99.0000003986359,2|0,0:0|0:0,0:0:0:0:
321,138,123202,2,0,P|280:114|278:40,1,99.0000003986359,10|0,0:0|0:0,0:0:0:0:
512,0,123411,6,0,B|504:43|467:47|467:47|476:150|401:187|401:187|450:216|440:277,1,297.000001195908,2|0,1:3|0:0,0:0:0:0:
512,337,123831,2,0,B|504:331|504:331|381:311,1,99.0000003986359,2|0,0:0|0:0,0:0:0:0:
364,256,124041,2,0,P|331:318|347:360,1,99.0000003986359,10|0,0:0|3:3,0:0:0:0:
257,354,124251,2,0,P|191:368|148:392,1,99.0000003986359,2|0,0:0|0:0,0:0:0:0:
212,246,124460,6,0,B|243:191|193:159|145:212|138:297|273:333|326:248|320:164|229:130,1,297.000001195908,6|2,1:3|0:0,0:0:0:0:
256,3,124880,2,0,P|234:83|192:89,1,99.0000003986359,10|0,0:0|0:0,0:0:0:0:
256,3,125090,2,0,P|251:50|284:85,1,99.0000003986359,2|0,0:0|0:0,0:0:0:0:
159,3,125299,6,0,P|255:21|352:3,1,198.000000797272,2|0,1:3|0:0,0:0:0:0:
416,70,125614,1,2,0:0:0:0:
416,70,125719,2,0,P|365:97|374:161,1,99.0000003986359,10|0,0:0|0:0,0:0:0:0:
152,133,125929,2,0,P|140:87|96:70,1,99.0000003986359,2|2,0:0|0:0,0:0:0:0:
178,263,126139,6,0,B|209:243|209:243|216:218|216:218|210:200|210:200|255:94|255:94|303:200|303:200|297:218|297:218|304:243|304:243|336:263,3,396.000001594544,6|10|6|14,1:3|0:0|1:2|0:0,0:0:0:0:
208,354,127817,5,4,1:3:0:0:
213,359,128027,2,0,B|204:368|204:368|12:347,2,198.000000797272,2|10|2,0:0|0:0|0:0,0:0:0:0:
139,255,128656,2,0,B|127:264|127:264|128:348|128:348|167:274|167:274|160:260,1,198.000000797272,2|0,1:2|0:0,0:0:0:0:
28,264,129076,2,0,B|35:266|35:266|71:212|71:212|53:186|53:186|55:156|55:156|4:131|4:131|-9:144,1,198.000000797272,10|0,0:0|0:0,0:0:0:0:
208,0,129495,2,0,B|216:5|216:5|211:13|211:13|19:64,2,198.000000797272,2|0|10,1:3|0:0|0:0,0:0:0:0:
186,113,130125,2,0,B|201:127|201:127|206:282|206:282|160:295|160:295|114:269|114:269|137:221|137:221|230:233,1,396.000001594544,2|2,1:2|0:0,0:0:0:0:
205,377,130754,6,0,P|284:346|336:348,1,99.0000003986359,10|0,0:0|0:0,0:0:0:0:
357,291,130964,2,0,P|401:327|457:312,1,99.0000003986359,2|0,0:0|0:0,0:0:0:0:
250,268,131174,6,0,B|241:227|201:214|210:238|165:207|174:136|236:144|255:164|255:164|291:134|345:160|337:250|231:235,1,297.000001195908,2|0,1:2|3:0,0:0:0:0:
256,78,131593,2,0,P|268:33|208:12,1,99.0000003986359,10|0,0:0|0:0,0:0:0:0:
256,78,131803,2,0,P|244:33|304:12,1,99.0000003986359,2|0,0:0|0:0,0:0:0:0:
157,86,132013,6,0,P|255:74|352:86,1,198.000000797272,2|0,1:2|0:0,0:0:0:0:
240,154,132327,1,0,0:0:0:0:
240,154,132432,2,0,P|256:190|273:154,1,99.0000003986359,10|0,0:0|0:0,0:0:0:0:
210,249,132642,2,0,P|257:235|304:248,1,99.0000003986359,2|0,0:0|0:0,0:0:0:0:
118,265,132852,6,0,B|136:283|136:283|256:239|376:283|376:283|414:247,1,297.000001195908,2|0,1:2|3:0,0:0:0:0:
256,336,133271,2,0,P|222:374|167:361,1,99.0000003986359,10|0,0:0|0:0,0:0:0:0:
256,336,133481,2,0,P|290:374|345:361,1,99.0000003986359,2|0,0:0|0:0,0:0:0:0:
223,232,133691,6,0,P|255:159|289:231,1,198.000000797272,2|0,1:2|0:0,0:0:0:0:
219,90,134006,1,2,0:0:0:0:
219,90,134111,2,0,B|205:79|205:79|247:67|256:23|256:23|265:67|307:79|307:79|263:121,1,198.000000797272,10|2,0:0|0:0,0:0:0:0:
512,73,134530,6,0,B|342:4|342:4|296:17,2,198.000000797272,6|0|10,1:3|0:0|0:0,0:0:0:0:
399,118,135160,1,0,0:0:0:0:
395,123,135369,2,0,B|388:132|388:132|401:197|401:197|411:203|411:203|467:193|467:193|476:197|476:197|495:286,1,198.000000797272,2|0,1:2|0:0,0:0:0:0:
510,332,135789,2,0,B|511:328|511:328|418:310|418:310|357:382|357:382|362:384,1,198.000000797272,10|0,0:2|0:0,0:0:0:0:
296,312,136209,2,0,B|299:309|299:309|333:78,2,198.000000797272,2|0|10,1:2|0:0|0:0,0:0:0:0:
297,185,136838,2,0,B|295:191|295:191|303:213|303:213|319:218|319:218|420:185|420:185|424:173|424:173|406:100|406:100|409:91|409:91|464:73|464:73|473:76|473:76|492:145|492:145|536:149,1,396.000001594544,2|2,0:0|0:0,0:0:0:0:
466,277,137467,2,0,B|468:280|468:280|436:329|436:329|372:309|372:309|377:248|377:248|384:246,1,198.000000797272,10|2,0:0|0:0,0:0:0:0:
212,373,137887,6,0,B|203:369|203:369|91:389,1,99.0000003986359,2|0,1:2|0:0,0:0:0:0:
20,243,138097,2,0,B|40:326|40:326|66:339,1,99.0000003986359,2|0,0:0|0:0,0:0:0:0:
157,299,138306,1,10,0:0:0:0:
147,296,138411,1,2,0:0:0:0:
137,293,138516,1,2,0:0:0:0:
127,290,138621,1,2,0:0:0:0:
117,288,138726,1,2,1:2:0:0:
98,183,138936,2,0,B|104:179|104:179|131:79,1,99.0000003986359,2|0,0:0|0:0,0:0:0:0:
256,0,139146,6,0,P|285:57|323:53,1,99.0000003986359,10|2,0:0|0:0,0:0:0:0:
256,0,139355,2,0,P|227:57|189:53,1,99.0000003986359,2|0,0:0|0:0,0:0:0:0:
325,173,139565,6,0,B|325:225|325:225|256:259|256:259|256:130|256:130|186:162|186:162|186:248,1,396.000001594544,6|10,1:2|0:0,0:0:0:0:
256,340,140195,1,2,0:0:0:0:
256,340,140404,2,0,L|256:376,1,35.9999990463257,2|2,1:2|0:0,0:0:0:0:
55,267,152992,6,0,L|94:262,1,35.9999990463257,2|2,0:0|0:0,0:0:0:0:
168,246,153621,2,0,L|224:238,1,53.9999985694885,2|2,0:0|0:0,0:0:0:0:
54,266,154670,6,2,B|60:268|60:268|144:246|144:246|158:253|158:253|202:298|202:298|202:311|202:311|193:257|193:257|208:232|208:232|212:219|212:219|200:177|200:177|189:169|189:169|156:175,1,359.999990463257,6|10,1:3|0:0,0:0:0:0:
339,119,155299,2,2,B|335:125|335:125|374:275|374:275|392:283|392:283|398:290|398:290|411:354|411:354|406:362|406:362|271:387|271:387|266:382|266:382|281:325|281:325|287:320|287:320|293:280|293:280|252:221,1,539.999985694885,2|10,0:0|0:0,0:0:0:0:
55,266,156348,6,2,B|60:209|108:177|177:181|206:219|194:272|170:264|207:393|349:378|386:322,1,359.999990463257,6|2,1:3|0:0,0:0:0:0:
443,110,156978,2,2,B|432:164|382:194|347:144|332:131|221:133|195:263|255:324|339:348|414:283|446:171|295:174|304:94|399:44,1,539.999985694885,6|2,1:3|0:0,0:0:0:0:
327,341,160754,6,0,B|321:337|321:337|181:365,1,99.0000003986359,6|0,0:0|0:0,0:0:0:0:
154,373,160964,2,0,B|150:367|150:367|161:247,1,99.0000003986359,14|0,0:0|0:0,0:0:0:0:
120,205,161174,2,0,B|116:198|116:198|0:166,1,99.0000003986359,6|0,0:0|0:0,0:0:0:0:
22,51,161383,6,0,B|29:55|29:55|278:22,1,198.000000797272,6|0,1:3|0:0,0:0:0:0:
432,92,161803,6,0,B|445:73|438:47|438:47|437:54|437:54|343:50|264:159|290:214|359:224|355:152|355:123|310:114,1,297.000001195908,10|0,0:0|3:0,0:0:0:0:
308,338,162223,2,0,B|349:342|369:379|369:379|339:258|339:258|255:265|233:162,1,297.000001195908,2|0,1:3|3:0,0:0:0:0:
80,92,162642,6,0,B|67:73|74:47|74:47|75:54|75:54|169:50|248:159|222:214|153:224|157:152|157:123|202:114,1,297.000001195908,10|0,0:0|0:0,0:0:0:0:
204,338,163062,2,0,B|163:342|143:379|143:379|173:258|173:258|257:265|279:162,1,297.000001195908,2|0,1:3|0:0,0:0:0:0:
219,28,163481,6,0,P|255:0|293:26,1,99.0000003986359,10|0,0:0|0:0,0:0:0:0:
207,7,163691,2,0,P|255:0|305:6,1,99.0000003986359,2|0,1:2|0:0,0:0:0:0:
109,84,163901,2,0,P|255:104|402:83,1,297.000001195908,2|0,1:2|0:0,0:0:0:0:
327,183,164320,2,0,P|260:204|255:271,1,99.0000003986359,10|0,0:0|0:0,0:0:0:0:
319,265,164530,2,0,P|293:340|260:377,1,99.0000003986359,2|0,0:0|0:0,0:0:0:0:
39,259,164740,6,0,B|106:296|87:374|87:374|95:342|118:322|118:322|156:337|190:295|176:251|124:251,1,297.000001195908,6|0,1:3|0:0,0:0:0:0:
8,183,165160,2,0,P|74:178|106:221,1,99.0000003986359,10|0,0:0|0:0,0:0:0:0:
162,154,165369,2,0,P|182:93|214:63,1,99.0000003986359,2|0,0:0|3:0,0:0:0:0:
314,202,165579,6,0,B|312:211|312:211|269:205|269:205|268:198|268:198|224:183|229:119|254:100|309:93|358:113|387:129|365:206|323:201,1,297.000001195908,2|2,1:3|0:0,0:0:0:0:
339,279,165999,2,0,P|274:297|219:327,1,99.0000003986359,10|0,0:0|0:0,0:0:0:0:
233,268,166208,2,0,P|277:289|317:320,1,99.0000003986359,0|0,0:0|0:0,0:0:0:0:
377,372,166418,6,0,P|431:328|463:338,1,99.0000003986359,2|0,1:3|0:0,0:0:0:0:
499,267,166628,2,0,P|467:210|463:153,1,99.0000003986359,2|0,0:0|0:0,0:0:0:0:
497,105,166838,2,0,P|486:44|424:32,1,99.0000003986359,10|0,0:0|0:0,0:0:0:0:
223,3,167048,6,0,B|284:-18|325:23|308:70|306:69|309:67|307:70|285:42|289:45|285:45|286:42|286:46|282:96|311:140|390:137|431:79,1,297.000001195908,2|0,1:3|3:0,0:0:0:0:
380,191,167467,2,0,P|353:269|353:333,1,99.0000003986359,2|2,0:0|0:0,0:0:0:0:
428,265,167677,2,0,P|494:272|515:339,1,99.0000003986359,10|0,0:0|0:0,0:0:0:0:
453,349,167887,2,0,P|386:367|359:389,1,99.0000003986359,2|0,0:0|0:0,0:0:0:0:
230,331,168097,6,0,B|225:366|254:383|254:383|217:308|273:260|273:260|222:241|212:215|237:172|314:196|251:249,1,297.000001195908,6|0,1:2|0:0,0:0:0:0:
207,124,168516,2,0,P|255:116|304:124,1,99.0000003986359,10|2,0:0|0:0,0:0:0:0:
236,43,168726,2,0,P|255:7|274:43,1,99.0000003986359,2|2,0:0|0:0,0:0:0:0:
161,0,168936,6,0,P|257:18|354:0,1,198.000000797272,2|2,1:3|0:0,0:0:0:0:
305,125,169251,1,0,0:0:0:0:
305,125,169355,2,0,P|323:170|396:168,1,99.0000003986359,10|0,0:0|0:0,0:0:0:0:
207,125,169565,2,0,P|189:170|116:168,1,99.0000003986359,2|2,0:0|0:0,0:0:0:0:
88,303,169775,6,0,B|91:296|91:296|142:284|142:284|161:272|161:272|182:275|182:275|241:262|241:262|256:232|256:232|271:262|271:262|330:275|330:275|351:272|351:272|370:284|370:284|421:296|421:296|424:303,3,396.000001594544,6|10|2|10,1:3|0:0|1:3|0:0,0:0:0:0:
256,340,171244,1,2,1:2:0:0:
130,174,171453,6,0,B|152:200|186:191|186:191|101:171|162:147|85:117|50:175|50:209|79:192|29:268|-41:194|-24:154|27:150|52:182|55:199|54:211|53:214,1,297.000001195908,6|0,1:3|0:0,0:0:0:0:
122,69,171873,2,0,P|176:76|177:148,1,99.0000003986359,10|0,0:0|0:0,0:0:0:0:
264,78,172083,2,0,P|318:60|370:52,1,99.0000003986359,2|0,0:0|0:0,0:0:0:0:
512,210,172292,6,0,B|457:211|417:158|417:158|379:168|379:168|351:149|351:149|310:192|228:170,1,297.000001195908,2|0,1:3|3:0,0:0:0:0:
369,248,172712,2,0,B|403:262|437:239|437:239|397:276|316:257|291:193|291:193|275:176|219:170,1,297.000001195908,10|0,0:0|0:0,0:0:0:0:
148,285,173132,6,0,P|202:285|233:232,1,99.0000003986359,2|0,1:3|0:0,0:0:0:0:
164,207,173341,2,0,P|144:141|146:94,1,99.0000003986359,2|0,0:0|0:0,0:0:0:0:
99,44,173551,2,0,P|142:-1|196:11,1,99.0000003986359,10|0,0:0|0:0,0:0:0:0:
342,67,173761,6,0,B|310:85|302:118|302:118|342:65|365:100|392:56|391:-3|391:-3|399:-10|399:-10|430:17|389:85,1,297.000001195908,0|0,0:0|0:0,0:0:0:0:
464,186,174181,2,0,B|458:181|458:181|354:154,1,99.0000003986359,2|0,0:0|0:0,0:0:0:0:
367,237,174390,2,0,B|373:241|373:241|396:355,1,99.0000003986359,10|0,0:0|0:0,0:0:0:0:
320,368,174600,2,0,B|229:379|229:379|214:396,1,99.0000003986359,2|0,0:0|0:0,0:0:0:0:
57,230,174810,6,0,B|10:238|-32:287|20:403|142:359|164:272|131:243,1,297.000001195908,10|0,1:3|0:0,0:0:0:0:
206,102,175230,6,0,B|229:140|192:179|141:162|141:162|211:185|217:257|217:257|242:268|259:288,1,297.000001195908,10|0,0:0|0:0,0:0:0:0:
57,230,175649,2,0,B|48:232|48:232|83:285|69:367|69:367|84:284|140:252|140:252|133:244,1,297.000001195908,2|2,1:3|0:0,0:0:0:0:
306,102,176069,2,0,B|283:140|320:179|371:162|371:162|301:185|295:257|295:257|270:268|253:288,1,297.000001195908,10|0,0:0|0:0,0:0:0:0:
455,230,176488,2,0,B|464:232|464:232|429:285|443:367|443:367|428:284|372:252|372:252|379:244,1,297.000001195908,2|0,1:3|0:0,0:0:0:0:
339,352,176908,6,0,P|264:364|245:388,1,99.0000003986359,10|0,0:0|0:0,0:0:0:0:
173,352,177118,2,0,P|248:364|267:388,1,99.0000003986359,2|0,0:0|0:0,0:0:0:0:
275,273,177327,6,0,B|234:213|270:147|270:147|256:138|256:138|242:147|242:147|273:215|216:296,1,297.000001195908,2|2,1:3|0:0,0:0:0:0:
122,178,177747,2,0,P|156:170|133:227,1,99.0000003986359,10|0,0:0|0:0,0:0:0:0:
346,221,177957,2,0,P|345:176|390:178,1,99.0000003986359,2|0,0:0|0:0,0:0:0:0:
512,80,178167,6,0,B|423:101|404:86|404:86|407:80|407:80|351:72|329:7|329:7|352:52|403:45,1,297.000001195908,6|0,1:3|0:0,0:0:0:0:
244,21,178586,2,0,P|186:32|185:89,1,99.0000003986359,10|0,0:0|0:0,0:0:0:0:
221,131,178796,2,0,P|211:247|167:288,1,99.0000003986359,2|0,0:0|0:0,0:0:0:0:
83,223,179006,6,0,B|85:232|85:232|128:226|128:226|129:219|129:219|173:204|168:140|143:121|88:114|39:134|10:150|32:227|74:222,1,297.000001195908,2|0,1:3|0:0,0:0:0:0:
58,300,179425,2,0,P|123:318|178:348,1,99.0000003986359,10|0,0:0|0:0,0:0:0:0:
80,340,179635,2,0,P|119:309|163:288,1,99.0000003986359,0|0,0:0|3:0,0:0:0:0:
289,369,179845,6,0,P|378:349|390:284,1,99.0000003986359,2|0,1:3|0:0,0:0:0:0:
319,293,180055,2,0,P|297:244|292:190,1,99.0000003986359,2|0,0:0|0:0,0:0:0:0:
313,122,180265,2,0,P|371:124|395:74,1,99.0000003986359,10|0,0:0|0:0,0:0:0:0:
512,142,180474,6,0,B|445:152|414:204|414:204|437:191|451:199|456:225|408:225|367:303|482:352|527:302|481:210,1,297.000001195908,2|0,1:3|0:0,0:0:0:0:
485,377,180894,2,0,B|478:380|478:380|338:351,1,99.0000003986359,2|0,0:0|0:0,0:0:0:0:
315,329,181104,2,0,P|212:354|172:379,1,99.0000003986359,10|0,0:0|0:0,0:0:0:0:
146,382,181313,2,0,P|93:351|96:295,1,99.0000003986359,2|0,0:0|0:0,0:0:0:0:
261,216,181523,6,0,B|262:231|262:288|218:282|212:262|237:222|229:277|267:226|271:175|230:143|230:143|277:163|319:103|245:61,1,297.000001195908,6|0,1:3|3:0,0:0:0:0:
184,33,181943,2,0,P|231:39|256:0,1,99.0000003986359,10|0,0:0|0:0,0:0:0:0:
255,0,182153,2,0,P|280:39|327:33,1,99.0000003986359,2|0,0:0|0:0,0:0:0:0:
352,145,182362,6,0,P|255:126|159:145,1,198.000000797272,2|0,1:3|0:0,0:0:0:0:
95,202,182677,1,2,0:0:0:0:
95,202,182782,2,0,P|114:229|191:196,1,99.0000003986359,10|0,0:0|0:0,0:0:0:0:
337,227,182992,2,0,P|384:236|417:202,1,99.0000003986359,2|2,0:0|0:0,0:0:0:0:
255,87,183202,6,0,B|285:88|309:104|309:104|369:26|369:26|321:-21|254:-13|254:-13|255:87,1,297.000001195908,6|0,1:3|0:0,0:0:0:0:
175,228,183621,2,0,B|161:201|163:172|163:172|65:159|65:159|47:224|88:278|88:278|175:228,1,297.000001195908,10|0,0:0|0:0,0:0:0:0:
337,227,184041,2,0,B|320:252|294:265|294:265|332:356|332:356|397:339|424:276|424:276|337:227,1,297.000001195908,6|2,1:2|0:0,0:0:0:0:
506,144,184460,6,0,P|421:166|376:162,1,99.0000003986359,14|0,0:0|0:0,0:0:0:0:
355,107,184670,2,0,P|360:54|299:23,1,99.0000003986359,0|0,0:0|0:0,0:0:0:0:
91,104,184880,6,0,B|99:111|99:111|324:78,1,179.999995231629,6|2,1:2|0:0,0:0:0:0:
176,69,185299,2,0,P|229:92|297:86,1,89.9999976158143,10|0,0:0|0:0,0:0:0:0:
268,175,185509,2,0,P|303:213|265:279,1,89.9999976158143,2|0,0:0|0:0,0:0:0:0:
218,245,185719,2,0,P|189:333|185:374,1,89.9999976158143,2|0,1:2|0:0,0:0:0:0:
124,379,185929,2,0,P|58:322|12:339,1,89.9999976158143,2|0,0:0|0:0,0:0:0:0:
60,189,186139,2,0,P|115:238|262:219,1,179.999995231629,10|0,0:2|0:0,0:0:0:0:
263,0,186558,6,0,B|258:9|258:9|285:215,1,179.999995231629,2|0,1:2|0:0,0:0:0:0:
304,97,186978,2,0,P|286:168|286:221,1,89.9999976158143,10|0,0:0|0:0,0:0:0:0:
361,212,187188,2,0,P|418:224|436:285,1,89.9999976158143,2|0,0:0|0:0,0:0:0:0:
464,323,187397,2,0,P|377:358|352:385,1,89.9999976158143,2|0,0:0|0:0,0:0:0:0:
300,340,187607,2,0,P|245:327|221:268,1,89.9999976158143,2|0,0:0|0:0,0:0:0:0:
134,384,187817,2,0,P|192:264|150:155,1,179.999995231629,10|2,0:0|0:0,0:0:0:0:
20,69,188237,6,0,B|22:78|22:78|243:166,1,179.999995231629,6|2,1:2|0:0,0:0:0:0:
101,124,188656,2,0,P|163:124|209:163,1,89.9999976158143,10|0,0:0|0:0,0:0:0:0:
238,73,188866,2,0,P|296:67|317:16,1,89.9999976158143,2|0,0:0|0:0,0:0:0:0:
388,11,189076,2,0,P|401:83|432:139,1,89.9999976158143,2|0,1:2|0:0,0:0:0:0:
478,136,189285,2,0,P|467:202|409:216,1,89.9999976158143,2|0,0:0|0:0,0:0:0:0:
512,318,189495,2,0,P|363:365|311:403,1,179.999995231629,10|2,0:0|0:0,0:0:0:0:
110,293,189915,6,0,B|118:291|118:291|350:330,1,179.999995231629,6|2,1:2|0:0,0:0:0:0:
203,335,190334,2,0,P|234:319|323:321,1,89.9999976158143,10|0,0:0|0:0,0:0:0:0:
259,235,190544,2,0,P|243:204|245:115,1,89.9999976158143,2|0,0:0|0:0,0:0:0:0:
159,179,190754,2,0,P|128:195|39:193,1,89.9999976158143,2|0,1:2|0:0,0:0:0:0:
103,279,190964,2,0,P|119:310|117:399,1,89.9999976158143,2|2,0:0|0:0,0:0:0:0:
0,272,191174,2,0,P|35:171|37:49,1,179.999995231629,10|2,0:0|0:0,0:0:0:0:
290,19,191593,6,0,B|287:25|287:25|86:70,1,179.999995231629,2|0,1:2|0:0,0:0:0:0:
204,66,192013,2,0,P|124:56|82:64,1,89.9999976158143,10|0,0:0|0:0,0:0:0:0:
36,35,192223,2,0,P|59:115|105:128,1,89.9999976158143,0|0,0:0|0:0,0:0:0:0:
130,153,192432,2,0,P|99:242|96:292,1,89.9999976158143,2|0,1:2|0:0,0:0:0:0:
79,316,192642,2,0,P|136:338|143:393,1,89.9999976158143,0|0,0:0|0:0,0:0:0:0:
181,259,192852,2,0,P|291:207|399:262,1,179.999995231629,10|0,0:0|0:0,0:0:0:0:
441,90,193271,6,0,B|419:259|419:259|376:278,1,179.999995231629,2|0,1:2|0:0,0:0:0:0:
457,187,193691,2,0,P|416:271|412:307,1,89.9999976158143,10|0,0:0|0:0,0:0:0:0:
468,330,193901,2,0,P|428:381|373:373,1,89.9999976158143,0|0,0:0|0:0,0:0:0:0:
328,359,194111,2,0,P|262:367|207:393,1,89.9999976158143,2|0,1:2|0:0,0:0:0:0:
213,298,194320,2,0,P|211:226|265:202,1,89.9999976158143,2|0,0:0|0:0,0:0:0:0:
143,120,194530,2,0,P|250:186|367:220,1,179.999995231629,10|2,0:0|0:0,0:0:0:0:
10,208,194950,6,0,B|88:187|88:187|129:199,1,89.9999976158143,2|0,1:2|0:0,0:0:0:0:
188,43,195160,2,0,B|150:114|150:114|113:136,1,89.9999976158143,2|0,0:0|0:0,0:0:0:0:
83,10,195369,1,10,0:0:0:0:
86,18,195474,1,2,0:0:0:0:
89,26,195579,1,2,0:0:0:0:
92,34,195684,1,2,0:0:0:0:
95,42,195789,1,2,1:2:0:0:
188,189,195999,2,0,B|182:192|182:192|159:289,1,89.9999976158143,0|0,0:0|0:0,0:0:0:0:
2,257,196209,2,0,B|84:237|84:237|112:249,1,89.9999976158143,10|0,0:0|0:0,0:0:0:0:
125,345,196418,2,0,B|207:365|207:365|235:353,1,89.9999976158143,2|2,0:0|0:0,0:0:0:0:
415,281,196628,6,2,B|418:274|418:274|413:267|413:267|398:269|398:269|397:265|397:265|398:269|398:269|361:279|361:279|363:282|363:282|361:279|361:279|330:286|330:286|320:315|320:315|316:314|316:314|320:315|320:315|314:331|314:331|320:341|320:341|347:347|347:347|343:360|343:360|347:348|347:348|391:359|391:359|391:361|391:361|391:359|391:359|392:357|392:357|392:359|392:359|434:370|434:370|440:365|440:365|433:336,3,359.999990463257,2|2|2|2,0:0|0:0|0:0|0:0,0:0:0:0:
