osu file format v14

[General]
AudioFilename: audio.mp3
AudioLeadIn: 0
PreviewTime: 56811
Countdown: 0
SampleSet: Soft
StackLeniency: 0.5
Mode: 0
LetterboxInBreaks: 0
WidescreenStoryboard: 1

[Editor]
Bookmarks: 273,57335,114398,141252,161391,198314
DistanceSpacing: 0.8
BeatDivisor: 2
GridSize: 8
TimelineZoom: 1.4

[Metadata]
Title:Toxic
TitleUnicode:Toxic
Artist:Britney Spears
ArtistUnicode:Britney Spears
Creator:schoolboy
Version:Collab Easy
Source:
Tags:komore emilia estellia- Frakturehawkens shmiklak marvollo m_a_r_v_o_l_l_o djulus english pop
BeatmapID:2270873
BeatmapSetID:1061947

[Difficulty]
HPDrainRate:3
CircleSize:3
OverallDifficulty:3
ApproachRate:4
SliderMultiplier:1.2
SliderTickRate:1

[Events]
//Background and Video events
0,0,"britney.jpg",0,0
Video,-11,"y2mate.com - Britney Spears - Toxic (Official Music Video)_LOZuxwVk7TU_360p (1).mp4"
//Break Periods
2,141444,151672
//Storyboard Layer 0 (Background)
//Storyboard Layer 1 (Fail)
//Storyboard Layer 2 (Pass)
//Storyboard Layer 3 (Foreground)
//Storyboard Layer 4 (Overlay)
//Storyboard Sound Samples

[TimingPoints]
265,419.58041958042,4,2,1,55,1,0
15369,-100,4,2,1,66,0,0
53971,-100,4,2,3,45,0,0
54076,-100,4,2,1,45,0,0
56908,-100,4,2,1,70,0,0
57327,-100,4,2,1,81,0,0
80824,-100,4,2,1,90,0,0
85334,-100,4,2,1,66,0,0
109303,-100,4,2,1,5,0,0
109355,-100,4,2,1,66,0,0
111034,-100,4,2,3,41,0,0
111086,-100,4,2,1,41,0,0
113971,-100,4,2,1,70,0,0
114390,-100,4,2,1,81,0,0
140404,-100,4,2,1,54,0,0
152992,-100,4,2,1,60,0,0
155090,-100,4,2,1,68,0,0
158027,-100,4,2,1,81,0,0
174810,-100,4,2,3,81,0,0
174862,-100,4,2,1,81,0,0

[Colours]
Combo1 : 193,255,255
Combo2 : 204,234,172
Combo3 : 250,250,192
Combo4 : 254,205,253

[HitObjects]
402,49,265,6,0,P|464:39|521:75,2,120,2|8|2,1:2|0:0|1:2,0:0:0:0:
324,104,1523,2,0,L|254:97,1,60,10|2,0:0|0:0,0:0:0:0:
228,130,1943,2,0,L|241:259,1,120,2|10,1:2|0:0,0:0:0:0:
323,296,2782,1,2,1:2:0:0:
408,253,3202,1,10,0:0:0:0:
343,182,3621,6,0,B|282:183|282:183|232:233,2,120,2|8|2,1:2|0:0|1:2,0:0:0:0:
408,253,4880,2,0,P|402:290|391:330,1,60,10|2,0:0|0:0,0:0:0:0:
362,345,5299,2,0,L|216:339,1,120,2|10,1:2|0:0,0:0:0:0:
176,269,6139,1,2,1:2:0:0:
222,185,6558,1,10,0:0:0:0:
162,109,6978,6,0,P|113:106|43:125,2,120,6|10|2,1:2|0:0|1:2,0:0:0:0:
222,185,8237,2,0,L|304:179,1,60,10|2,0:0|0:0,0:0:0:0:
320,209,8656,2,0,P|304:265|324:338,1,120,2|10,1:2|0:0,0:0:0:0:
405,359,9495,1,2,1:2:0:0:
481,300,9915,1,10,0:0:0:0:
446,210,10334,6,0,L|315:225,2,120,6|10|2,1:2|0:0|1:2,0:0:0:0:
461,115,11593,2,0,L|388:125,1,60,10|2,0:0|0:0,0:0:0:0:
361,96,12013,2,0,P|325:116|236:103,1,120,2|10,1:2|0:0,0:0:0:0:
167,58,12852,1,2,1:2:0:0:
93,120,13271,2,0,L|115:198,1,60,10|2,0:0|0:0,0:0:0:0:
260,315,14950,5,10,1:2:0:0:
260,315,15369,2,0,P|288:282|379:270,1,120,6|10,1:2|0:0,0:0:0:0:
438,321,16209,1,2,1:2:0:0:
347,359,16628,1,10,0:0:0:0:
260,315,17048,6,0,P|265:258|269:181,1,120,2|10,1:2|0:0,0:0:0:0:
211,118,17887,2,0,P|151:121|91:126,1,120,2|10,1:2|0:0,0:0:0:0:
18,189,18726,2,0,P|1:258|35:311,2,120,2|10|2,1:2|0:0|1:2,0:0:0:0:
91,126,19985,1,10,0:0:0:0:
165,185,20404,6,0,L|145:311,1,120,2|10,1:2|0:0,0:0:0:0:
217,368,21244,2,0,P|284:343|337:349,1,120,2|10,1:2|0:0,0:0:0:0:
400,280,22083,1,2,1:2:0:0:
339,205,22502,2,0,L|354:74,2,120,10|2|10,0:0|1:2|0:0,0:0:0:0:
400,280,23761,6,0,P|462:290|519:254,2,120,2|8|2,1:2|0:0|1:2,0:0:0:0:
310,315,25020,2,0,L|240:308,1,60,10|2,0:0|0:0,0:0:0:0:
213,277,25439,2,0,L|200:157,1,120,2|10,1:2|0:0,0:0:0:0:
120,104,26278,1,2,1:2:0:0:
178,27,26698,1,10,0:0:0:0:
256,83,27118,6,0,P|323:89|387:66,1,120,6|10,1:2|0:0,0:0:0:0:
439,142,27957,2,0,L|427:266,1,120,2|10,1:2|0:0,0:0:0:0:
336,292,28796,2,0,L|324:172,2,120,2|10|2,1:2|0:0|1:2,0:0:0:0:
265,356,30055,1,10,0:0:0:0:
198,287,30474,6,0,P|147:262|67:278,1,120,2|10,1:2|0:0,0:0:0:0:
36,185,31313,1,2,1:2:0:0:
107,120,31733,1,10,0:0:0:0:
38,53,32153,2,0,P|12:109|31:177,1,120,2|10,1:2|0:0,0:0:0:0:
97,224,32992,2,0,L|218:204,1,120,2|10,1:2|0:0,0:0:0:0:
294,258,33831,6,0,P|340:260|410:294,1,120,2|10,1:2|0:0,0:0:0:0:
502,290,34670,2,0,P|481:233|484:174,1,120,2|10,1:2|0:0,0:0:0:0:
510,81,35509,1,2,1:2:0:0:
441,14,35929,1,10,0:0:0:0:
372,81,36348,2,0,P|306:97|244:71,1,120,2|10,1:2|0:0,0:0:0:0:
161,76,37188,6,0,P|103:59|47:76,2,120,2|10|2,1:2|0:0|1:2,0:0:0:0:
176,170,38446,2,0,L|106:163,1,60,10|2,0:0|0:0,0:0:0:0:
82,198,38866,2,0,L|95:318,1,120,2|10,1:2|0:0,0:0:0:0:
183,354,39705,1,2,1:2:0:0:
262,300,40125,1,2,0:0:0:0:
340,355,40544,6,0,L|469:342,2,120,6|10|2,1:2|0:0|1:2,0:0:0:0:
262,300,41803,1,10,0:0:0:0:
183,244,42223,2,0,L|54:257,2,120,2|10|2,1:2|0:0|1:2,0:0:0:0:
239,165,43482,1,10,0:0:0:0:
297,88,43901,6,0,P|343:85|417:123,1,120,2|10,1:2|0:0,0:0:0:0:
412,215,44740,2,0,P|359:242|300:242,1,120,2|10,1:2|0:0,0:0:0:0:
239,165,45579,1,2,1:2:0:0:
178,239,45999,1,10,0:0:0:0:
97,187,46418,2,0,P|106:129|141:72,1,120,2|10,1:2|0:0,0:0:0:0:
221,30,47258,6,0,L|353:35,1,120,2|10,1:2|0:0,0:0:0:0:
389,117,48097,2,0,L|394:249,1,120,0|10,0:0|0:0,0:0:0:0:
486,262,48936,2,0,L|490:142,1,120,2|10,1:2|0:0,0:0:0:0:
432,65,49775,1,2,1:2:0:0:
360,129,50195,1,10,0:0:0:0:
286,67,50614,6,0,L|146:57,2,120,2|8|2,1:2|0:0|1:2,0:0:0:0:
360,129,51873,2,0,L|353:199,1,60,10|2,0:0|0:0,0:0:0:0:
325,227,52292,2,0,P|273:221|205:240,1,120,6|10,1:2|0:0,0:0:0:0:
158,320,53131,1,2,1:2:0:0:
93,248,53551,2,0,L|107:114,1,120,10|8,0:0|0:3,0:0:0:0:
105,128,57327,6,0,P|174:127|198:165,1,120,6|10,1:3|0:0,0:0:0:0:
256,241,58167,2,0,B|320:262|317:211|404:238,1,120,2|10,1:3|0:0,0:0:0:0:
446,168,59006,2,0,B|523:25|332:2|370:109,1,240,2|2,1:3|0:0,0:0:0:0:
276,129,60265,1,10,0:0:0:0:
194,78,60684,6,0,L|63:99,1,120,6|10,1:3|0:0,0:0:0:0:
34,184,61523,2,0,P|90:194|92:251,1,120,2|10,1:3|0:0,0:0:0:0:
120,340,62362,1,2,1:3:0:0:
214,356,62782,1,10,0:0:0:0:
270,278,63202,2,0,L|251:185,1,60,2|2,1:3|0:0,0:0:0:0:
280,176,63621,2,0,L|284:101,1,60,10|2,0:0|0:0,0:0:0:0:
305,73,64041,6,0,P|425:98|423:227,1,240,6|2,1:3|1:3,0:0:0:0:
393,290,65299,1,10,0:0:0:0:
297,276,65719,2,0,P|219:288|155:298,1,120,2|10,1:3|0:0,0:0:0:0:
82,297,66558,1,2,0:0:0:0:
40,210,66978,1,10,0:0:0:0:
114,150,67397,6,0,P|188:100|301:168,2,180,6|2|10,1:3|0:0|0:0,0:0:0:0:
40,210,69076,2,0,L|11:21,2,180,6|2|14,1:3|0:0|0:0,0:0:0:0:
87,293,70754,6,0,B|209:340|192:228|343:273,1,240,4|2,1:3|1:2,0:0:0:0:
384,334,72013,1,10,0:0:0:0:
444,259,72432,2,0,P|465:176|374:124,2,180,2|2|10,1:2|1:2|0:0,0:0:0:0:
384,334,74111,6,0,L|246:347,1,120,2|10,1:2|0:0,0:0:0:0:
181,296,74950,2,0,P|164:226|205:180,1,120,2|10,1:2|0:0,0:0:0:0:
277,151,75789,2,0,B|355:144|407:201|407:201|473:167|436:105,1,240,2|2,1:2|1:2,0:0:0:0:
387,47,77048,1,10,0:0:0:0:
291,44,77467,6,0,L|147:71,1,120,4|10,1:3|0:0,0:0:0:0:
98,126,78306,1,2,1:2:0:0:
102,222,78726,1,10,0:2:0:0:
191,257,79146,2,0,P|264:237|364:297,2,180,2|2|10,1:2|0:0|0:0,0:0:0:0:
102,222,80824,6,0,P|66:148|97:91,1,120,2|10,1:2|0:0,0:0:0:0:
168,91,81663,2,0,P|239:105|301:89,1,120,2|10,1:2|0:0,0:0:0:0:
375,62,82502,1,6,1:2:0:0:
430,140,82922,1,10,0:0:0:0:
367,213,83341,2,0,P|317:224|283:231,1,60,2|2,1:2|0:0,0:0:0:0:
272,258,83761,2,0,L|197:251,1,60,10|2,0:0|0:0,0:0:0:0:
164,249,84181,1,6,1:2:0:0:
196,318,85439,5,10,0:0:0:0:
196,318,85859,2,0,B|312:352|308:267|446:298,1,240,6|2,1:2|1:2,0:0:0:0:
490,220,87118,1,10,0:0:0:0:
419,155,87537,2,0,P|415:102|460:36,2,120,2|10|2,1:2|0:0|1:2,0:0:0:0:
343,214,88796,1,10,0:0:0:0:
255,174,89216,6,0,L|132:188,1,120,2|10,1:2|0:0,0:0:0:0:
60,128,90055,1,2,1:2:0:0:
83,34,90474,1,10,0:0:0:0:
179,33,90894,2,0,L|428:67,1,240,2|2,1:2|1:2,0:0:0:0:
486,131,92153,1,10,0:0:0:0:
424,204,92572,6,0,P|422:252|438:339,1,120,2|10,1:2|0:0,0:0:0:0:
340,349,93411,2,0,P|257:342|212:355,1,120,2|10,1:2|0:0,0:0:0:0:
135,309,94251,1,2,1:2:0:0:
178,223,94670,2,0,P|192:155|168:90,2,120,10|2|10,0:0|1:2|0:0,0:0:0:0:
81,224,95929,1,2,0:0:0:0:
81,224,97607,6,0,P|155:191|240:214,1,120,6|10,1:2|0:0,0:0:0:0:
274,242,98446,1,2,1:2:0:0:
351,185,98866,1,10,0:0:0:0:
276,125,99285,2,0,P|276:49|308:10,2,120,2|10|2,1:2|0:0|1:2,0:0:0:0:
351,185,100544,2,0,L|331:252,1,60,10|2,0:0|0:0,0:0:0:0:
293,262,100964,6,0,L|154:278,1,120,2|10,1:2|0:0,0:0:0:0:
90,228,101803,2,0,P|62:175|75:118,1,120,2|10,1:2|0:0,0:0:0:0:
151,59,102642,1,2,1:2:0:0:
239,96,103062,1,10,0:0:0:0:
318,41,103481,2,0,L|453:55,1,120,2|10,1:2|0:0,0:0:0:0:
503,123,104320,6,0,B|444:166|444:166|502:257|467:354,1,240,2|0,1:2|0:0,0:0:0:0:
382,350,105579,1,10,0:0:0:0:
308,288,105999,2,0,P|261:291|168:275,1,120,2|10,1:2|0:0,0:0:0:0:
189,185,106838,1,2,1:2:0:0:
98,151,107258,1,8,0:0:0:0:
37,225,107677,6,0,L|59:356,2,120,2|8|2,1:2|0:0|1:2,0:0:0:0:
98,151,108936,1,10,0:0:0:0:
26,87,109355,2,0,P|68:34|200:51,2,180,6|0|10,1:2|0:0|0:0,0:0:0:0:
99,149,111034,1,8,0:3:0:0:
17,368,114390,6,0,P|67:358|120:300,1,120,6|10,1:3|0:0,0:0:0:0:
115,214,115230,2,0,L|100:81,1,120,2|10,1:3|0:0,0:0:0:0:
189,54,116069,2,0,B|320:105|285:-15|426:40,1,240,2|2,1:3|0:0,0:0:0:0:
489,95,117327,1,10,0:0:0:0:
422,164,117747,6,0,L|292:170,1,120,6|10,1:3|0:0,0:0:0:0:
231,234,118586,2,0,P|216:275|258:342,1,120,2|10,1:3|0:0,0:0:0:0:
345,355,119425,1,2,1:3:0:0:
399,276,119845,1,10,0:0:0:0:
336,203,120265,2,0,L|344:113,1,60,2|2,1:2|0:0,0:0:0:0:
301,116,120684,2,0,L|295:43,1,60,10|2,0:0|0:0,0:0:0:0:
253,34,121104,6,0,B|178:19|178:19|126:43,2,120,6|10|2,1:3|0:0|1:3,0:0:0:0:
341,83,122362,1,10,0:0:0:0:
431,114,122782,2,0,P|443:192|453:256,1,120,2|10,1:3|0:0,0:0:0:0:
398,314,123621,1,2,0:0:0:0:
321,256,124041,2,0,L|257:285,1,60,10|2,0:0|0:0,0:0:0:0:
257,327,124460,6,0,B|158:369|187:291|75:328,2,180,6|2|10,1:3|0:0|0:0,0:0:0:0:
322,256,126139,2,0,P|347:164|286:87,2,180,6|2|14,1:3|0:0|0:0,0:0:0:0:
367,340,127817,6,0,P|431:342|481:308,1,120,4|10,1:3|0:0,0:0:0:0:
485,217,128656,2,0,L|476:86,1,120,2|10,1:2|0:0,0:0:0:0:
390,55,129495,2,0,P|307:76|211:22,2,180,2|2|10,1:3|1:2|0:0,0:0:0:0:
476,97,131174,6,0,L|485:217,1,120,2|10,1:2|0:0,0:0:0:0:
430,296,132013,2,0,P|360:313|314:272,1,120,2|10,1:2|0:0,0:0:0:0:
269,209,132852,2,0,B|144:170|161:282|39:235,1,240,2|2,1:2|1:2,0:0:0:0:
91,154,134111,1,10,0:0:0:0:
135,69,134530,6,0,P|199:56|269:91,1,120,6|10,1:3|0:0,0:0:0:0:
321,136,135369,1,2,1:2:0:0:
397,78,135789,1,10,0:2:0:0:
474,134,136209,2,0,L|488:334,2,180,2|2|10,1:2|0:0|0:0,0:0:0:0:
397,78,137887,6,0,L|266:83,1,120,2|10,1:2|0:0,0:0:0:0:
195,132,138726,2,0,P|181:203|197:265,1,120,2|10,1:2|0:0,0:0:0:0:
244,337,139565,1,6,1:2:0:0:
152,367,139985,1,10,0:0:0:0:
82,300,140404,2,0,L|67:200,1,60,2|0,1:2|0:0,0:0:0:0:
99,200,140824,2,0,L|105:123,1,60,2|0,0:0|0:0,0:0:0:0:
83,96,141244,1,2,1:1:0:0:
256,192,152992,12,2,158027,0:0:0:0:
52,156,160754,6,0,L|66:227,2,60,6|14|6,0:0|0:0|0:0,0:0:0:0:
34,112,161383,2,0,B|167:89|139:191|268:174,1,240,6|2,1:3|1:3,0:0:0:0:
335,121,162642,1,10,0:0:0:0:
414,174,163062,2,0,P|407:240|414:301,1,120,2|10,1:3|0:0,0:0:0:0:
333,347,163901,1,2,1:2:0:0:
260,284,164320,1,10,0:0:0:0:
176,331,164740,6,0,P|96:325|39:327,1,120,6|10,1:3|0:0,0:0:0:0:
13,239,165579,1,2,1:3:0:0:
64,157,165999,1,10,0:0:0:0:
159,164,166418,2,0,P|264:181|331:136,2,180,2|2|10,1:3|1:3|0:0,0:0:0:0:
64,157,168097,6,0,P|77:231|71:348,2,180,6|2|10,1:2|0:0|0:0,0:0:0:0:
120,79,169775,2,0,P|229:50|337:54,2,180,6|2|10,1:3|1:2|0:0,0:0:0:0:
63,156,171453,6,0,P|78:231|76:274,1,120,6|10,1:3|0:0,0:0:0:0:
137,347,172292,2,0,L|210:331,1,60,2|0,1:3|0:0,0:0:0:0:
224,295,172712,2,0,L|302:304,1,60,10|0,0:0|0:0,0:0:0:0:
288,253,173132,2,0,B|409:248|375:330|523:330,1,240,2|2,1:3|1:2,0:0:0:0:
496,234,174390,1,10,0:0:0:0:
490,138,174810,6,0,P|397:135|336:120,1,120,10|10,1:3|0:0,0:0:0:0:
306,58,175649,1,2,1:3:0:0:
220,101,176069,1,10,0:0:0:0:
240,194,176488,2,0,P|256:269|242:321,1,120,2|10,1:3|0:0,0:0:0:0:
167,365,177327,2,0,L|98:345,1,60,2|2,1:3|0:0,0:0:0:0:
79,326,177747,2,0,L|67:240,1,60,10|2,0:0|0:0,0:0:0:0:
76,218,178167,6,0,P|91:145|91:93,1,120,6|10,1:3|0:0,0:0:0:0:
177,57,179006,2,0,P|260:74|320:65,1,120,2|10,1:3|0:0,0:0:0:0:
363,142,179845,2,0,P|389:220|328:339,2,180,2|2|10,1:3|1:3|0:0,0:0:0:0:
284,86,181523,6,0,B|374:95|353:29|482:55,2,180,6|2|10,1:3|0:0|0:0,0:0:0:0:
203,139,183202,2,0,B|113:148|134:82|5:108,2,180,6|2|14,1:3|0:0|0:0,0:0:0:0:
284,189,184880,6,0,P|276:260|280:326,1,120,6|10,1:2|0:0,0:0:0:0:
363,352,185719,2,0,P|438:340|514:342,1,120,2|10,1:2|0:2,0:0:0:0:
496,244,186558,2,0,P|493:166|499:35,2,180,2|2|10,1:2|0:0|0:0,0:0:0:0:
399,237,188237,6,0,P|313:228|244:249,1,120,6|10,1:2|0:0,0:0:0:0:
212,302,189076,2,0,P|140:317|59:300,1,120,2|10,1:2|0:0,0:0:0:0:
34,236,189915,2,0,P|51:149|109:58,2,180,6|2|10,1:2|0:0|0:0,0:0:0:0:
128,251,191593,6,0,B|253:286|218:188|371:200,1,240,2|2,1:2|1:2,0:0:0:0:
421,130,192852,1,10,0:0:0:0:
336,84,193271,2,0,B|219:101|232:11|93:33,1,240,2|2,1:2|1:2,0:0:0:0:
44,102,194530,1,10,0:0:0:0:
119,160,194950,6,0,P|130:233|111:289,1,120,2|10,1:2|0:0,0:0:0:0:
161,362,195789,1,2,1:2:0:0:
255,345,196209,1,10,0:0:0:0:
301,261,196628,2,0,L|438:241,2,120,2|2|2,0:0|0:0|0:0,0:0:0:0:
217,213,197887,1,2,0:0:0:0:
