osu file format v14

[General]
AudioFilename: audio.mp3
AudioLeadIn: 0
PreviewTime: 49123
Countdown: 1
SampleSet: Soft
StackLeniency: 0.7
Mode: 0
LetterboxInBreaks: 0
WidescreenStoryboard: 0

[Editor]
Bookmarks: 16476,36785,40168,50014,69706,70263,101500,117908,121694,141841
DistanceSpacing: 1.3
BeatDivisor: 4
GridSize: 16
TimelineZoom: 1

[Metadata]
Title:Oops!... I Did It Again
TitleUnicode:Oops!... I Did It Again
Artist:Britney Spears
ArtistUnicode:Britney Spears
Creator:Heniu
Version:Oopsie!
Source:
Tags:
BeatmapID:2123840
BeatmapSetID:1014811

[Difficulty]
HPDrainRate:5
CircleSize:4.2
OverallDifficulty:8
ApproachRate:8
SliderMultiplier:1.8
SliderTickRate:1

[Events]
//Background and Video events
0,0,"britbg.jpg",0,0
//Break Periods
//Storyboard Layer 0 (Background)
//Storyboard Layer 1 (Fail)
//Storyboard Layer 2 (Pass)
//Storyboard Layer 3 (Foreground)
//Storyboard Layer 4 (Overlay)
//Storyboard Sound Samples

[TimingPoints]
10630,631.047538914598,4,2,0,60,1,0
13143,-83.3333333333333,4,2,0,60,0,0
13457,-71.4285714285714,4,2,0,60,0,0
13771,-62.5,4,2,0,60,0,0
14085,-55.5555555555556,4,2,0,60,0,0
14399,-50,4,2,0,60,0,0
14713,-100,4,2,0,60,0,0
18169,-83.3333333333333,4,2,0,60,0,0
18483,-71.4285714285714,4,2,0,60,0,0
18797,-62.5,4,2,0,60,0,0
19111,-55.5555555555556,4,2,0,60,0,0
19425,-50,4,2,0,60,0,0
19739,-100,4,2,0,60,0,0
22937,-100,4,2,0,60,0,0
40882,-71.4285714285714,4,2,0,60,0,0
41512,-83.3333333333333,4,2,0,60,0,0
45924,-76.9230769230769,4,2,0,60,0,0
51017,-66.6666666666667,4,2,0,60,0,1
52594,-58.8235294117647,4,2,0,60,0,1
52910,-52.6315789473684,4,2,0,60,0,1
53541,-66.6666666666667,4,2,0,60,0,1
55118,-58.8235294117647,4,2,0,60,0,1
55434,-52.6315789473684,4,2,0,60,0,1
55749,-47.6190476190476,4,2,0,60,0,1
56380,-66.6666666666667,4,2,0,60,0,1
57327,-58.8235294117647,4,2,0,60,0,1
58589,-66.6666666666667,4,2,0,60,0,1
59851,-50,4,2,0,60,0,1
60167,-66.6666666666667,4,2,0,60,0,1
60482,-50,4,2,0,60,0,1
60798,-66.6666666666667,4,2,0,60,0,1
61113,-66.6666666666667,4,2,0,60,0,1
62691,-58.8235294117647,4,2,0,60,0,1
63006,-52.6315789473684,4,2,0,60,0,1
63322,-47.6190476190476,4,2,0,60,0,1
63953,-66.6666666666667,4,2,0,60,0,1
65215,-58.8235294117647,4,2,0,60,0,1
65531,-52.6315789473684,4,2,0,60,0,1
65846,-47.6190476190476,4,2,0,60,0,1
67108,-52.6315789473684,4,2,0,60,0,1
67739,-58.8235294117647,4,2,0,60,0,1
71210,-83.3333333333333,4,2,0,60,0,0
103371,631.047538914598,4,2,0,60,1,0
103979,631.047538914598,4,2,0,60,1,0
103979,-83.3333333333333,4,2,0,60,0,0
120701,-71.4285714285714,4,2,0,60,0,0
121648,-66.6666666666667,4,2,0,60,0,1
123225,-58.8235294117647,4,2,0,60,0,1
123541,-52.6315789473684,4,2,0,60,0,1
123857,-47.6190476190476,4,2,0,60,0,1
124172,-66.6666666666667,4,2,0,60,0,1
125750,-58.8235294117647,4,2,0,60,0,1
126065,-52.6315789473684,4,2,0,60,0,1
126381,-47.6190476190476,4,2,0,60,0,1
126696,-66.6666666666667,4,2,0,60,0,1
130798,-58.8235294117647,4,2,0,60,0,1
131114,-52.6315789473684,4,2,0,60,0,1
131429,-47.6190476190476,4,2,0,60,0,1
132376,-66.6666666666667,4,2,0,60,0,1
136477,-47.6190476190476,4,2,0,60,0,1
137740,-52.6315789473684,4,2,0,60,0,1
138371,-58.8235294117647,4,2,0,60,0,1
141841,-66.6666666666667,4,2,0,60,0,1
143419,-58.8235294117647,4,2,0,60,0,1
143734,-52.6315789473684,4,2,0,60,0,1
144050,-47.6190476190476,4,2,0,60,0,1
144366,-66.6666666666667,4,2,0,60,0,1
145943,-58.8235294117647,4,2,0,60,0,1
146259,-52.6315789473684,4,2,0,60,0,1
146574,-47.6190476190476,4,2,0,60,0,1
146890,-66.6666666666667,4,2,0,60,0,1
150676,-58.8235294117647,4,2,0,60,0,1
150992,-52.6315789473684,4,2,0,60,0,1
151307,-47.6190476190476,4,2,0,60,0,1
151938,-66.6666666666667,4,2,0,60,0,1
153516,-58.8235294117647,4,2,0,60,0,1
153831,-52.6315789473684,4,2,0,60,0,1
154147,-47.6190476190476,4,2,0,60,0,1
154462,-66.6666666666667,4,2,0,60,0,1
156040,-58.8235294117647,4,2,0,60,0,1
156355,-52.6315789473684,4,2,0,60,0,1
156671,-47.6190476190476,4,2,0,60,0,1
159511,-100,4,2,0,60,0,0

[Colours]
Combo1 : 243,58,86
Combo2 : 241,216,112
Combo3 : 240,104,237

[HitObjects]
482,355,10630,6,0,L|470:283,1,45
425,260,10945,2,0,L|436:188,1,45
482,165,11261,2,0,L|470:93,1,45
463,48,11576,2,0,P|410:59|355:49,1,90
71,38,12207,1,0,0:0:0:0:
183,42,12365,1,0,0:0:0:0:
71,82,12523,2,0,P|72:119|76:151,1,45
249,204,12838,6,0,L|186:232,1,45
196,302,13154,2,0,L|111:273,1,53.9999983520508
67,326,13469,2,0,L|61:245,1,62.9999980773926
0,209,13785,2,0,L|67:156,1,72
79,81,14100,2,0,L|174:135,1,80.9999975280763
239,107,14416,2,0,L|207:237,1,90
135,199,14731,5,0,0:0:0:0:
182,273,14889,1,0,0:0:0:0:
218,194,15047,1,0,0:0:0:0:
101,280,15205,1,0,0:0:0:0:
209,376,15362,1,0,0:0:0:0:
326,296,15520,1,0,0:0:0:0:
308,95,15678,6,0,P|273:72|218:81,1,90
226,76,16151,1,0,0:0:0:0:
345,212,16309,2,0,L|348:167,1,45
161,213,16624,2,0,P|187:260|219:281,1,90
468,342,17255,1,0,0:0:0:0:
359,313,17413,1,0,0:0:0:0:
477,306,17571,2,0,L|491:246,1,45
498,161,17887,6,0,L|432:132,1,45
443,59,18202,2,0,L|355:89,1,53.9999983520508
309,35,18518,2,0,L|302:118,1,62.9999980773926
239,156,18833,2,0,L|309:210,1,72
322,288,19149,2,0,L|419:232,1,80.9999975280763
487,262,19464,2,0,L|453:127,1,90
391,112,19780,6,0,L|369:181,1,45
469,83,20095,2,0,L|424:24,1,45
306,107,20411,1,0,0:0:0:0:
165,18,20568,1,0,0:0:0:0:
52,157,20726,1,0,0:0:0:0:
90,357,22619,5,0,0:0:0:0:
90,357,23250,6,0,L|95:307,1,45
138,275,23566,2,0,L|133:230,1,45
89,168,23881,1,0,0:0:0:0:
323,206,24197,1,0,0:0:0:0:
323,206,24513,2,0,L|309:308,1,90
455,355,25144,1,0,0:0:0:0:
455,355,25459,2,0,P|462:321|461:270,1,45
436,244,25775,5,0,0:0:0:0:
434,112,26090,2,0,P|427:146|428:197,1,45
495,57,26406,2,0,P|459:37|399:37,1,90
227,110,27037,2,0,P|237:129|253:145,1,45
303,37,27352,2,0,P|280:36|258:42,1,45
331,139,27668,2,0,P|342:119|348:98,1,45
183,51,27983,2,0,P|166:66|156:86,1,45
229,251,28299,6,0,B|180:228|180:265|134:246,1,90
105,157,28772,1,0,0:0:0:0:
104,266,28930,2,0,L|100:331,1,45
68,290,29245,2,0,L|64:355,1,45
32,313,29561,2,0,L|30:358,1,45
141,348,29876,5,0,0:0:0:0:
230,359,30034,1,0,0:0:0:0:
319,350,30192,1,0,0:0:0:0:
408,359,30350,1,0,0:0:0:0:
497,351,30507,1,0,0:0:0:0:
496,140,30823,6,0,P|453:153|427:170,1,45
415,187,31139,2,0,P|372:174|346:157,1,45
331,112,31454,1,0,0:0:0:0:
311,272,31770,1,0,0:0:0:0:
311,272,32085,2,0,L|235:294,1,45
230,323,32401,2,0,L|154:345,1,45
113,366,32716,1,0,0:0:0:0:
21,220,33032,5,0,0:0:0:0:
81,263,33189,1,0,0:0:0:0:
131,208,33347,2,0,L|173:144,1,45
204,145,33663,2,0,L|246:81,1,45
229,33,33978,1,0,0:0:0:0:
34,35,34294,1,0,0:0:0:0:
118,71,34452,5,0,0:0:0:0:
118,71,34609,2,0,L|112:139,1,45
213,262,34925,2,0,L|209:217,1,45
182,148,35240,1,0,0:0:0:0:
17,296,35556,2,0,P|46:286|94:293,1,45
121,329,35871,6,0,B|170:373,1,45
214,309,36187,1,0,0:0:0:0:
260,367,36345,1,0,0:0:0:0:
304,307,36502,2,0,B|337:276,1,45
389,271,36818,2,0,B|422:240,1,45
472,177,37133,6,0,P|461:153|457:122,1,45
461,76,37449,2,0,L|402:74,1,45
356,118,37765,2,0,L|311:119,1,45
210,43,38080,2,0,L|254:41,1,45
346,41,38396,1,0,0:0:0:0:
346,41,38711,1,0,0:0:0:0:
315,248,39027,1,0,0:0:0:0:
149,128,39342,5,0,0:0:0:0:
166,46,39500,1,0,0:0:0:0:
149,128,39658,2,0,L|150:199,1,45
139,253,39973,1,0,0:0:0:0:
63,282,40131,1,0,0:0:0:0:
73,201,40289,1,0,0:0:0:0:
137,263,40446,1,0,0:0:0:0:
217,224,40604,1,0,0:0:0:0:
217,224,40920,6,0,B|217:259|217:259|229:286|229:286|217:314|217:314|217:360,1,125.999996154785
35,349,41551,2,0,P|89:334|149:353,1,107.999996704102
348,284,42182,2,0,P|341:262|323:234,1,53.9999983520508
258,342,42497,2,0,P|280:348|315:344,1,53.9999983520508
255,236,42813,2,0,P|238:251|224:283,1,53.9999983520508
191,364,43128,2,0,P|179:339|161:320,1,53.9999983520508
79,325,43444,5,0,0:0:0:0:
11,177,43759,1,0,0:0:0:0:
172,184,44075,1,0,0:0:0:0:
95,41,44391,2,0,L|165:59,1,53.9999983520508
222,24,44706,2,0,L|292:42,1,53.9999983520508
351,61,45022,1,0,0:0:0:0:
351,61,45337,2,0,B|361:123|334:123|354:176,1,107.999996704102
445,191,45968,6,0,L|441:273,1,58.4999973220826
435,337,46284,2,0,L|376:334,1,58.4999973220826
256,294,46599,1,0,0:0:0:0:
256,294,46915,2,0,L|256:378,1,58.4999973220826
67,191,47230,6,0,L|71:273,1,58.4999973220826
77,355,47546,1,0,0:0:0:0:
254,205,47861,1,0,0:0:0:0:
478,349,48177,1,0,0:0:0:0:
480,316,49439,5,0,0:0:0:0:
483,279,50070,1,0,0:0:0:0:
492,149,50385,1,0,0:0:0:0:
395,23,50701,1,0,0:0:0:0:
351,210,50859,1,0,0:0:0:0:
257,29,51017,6,0,B|242:54|239:78|239:78|242:95|242:95|231:107|231:107|231:133|212:169,1,135.000005149842
63,256,51490,1,0,0:0:0:0:
63,256,51648,2,0,P|73:301|90:339,1,67.5000025749208
195,355,51963,2,0,P|185:310|168:272,1,67.5000025749208
65,122,52279,6,0,B|60:85|60:85|67:22,1,67.5000025749208
194,123,52594,2,0,B|188:83|188:83|195:11,1,76.5000014591217
325,123,52910,2,0,B|317:80|317:80|326:9,1,85.4999977169037
463,29,53225,2,0,B|468:78|468:78|460:121,1,85.4999977169037
401,281,53541,1,0,0:0:0:0:
401,281,53856,2,0,L|476:273,2,67.5000025749208
256,165,54487,2,0,L|256:254,1,67.5000025749208
172,362,54803,6,0,B|133:365|133:365|72:357,1,67.5000025749208
132,278,55118,2,0,B|94:273|94:273|33:245,1,76.5000014591217
112,187,55434,2,0,B|76:173|76:173|23:133,1,85.4999977169037
114,94,55749,2,0,B|81:72|81:72|38:19,1,94.499997116089
143,0,56065,2,0,B|193:41|193:41|215:73,1,94.499997116089
203,205,56380,1,0,0:0:0:0:
260,90,56538,1,0,0:0:0:0:
308,209,56696,2,0,L|345:281,1,67.5000025749208
475,347,57011,5,0,0:0:0:0:
476,183,57169,1,0,0:0:0:0:
415,269,57327,2,0,L|315:269,1,76.5000014591217
198,349,57643,2,0,L|274:349,1,76.5000014591217
159,274,57958,2,0,L|83:274,1,76.5000014591217
19,354,58274,2,0,P|33:278|15:179,1,153.000002918243
162,107,58905,1,0,0:0:0:0:
149,200,59062,1,0,0:0:0:0:
74,142,59220,2,0,P|56:117|44:66,1,67.5000025749208
153,21,59536,6,0,L|241:48,1,67.5000025749208
367,50,59851,2,0,B|337:86|337:86|277:108,1,90
144,132,60167,2,0,L|232:159,1,67.5000025749208
358,161,60482,2,0,B|328:197|328:197|268:219,1,90
144,229,60798,1,0,0:0:0:0:
225,270,60956,1,0,0:0:0:0:
364,267,61113,6,0,B|331:279|331:279|297:305,1,67.5000025749208
162,320,61429,2,0,B|187:339|187:339|220:351,1,67.5000025749208
364,267,61744,2,0,P|416:341|415:383,1,135.000005149842
162,220,62375,2,0,B|163:186|163:186|178:151,1,67.5000025749208
326,197,62691,2,0,B|290:214|290:214|254:210,1,76.5000014591217
289,41,63006,2,0,B|290:86|290:86|271:127,1,85.4999977169037
112,48,63322,2,0,B|160:48|160:48|204:69,1,94.499997116089
176,155,63637,1,0,0:0:0:0:
301,281,63953,2,0,L|301:373,2,67.5000025749208
24,358,64584,5,0,0:0:0:0:
76,248,64742,1,0,0:0:0:0:
132,356,64900,2,0,L|212:356,1,67.5000025749208
301,281,65215,2,0,L|214:281,1,76.5000014591217
334,356,65531,2,0,L|425:356,1,85.4999977169037
472,272,65846,6,0,P|399:208|292:190,1,188.999994232178
40,112,66477,2,0,P|113:176|220:194,1,188.999994232178
398,28,67108,2,0,P|297:71|252:138,1,170.999995433807
141,360,67739,2,0,P|215:313|253:244,1,153.000002918243
114,28,68370,5,0,0:0:0:0:
398,28,68686,1,0,0:0:0:0:
256,353,69317,1,0,0:0:0:0:
448,352,69948,5,0,0:0:0:0:
64,352,70263,1,0,0:0:0:0:
256,32,70579,1,0,0:0:0:0:
256,216,71210,5,0,0:0:0:0:
256,232,74050,5,0,0:0:0:0:
256,188,74365,1,0,0:0:0:0:
255,354,75627,5,0,0:0:0:0:
255,354,75943,1,0,0:0:0:0:
406,178,76258,6,0,P|356:183|329:202,1,53.9999983520508
292,211,76574,2,0,P|242:206|215:187,1,53.9999983520508
276,87,76889,2,0,P|226:92|199:111,1,53.9999983520508
158,114,77205,2,0,P|108:109|81:90,1,53.9999983520508
53,44,77521,2,0,P|35:28|17:45,1,53.9999983520508
29,122,77836,2,0,P|34:172|53:199,1,53.9999983520508
89,217,78152,2,0,P|84:267|65:294,1,53.9999983520508
25,354,78467,2,0,L|112:353,1,53.9999983520508
171,310,78783,6,0,B|193:341|193:341|193:374,1,53.9999983520508
221,272,79098,2,0,B|227:309|227:309|213:339,1,53.9999983520508
282,258,79414,2,0,B|272:294|272:294|247:315,1,53.9999983520508
236,201,79729,2,0,B|245:164|245:164|257:153,1,53.9999983520508
339,193,80045,2,0,P|378:199|411:191,1,53.9999983520508
450,133,80360,5,0,0:0:0:0:
425,49,80518,1,0,0:0:0:0:
334,108,80676,1,0,0:0:0:0:
256,32,80834,1,0,0:0:0:0:
166,91,80991,1,0,0:0:0:0:
82,21,81149,1,0,0:0:0:0:
29,166,81307,5,0,0:0:0:0:
166,91,81622,1,0,0:0:0:0:
29,166,81938,1,0,0:0:0:0:
166,91,82569,5,0,0:0:0:0:
123,241,82884,1,0,0:0:0:0:
260,317,83200,1,0,0:0:0:0:
216,166,83515,1,0,0:3:0:0:
367,210,83831,6,0,P|396:166|402:105,1,107.999996704102
330,15,84304,1,0,0:0:0:0:
404,93,84462,2,0,P|430:95|462:88,1,53.9999983520508
489,174,84778,1,0,0:0:0:0:
478,262,84935,1,0,0:0:0:0:
469,351,85093,2,0,P|434:355|396:350,1,53.9999983520508
324,322,85409,2,0,P|328:357|323:395,1,53.9999983520508
220,373,85724,2,0,P|218:346|222:319,1,53.9999983520508
299,253,86040,2,0,P|275:257|233:245,1,53.9999983520508
142,152,86355,6,0,L|103:198,1,53.9999983520508
32,275,86671,2,0,L|32:345,2,53.9999983520508
34,108,87302,1,0,0:0:0:0:
34,108,87617,2,0,P|65:91|106:81,1,53.9999983520508
156,100,87933,2,0,P|182:102|209:99,1,53.9999983520508
282,84,88248,2,0,P|307:93|331:106,1,53.9999983520508
402,136,88564,2,0,P|428:138|455:135,1,53.9999983520508
438,9,88879,6,0,L|429:81,1,53.9999983520508
408,189,89195,2,0,L|401:135,1,53.9999983520508
351,28,89510,2,0,L|342:100,1,53.9999983520508
321,208,89826,1,0,0:0:0:0:
269,131,89984,1,0,0:0:0:0:
211,201,90141,1,0,0:0:0:0:
152,130,90299,1,0,0:0:0:0:
94,201,90457,5,0,0:0:0:0:
152,115,90615,1,0,0:0:0:0:
211,217,90773,1,0,0:0:0:0:
270,117,90930,1,0,0:0:0:0:
321,223,91088,2,0,P|335:260|352:288,1,53.9999983520508
494,172,91404,6,0,P|444:186|388:233,1,107.999996704102
186,308,92035,2,0,P|228:340|280:355,1,107.999996704102
284,88,92666,2,0,P|251:130|236:182,1,107.999996704102
453,231,93297,2,0,P|411:198|359:183,2,107.999996704102
453,231,94243,5,0,0:0:0:0:
317,356,94559,1,0,0:0:0:0:
370,275,94874,1,0,0:0:0:0:
215,228,95190,1,0,0:0:0:0:
284,280,95505,1,0,0:0:0:0:
207,319,95821,2,0,P|149:313|80:272,1,107.999996704102
49,73,96452,6,0,L|55:188,1,107.999996704102
256,114,97083,2,0,L|250:229,1,107.999996704102
147,344,97714,1,0,0:0:0:0:
159,149,98030,1,0,0:0:0:0:
352,162,98345,1,0,0:0:0:0:
339,356,98661,1,0,0:0:0:0:
51,251,99292,5,0,0:0:0:0:
51,251,99607,1,0,0:0:0:0:
444,256,100554,5,0,0:0:0:0:
287,282,100869,1,0,0:0:0:0:
437,239,101185,1,0,0:0:0:0:
430,47,101500,1,0,0:0:0:0:
430,47,103371,1,0,0:0:0:0:
82,47,103980,6,0,L|68:180,1,107.999996704102
158,102,104611,2,0,B|154:140|154:140|237:201,1,107.999996704102
333,164,105242,1,0,0:0:0:0:
259,95,105557,1,0,0:0:0:0:
287,248,105873,1,0,0:0:0:0:
437,215,106188,1,0,0:0:0:0:
364,70,106504,2,0,L|219:104,1,107.999996704102
88,10,107135,2,0,P|122:66|130:127,1,107.999996704102
101,232,107766,2,0,L|-7:239,2,107.999996704102
215,337,108712,1,0,0:0:0:0:
130,107,109028,5,0,0:0:0:0:
256,240,109343,1,0,0:0:0:0:
382,107,109659,1,0,0:0:0:0:
144,126,109974,1,0,0:0:0:0:
256,257,110290,1,0,0:0:0:0:
368,126,110606,1,0,0:0:0:0:
302,62,110763,1,0,0:0:0:0:
210,60,110921,1,0,0:0:0:0:
144,125,111079,1,0,0:0:0:0:
256,147,111237,2,0,L|257:220,1,53.9999983520508
255,293,111552,5,0,0:0:0:0:
132,216,111868,1,0,0:0:0:0:
380,216,112183,2,0,L|371:358,1,107.999996704102
485,166,112814,2,0,L|478:58,1,107.999996704102
282,57,113445,2,0,P|342:63|397:56,1,107.999996704102
188,3,114076,6,0,L|186:132,1,107.999996704102
182,263,114707,1,0,0:0:0:0:
105,174,115023,1,0,0:0:0:0:
107,355,115338,1,0,0:0:0:0:
182,263,115654,2,0,L|256:364,1,107.999996704102
419,348,116285,1,0,0:0:0:0:
419,348,116600,6,0,P|427:264|417:221,1,107.999996704102
182,263,117232,2,0,P|266:271|309:261,1,107.999996704102
324,46,117863,2,0,P|318:99|327:152,1,107.999996704102
425,159,118336,1,0,0:0:0:0:
430,62,118494,2,0,L|304:42,1,107.999996704102
63,43,119125,5,0,0:0:0:0:
224,50,119440,1,0,0:0:0:0:
143,46,119597,1,0,0:0:0:0:
63,43,119755,1,0,0:0:0:0:
129,238,120071,1,0,0:0:0:0:
85,313,120229,1,0,0:0:0:0:
171,314,120387,6,0,L|247:314,1,53.9999983520508
316,314,120702,2,0,L|397:314,1,62.9999980773926
488,246,121018,1,0,0:0:0:0:
469,148,121176,1,0,0:0:0:0:
374,168,121333,1,0,0:0:0:0:
331,78,121491,1,0,0:0:0:0:
257,143,121649,6,0,B|239:121|205:106|205:106|197:106|197:106|194:99|194:99|178:78|147:64,1,135.000005149842
31,212,122122,1,0,0:0:0:0:
31,212,122280,2,0,P|67:199|92:174,1,67.5000025749208
10,52,122595,2,0,P|6:90|18:123,1,67.5000025749208
166,214,122911,2,0,B|169:255|169:255|161:308,1,67.5000025749208
253,175,123226,2,0,B|257:219|257:219|249:279,1,76.5000014591217
340,141,123542,2,0,B|344:190|344:190|336:250,1,85.4999977169037
91,294,123858,2,0,B|84:249|84:249|90:200,1,94.499997116089
202,54,124173,5,0,0:0:0:0:
202,54,124489,2,0,L|201:146,2,67.5000025749208
415,20,125119,2,0,L|415:87,1,67.5000025749208
420,246,125434,2,0,P|444:223|487:214,1,67.5000025749208
425,364,125750,2,0,L|314:347,1,76.5000014591217
411,236,126065,2,0,P|435:213|486:205,1,85.4999977169037
418,373,126381,2,0,L|303:354,1,94.499997116089
141,320,126696,6,0,P|180:274|203:333,1,135.000005149842
52,323,127169,1,0,0:0:0:0:
52,323,127327,2,0,P|49:289|67:232,1,67.5000025749208
116,149,127643,1,0,0:0:0:0:
174,257,127801,1,0,0:0:0:0:
232,149,127958,2,0,L|333:149,1,67.5000025749208
290,257,128274,2,0,L|380:257,1,67.5000025749208
349,365,128589,2,0,L|439:365,1,67.5000025749208
497,202,128905,2,0,B|497:101|497:101|488:123|460:140,1,135.000005149842
327,68,129536,5,0,0:0:0:0:
421,69,129694,1,0,0:0:0:0:
377,151,129851,2,0,P|343:147|292:172,1,67.5000025749208
418,286,130167,2,0,L|418:196,1,67.5000025749208
298,310,130482,2,0,L|298:220,1,67.5000025749208
178,334,130798,2,0,L|178:238,1,76.5000014591217
58,358,131114,2,0,L|58:259,1,85.4999977169037
57,149,131429,1,0,0:0:0:0:
57,272,131587,1,0,0:0:0:0:
57,149,131745,6,0,B|150:117|150:172|242:147,1,188.999994232178
251,43,132218,1,0,0:0:0:0:
251,43,132376,2,0,P|218:50|190:89,1,67.5000025749208
328,161,132691,2,0,P|329:127|299:90,1,67.5000025749208
202,230,133007,2,0,L|350:357,1,135.000005149842
479,192,133638,2,0,L|404:192,1,67.5000025749208
408,289,133953,2,0,L|483:289,1,67.5000025749208
340,121,134269,2,0,P|318:190|336:258,1,135.000005149842
482,96,134900,1,0,0:0:0:0:
255,20,135215,5,0,0:0:0:0:
340,121,135373,1,0,0:0:0:0:
255,222,135531,2,0,L|255:366,1,135.000005149842
256,137,136162,1,0,0:0:0:0:
256,137,136477,6,0,B|181:162|124:186|114:232|141:260,1,188.999994232178
256,137,137108,2,0,B|231:62|207:5|161:-4|133:22,1,188.999994232178
256,137,137740,2,0,B|331:112|377:98|395:52|371:14,1,170.999995433807
256,137,138371,2,0,B|281:212|289:245|335:265|379:252,1,153.000002918243
501,329,139002,1,0,0:0:0:0:
501,55,139317,5,0,0:0:0:0:
501,55,139633,1,0,0:0:0:0:
256,192,139948,5,0,0:0:0:0:
256,192,140264,1,0,0:0:0:0:
11,329,140579,5,0,0:0:0:0:
11,55,140894,1,0,0:0:0:0:
93,112,141053,1,0,0:0:0:0:
175,55,141210,1,0,0:0:0:0:
257,112,141368,1,0,0:0:0:0:
339,55,141525,1,0,0:0:0:0:
421,112,141684,1,0,0:0:0:0:
503,55,141841,6,0,B|492:82|492:106|492:106|498:122|498:122|489:136|489:136|493:161|480:200,1,135.000005149842
465,347,142315,1,0,0:0:0:0:
465,347,142472,2,0,P|429:339|378:346,1,67.5000025749208
273,369,142788,2,0,P|239:370|206:362,1,67.5000025749208
365,241,143103,2,0,L|329:309,1,67.5000025749208
178,300,143419,2,0,L|143:229,1,76.5000014591217
351,211,143734,2,0,L|305:294,1,85.4999977169037
192,270,144050,2,0,L|143:166,1,94.499997116089
256,97,144366,5,0,0:0:0:0:
256,97,144681,1,0,0:0:0:0:
254,345,144997,1,0,0:0:0:0:
255,189,145312,1,0,0:0:0:0:
255,358,145628,2,0,P|298:362|354:358,1,67.5000025749208
410,360,145943,2,0,P|443:360|489:352,1,76.5000014591217
499,264,146259,2,0,P|456:260|388:268,1,85.4999977169037
322,260,146574,2,0,P|276:259|222:268,1,94.499997116089
158,349,146890,6,0,P|115:353|59:349,1,67.5000025749208
13,243,147205,1,0,0:0:0:0:
83,346,147363,1,0,0:0:0:0:
143,232,147521,2,0,L|127:132,1,67.5000025749208
110,32,147836,1,0,0:0:0:0:
60,158,147994,1,0,0:0:0:0:
196,133,148152,2,0,L|283:133,1,67.5000025749208
367,220,148467,2,0,L|299:220,1,67.5000025749208
407,136,148783,2,0,L|494:136,1,67.5000025749208
498,270,149098,6,0,P|436:282|329:347,1,135.000005149842
174,372,149729,1,0,0:0:0:0:
274,353,149887,1,0,0:0:0:0:
204,280,150045,2,0,P|171:277|123:291,1,67.5000025749208
65,355,150360,2,0,L|37:273,1,67.5000025749208
159,220,150676,2,0,L|129:305,1,76.5000014591217
43,329,150992,2,0,L|12:240,1,85.4999977169037
178,247,151307,2,0,L|147:338,1,94.499997116089
0,211,151623,1,0,0:0:0:0:
78,142,151780,1,0,0:0:0:0:
174,168,151938,6,0,P|211:147|227:101,1,67.5000025749208
139,22,152254,2,0,L|147:109,1,67.5000025749208
296,174,152569,2,0,P|305:92|251:43,1,135.000005149842
146,274,153200,6,0,P|183:265|222:289,1,67.5000025749208
305,311,153516,2,0,P|342:320|386:292,1,76.5000014591217
406,208,153831,2,0,P|371:207|331:257,1,85.4999977169037
415,378,154147,2,0,P|416:343|360:303,1,94.499997116089
245,365,154462,1,0,0:0:0:0:
406,208,154778,2,0,L|473:245,2,67.5000025749208
67,234,155409,5,0,0:0:0:0:
168,234,155567,1,0,0:0:0:0:
118,146,155724,2,0,L|118:62,1,67.5000025749208
168,234,156040,2,0,L|168:327,1,76.5000014591217
218,146,156355,2,0,L|218:61,1,85.4999977169037
268,234,156671,6,0,B|268:369|268:369|299:370|321:327,1,188.999994232178
311,152,157302,2,0,B|324:124|355:125|355:125|355:260,1,188.999994232178
468,342,157933,2,0,B|481:369|512:368|512:368|512:233,1,188.999994232178
469,151,158564,2,0,B|456:124|425:125|425:125|425:260,1,188.999994232178
497,65,159195,1,0,0:0:0:0:
412,29,159353,1,0,0:0:0:0:
328,58,159511,5,0,0:0:0:0:
310,147,160142,1,0,0:0:0:0:
267,229,160773,2,0,B|177:255|136:234|152:193|182:177|204:191|210:205|201:213,1,180
