osu file format v14

[General]
AudioFilename: audio.mp3
AudioLeadIn: 0
PreviewTime: 559
Countdown: 0
SampleSet: Soft
StackLeniency: 0.4
Mode: 0
LetterboxInBreaks: 0
WidescreenStoryboard: 1

[Editor]
Bookmarks: 21074,38016,54957,76134,105782,122724,131195,156607,165078,173549,190491,207432
DistanceSpacing: 0.9
BeatDivisor: 4
GridSize: 32
TimelineZoom: 1.1

[Metadata]
Title:Gimme More
TitleUnicode:Gimme More
Artist:Britney Spears
ArtistUnicode:Britney Spears
Creator:jas
Version:muya-'s Easy
Source:
Tags:craezy muya- sylas thekoala blackout black out electronic electro synth dance english pop EDM music synthpop electropop dancepop
BeatmapID:4062868
BeatmapSetID:1957147

[Difficulty]
HPDrainRate:3
CircleSize:2.8
OverallDifficulty:3
ApproachRate:4
SliderMultiplier:1.2
SliderTickRate:1

[Events]
//Background and Video events
0,0,"gimmemore.jpg",0,0
//Break Periods
2,72102,74818
2,122927,129878
2,156811,163762
//Storyboard Layer 0 (Background)
//Storyboard Layer 1 (Fail)
//Storyboard Layer 2 (Pass)
//Storyboard Layer 3 (Foreground)
//Storyboard Layer 4 (Overlay)
//Storyboard Sound Samples

[TimingPoints]
2019,529.427336098121,4,2,1,50,1,0
4136,529.427336098121,4,2,1,60,1,0
4136,-100,4,2,1,60,0,0
21077,-100,4,2,2,70,0,0
21342,-100,4,2,1,70,0,0
21871,-100,4,2,2,70,0,0
22136,-100,4,2,1,70,0,0
22400,-100,4,2,2,70,0,0
22665,-100,4,2,1,70,0,0
22930,-100,4,2,2,70,0,0
23195,-100,4,2,1,70,0,0
23989,-100,4,2,2,70,0,0
25312,-100,4,2,1,70,0,0
26106,-100,4,2,2,70,0,0
26371,-100,4,2,1,70,0,0
26636,-100,4,2,2,70,0,0
26901,-100,4,2,1,70,0,0
27165,-100,4,2,2,70,0,0
27430,-100,4,2,1,70,0,0
28224,-100,4,2,2,70,0,0
28754,-100,4,2,1,70,0,0
29283,-100,4,2,2,70,0,0
29548,-100,4,2,3,70,0,0
29812,-100,4,2,2,70,0,0
30077,-100,4,2,1,70,0,0
30342,-100,4,2,2,70,0,0
30607,-100,4,2,1,70,0,0
30871,-100,4,2,2,70,0,0
31136,-100,4,2,1,70,0,0
31401,-100,4,2,2,70,0,0
31665,-100,4,2,1,70,0,0
34577,-100,4,2,2,70,0,0
34842,-100,4,2,1,70,0,0
35107,-100,4,2,2,70,0,0
35371,-100,4,2,1,70,0,0
35636,-100,4,2,2,70,0,0
36430,-100,4,2,1,70,0,0
36695,-100,4,2,2,70,0,0
37489,-100,4,2,1,70,0,0
38019,-100,4,2,4,75,0,0
38283,-100,4,2,3,75,0,0
38548,-100,4,2,1,75,0,0
38813,-100,4,2,3,75,0,0
39077,-100,4,2,5,75,0,0
39342,-100,4,2,3,75,0,0
39607,-100,4,2,1,75,0,0
39872,-100,4,2,3,75,0,0
40136,-100,4,2,5,75,0,0
40401,-100,4,2,3,75,0,0
40666,-100,4,2,1,75,0,0
40930,-100,4,2,3,75,0,0
41195,-100,4,2,5,75,0,0
41460,-100,4,2,3,75,0,0
41725,-100,4,2,1,75,0,0
41989,-100,4,2,3,75,0,0
42254,-100,4,2,6,75,0,0
42519,-100,4,2,3,75,0,0
42783,-100,4,2,1,75,0,0
43048,-100,4,2,3,75,0,0
43313,-100,4,2,7,75,0,0
43578,-100,4,2,3,75,0,0
43842,-100,4,2,1,75,0,0
44107,-100,4,2,3,75,0,0
44372,-100,4,2,7,75,0,0
44636,-100,4,2,3,75,0,0
44901,-100,4,2,1,75,0,0
45166,-100,4,2,3,75,0,0
45431,-100,4,2,7,75,0,0
45695,-100,4,2,3,75,0,0
45960,-100,4,2,4,75,0,0
46225,-100,4,2,2,75,0,0
46489,-100,4,2,4,75,0,0
46754,-100,4,2,3,75,0,0
47019,-100,4,2,1,75,0,0
47284,-100,4,2,3,75,0,0
47548,-100,4,2,5,75,0,0
47813,-100,4,2,3,75,0,0
48078,-100,4,2,1,75,0,0
48342,-100,4,2,3,75,0,0
48607,-100,4,2,5,75,0,0
48872,-100,4,2,3,75,0,0
49137,-100,4,2,1,75,0,0
49401,-100,4,2,3,75,0,0
49666,-100,4,2,5,75,0,0
49931,-100,4,2,3,75,0,0
50195,-100,4,2,1,75,0,0
50460,-100,4,2,3,75,0,0
50725,-100,4,2,6,75,0,0
50990,-100,4,2,3,75,0,0
51254,-100,4,2,1,75,0,0
51519,-100,4,2,3,75,0,0
51784,-100,4,2,7,75,0,0
52048,-100,4,2,3,75,0,0
52313,-100,4,2,1,75,0,0
52578,-100,4,2,3,75,0,0
52843,-100,4,2,5,75,0,0
53107,-100,4,2,3,75,0,0
53372,-100,4,2,1,75,0,0
53637,-100,4,2,3,75,0,0
53901,-100,4,2,7,75,0,0
54166,-100,4,2,3,75,0,0
54431,-100,4,2,5,75,0,0
54696,-100,4,2,3,75,0,0
54960,-100,4,2,8,90,0,0
55225,-100,4,2,3,90,0,0
55490,-100,4,2,6,90,0,0
55754,-100,4,2,3,90,0,0
56019,-100,4,2,9,90,0,0
56284,-100,4,2,2,90,0,0
56549,-100,4,2,6,90,0,0
56813,-100,4,2,4,90,0,0
57078,-100,4,2,10,90,0,0
57343,-100,4,2,2,90,0,0
57607,-100,4,2,6,90,0,0
57872,-100,4,2,3,90,0,0
58137,-100,4,2,7,90,0,0
58402,-100,4,2,3,90,0,0
58666,-100,4,2,7,90,0,0
58931,-100,4,2,5,90,0,0
59196,-100,4,2,4,90,0,0
59460,-100,4,2,3,90,0,0
59725,-100,4,2,6,90,0,0
59990,-100,4,2,3,90,0,0
60255,-100,4,2,9,90,0,0
60519,-100,4,2,2,90,0,0
60784,-100,4,2,6,90,0,0
61049,-100,4,2,4,90,0,0
61313,-100,4,2,6,90,0,0
61578,-100,4,2,2,90,0,0
61843,-100,4,2,6,90,0,0
62108,-100,4,2,3,90,0,0
62372,-100,4,2,7,90,0,0
62637,-100,4,2,3,90,0,0
62902,-100,4,2,8,90,0,0
63166,-100,4,2,5,90,0,0
63431,-100,4,2,4,90,0,0
63696,-100,4,2,3,90,0,0
63960,-100,4,2,6,90,0,0
64225,-100,4,2,3,90,0,0
64490,-100,4,2,11,90,0,0
64755,-100,4,2,2,90,0,0
65019,-100,4,2,6,90,0,0
65284,-100,4,2,4,90,0,0
65549,-100,4,2,10,90,0,0
65813,-100,4,2,2,90,0,0
66078,-100,4,2,6,90,0,0
66343,-100,4,2,3,90,0,0
66608,-100,4,2,7,90,0,0
66872,-100,4,2,3,90,0,0
67137,-100,4,2,7,90,0,0
67402,-100,4,2,5,90,0,0
67666,-100,4,2,4,90,0,0
67931,-100,4,2,3,90,0,0
68196,-100,4,2,6,90,0,0
68461,-100,4,2,3,90,0,0
68725,-100,4,2,9,90,0,0
68990,-100,4,2,2,90,0,0
69255,-100,4,2,6,90,0,0
69519,-100,4,2,4,90,0,0
69784,-100,4,2,6,90,0,0
70049,-100,4,2,2,90,0,0
70314,-100,4,2,6,90,0,0
70578,-100,4,2,3,90,0,0
70843,-100,4,2,7,90,0,0
71108,-100,4,2,3,90,0,0
71372,-100,4,2,8,90,0,0
71637,-100,4,2,5,90,0,0
71902,-100,4,2,1,50,0,0
76137,-100,4,2,2,70,0,0
76402,-100,4,2,1,70,0,0
76931,-100,4,2,2,70,0,0
77196,-100,4,2,1,70,0,0
77461,-100,4,2,2,70,0,0
77726,-100,4,2,1,70,0,0
77990,-100,4,2,2,70,0,0
78255,-100,4,2,1,70,0,0
79049,-100,4,2,2,70,0,0
79579,-100,4,2,1,70,0,0
80108,-100,4,2,2,70,0,0
80373,-100,4,2,12,70,0,0
80637,-100,4,2,1,70,0,0
81167,-100,4,2,2,70,0,0
81432,-100,4,2,1,70,0,0
81696,-100,4,2,2,70,0,0
81961,-100,4,2,1,70,0,0
82226,-100,4,2,2,70,0,0
82490,-100,4,2,1,70,0,0
82755,-100,4,2,2,70,0,0
83020,-100,4,2,1,70,0,0
83285,-100,4,2,2,70,0,0
84608,-100,4,2,1,70,0,0
84873,-100,4,2,2,70,0,0
85138,-100,4,2,1,70,0,0
85402,-100,4,2,2,70,0,0
86726,-100,4,2,1,70,0,0
86991,-100,4,2,2,70,0,0
87255,-100,4,2,1,70,0,0
87520,-100,4,2,2,70,0,0
88314,-100,4,2,1,70,0,0
88579,-100,4,2,2,70,0,0
88844,-100,4,2,4,75,0,0
89108,-100,4,2,3,75,0,0
89373,-100,4,2,1,75,0,0
89638,-100,4,2,3,75,0,0
89902,-100,4,2,5,75,0,0
90167,-100,4,2,3,75,0,0
90432,-100,4,2,1,75,0,0
90697,-100,4,2,3,75,0,0
90961,-100,4,2,5,75,0,0
91226,-100,4,2,3,75,0,0
91491,-100,4,2,1,75,0,0
91755,-100,4,2,3,75,0,0
92020,-100,4,2,5,75,0,0
92285,-100,4,2,3,75,0,0
92550,-100,4,2,1,75,0,0
92814,-100,4,2,3,75,0,0
93079,-100,4,2,6,75,0,0
93344,-100,4,2,3,75,0,0
93608,-100,4,2,1,75,0,0
93873,-100,4,2,3,75,0,0
94138,-100,4,2,7,75,0,0
94403,-100,4,2,3,75,0,0
94667,-100,4,2,1,75,0,0
94932,-100,4,2,3,75,0,0
95197,-100,4,2,7,75,0,0
95461,-100,4,2,3,75,0,0
95726,-100,4,2,1,75,0,0
95991,-100,4,2,3,75,0,0
96256,-100,4,2,7,75,0,0
96520,-100,4,2,3,75,0,0
96785,-100,4,2,9,75,0,0
97050,-100,4,2,2,75,0,0
97314,-100,4,2,4,75,0,0
97579,-100,4,2,3,75,0,0
97844,-100,4,2,1,75,0,0
98109,-100,4,2,3,75,0,0
98373,-100,4,2,5,75,0,0
98638,-100,4,2,3,75,0,0
98903,-100,4,2,1,75,0,0
99167,-100,4,2,3,75,0,0
99432,-100,4,2,5,75,0,0
99697,-100,4,2,3,75,0,0
99962,-100,4,2,1,75,0,0
100226,-100,4,2,3,75,0,0
100491,-100,4,2,5,75,0,0
100756,-100,4,2,3,75,0,0
101020,-100,4,2,1,75,0,0
101285,-100,4,2,3,75,0,0
101550,-100,4,2,6,75,0,0
101815,-100,4,2,3,75,0,0
102079,-100,4,2,1,75,0,0
102344,-100,4,2,3,75,0,0
102609,-100,4,2,7,75,0,0
102873,-100,4,2,3,75,0,0
103138,-100,4,2,1,75,0,0
103403,-100,4,2,3,75,0,0
103668,-100,4,2,5,75,0,0
103932,-100,4,2,3,75,0,0
104197,-100,4,2,1,75,0,0
104462,-100,4,2,3,75,0,0
104726,-100,4,2,7,75,0,0
104991,-100,4,2,3,75,0,0
105256,-100,4,2,5,75,0,0
105521,-100,4,2,3,75,0,0
105785,-100,4,2,8,90,0,0
106050,-100,4,2,3,90,0,0
106315,-100,4,2,6,90,0,0
106579,-100,4,2,3,90,0,0
106844,-100,4,2,9,90,0,0
107109,-100,4,2,2,90,0,0
107374,-100,4,2,6,90,0,0
107638,-100,4,2,4,90,0,0
107903,-100,4,2,10,90,0,0
108168,-100,4,2,2,90,0,0
108432,-100,4,2,6,90,0,0
108697,-100,4,2,3,90,0,0
108962,-100,4,2,7,90,0,0
109227,-100,4,2,3,90,0,0
109491,-100,4,2,7,90,0,0
109756,-100,4,2,5,90,0,0
110021,-100,4,2,4,90,0,0
110285,-100,4,2,3,90,0,0
110550,-100,4,2,6,90,0,0
110815,-100,4,2,3,90,0,0
111080,-100,4,2,9,90,0,0
111344,-100,4,2,2,90,0,0
111609,-100,4,2,6,90,0,0
111874,-100,4,2,4,90,0,0
112138,-100,4,2,6,90,0,0
112403,-100,4,2,2,90,0,0
112668,-100,4,2,6,90,0,0
112933,-100,4,2,3,90,0,0
113197,-100,4,2,7,90,0,0
113462,-100,4,2,3,90,0,0
113727,-100,4,2,8,90,0,0
113991,-100,4,2,5,90,0,0
114256,-100,4,2,4,90,0,0
114521,-100,4,2,3,90,0,0
114786,-100,4,2,6,90,0,0
115050,-100,4,2,3,90,0,0
115315,-100,4,2,11,90,0,0
115580,-100,4,2,2,90,0,0
115844,-100,4,2,6,90,0,0
116109,-100,4,2,4,90,0,0
116374,-100,4,2,10,90,0,0
116639,-100,4,2,2,90,0,0
116903,-100,4,2,6,90,0,0
117168,-100,4,2,3,90,0,0
117433,-100,4,2,7,90,0,0
117697,-100,4,2,3,90,0,0
117962,-100,4,2,7,90,0,0
118227,-100,4,2,5,90,0,0
118492,-100,4,2,4,90,0,0
118756,-100,4,2,3,90,0,0
119021,-100,4,2,6,90,0,0
119286,-100,4,2,3,90,0,0
119550,-100,4,2,9,90,0,0
119815,-100,4,2,2,90,0,0
120080,-100,4,2,6,90,0,0
120345,-100,4,2,4,90,0,0
120609,-100,4,2,6,90,0,0
120874,-100,4,2,2,90,0,0
121139,-100,4,2,6,90,0,0
121403,-100,4,2,3,90,0,0
121668,-100,4,2,7,90,0,0
121933,-100,4,2,3,90,0,0
122198,-100,4,2,8,90,0,0
122462,-100,4,2,5,90,0,0
122727,-100,4,2,1,60,0,0
130668,-100,4,2,10,60,0,0
131198,-100,4,2,1,60,0,0
136492,558.139534883721,4,2,1,60,1,0
137609,529.427336098121,4,2,1,50,1,0
139140,529.427336098121,4,2,1,50,1,0
139140,-100,4,2,7,80,0,0
139670,529.427336098121,4,2,8,90,1,0
139933,-100,4,2,3,90,0,0
140198,-100,4,2,6,90,0,0
140463,-100,4,2,3,90,0,0
140727,-100,4,2,9,90,0,0
140992,-100,4,2,2,90,0,0
141257,-100,4,2,6,90,0,0
141521,-100,4,2,4,90,0,0
141786,-100,4,2,10,90,0,0
142051,-100,4,2,2,90,0,0
142316,-100,4,2,6,90,0,0
142580,-100,4,2,3,90,0,0
142845,-100,4,2,7,90,0,0
143110,-100,4,2,3,90,0,0
143374,-100,4,2,7,90,0,0
143639,-100,4,2,4,90,0,0
144169,-100,4,2,3,90,0,0
144433,-100,4,2,6,90,0,0
144698,-100,4,2,3,90,0,0
144963,-100,4,2,9,90,0,0
145227,-100,4,2,2,90,0,0
145492,-100,4,2,6,90,0,0
145757,-100,4,2,4,90,0,0
146022,-100,4,2,6,90,0,0
146286,-100,4,2,2,90,0,0
146551,-100,4,2,6,90,0,0
146816,-100,4,2,3,90,0,0
147080,-100,4,2,7,90,0,0
147345,-100,4,2,3,90,0,0
147610,-100,4,2,8,90,0,0
147875,-100,4,2,4,90,0,0
148404,-100,4,2,3,90,0,0
148669,-100,4,2,6,90,0,0
148933,-100,4,2,3,90,0,0
149198,-100,4,2,11,90,0,0
149463,-100,4,2,2,90,0,0
149728,-100,4,2,6,90,0,0
149992,-100,4,2,4,90,0,0
150257,-100,4,2,10,90,0,0
150522,-100,4,2,2,90,0,0
150786,-100,4,2,6,90,0,0
151051,-100,4,2,3,90,0,0
151316,-100,4,2,7,90,0,0
151581,-100,4,2,3,90,0,0
151845,-100,4,2,7,90,0,0
152110,-100,4,2,5,90,0,0
152375,-100,4,2,4,90,0,0
152639,-100,4,2,3,90,0,0
152904,-100,4,2,6,90,0,0
153169,-100,4,2,3,90,0,0
153434,-100,4,2,9,90,0,0
153698,-100,4,2,3,90,0,0
153963,-100,4,2,6,90,0,0
154228,-100,4,2,4,90,0,0
154492,-100,4,2,6,90,0,0
154757,-100,4,2,2,90,0,0
155022,-100,4,2,6,90,0,0
155287,-100,4,2,3,90,0,0
155551,-100,4,2,7,90,0,0
155816,-100,4,2,3,90,0,0
156081,-100,4,2,8,90,0,0
156345,-100,4,2,5,90,0,0
156610,-100,4,2,1,75,0,0
156875,-100,4,2,2,75,0,0
157007,-100,4,2,1,75,0,0
157404,-100,4,2,2,75,0,0
157669,-100,4,2,1,75,0,0
158463,-100,4,2,2,75,0,0
159125,-100,4,2,1,75,0,0
159522,-100,4,2,2,75,0,0
160051,-100,4,2,1,75,0,0
160581,-100,4,2,2,75,0,0
161243,-100,4,2,1,75,0,0
161640,-100,4,2,2,75,0,0
162169,-100,4,2,1,75,0,0
162699,-100,4,2,2,75,0,0
162963,-100,4,2,1,75,0,0
163757,-100,4,2,2,75,0,0
163890,-100,4,2,1,75,0,0
164287,-100,4,2,2,75,0,0
164353,-100,4,2,1,75,0,0
164552,-100,4,2,10,75,0,0
164816,-100,4,2,1,75,0,0
165346,-100,4,2,2,75,0,0
165478,-100,4,2,1,75,0,0
165875,-100,4,2,2,75,0,0
166669,-100,4,2,1,75,0,0
166934,-100,4,2,2,75,0,0
167199,-100,4,2,1,75,0,0
167463,-100,4,2,2,75,0,0
167596,-100,4,2,1,75,0,0
167993,-100,4,2,2,75,0,0
168787,-100,4,2,1,75,0,0
169052,-100,4,2,2,75,0,0
169316,-100,4,2,1,75,0,0
169581,-100,4,2,2,75,0,0
169714,-100,4,2,1,75,0,0
170111,-100,4,2,2,75,0,0
170375,-100,4,2,2,33,0,0
170640,-100,4,2,2,40,0,0
170905,-100,4,2,1,47,0,0
171169,-100,4,2,2,54,0,0
171434,-100,4,2,1,61,0,0
171699,-100,4,2,2,75,0,0
171964,-100,4,2,1,75,0,0
172228,-100,4,2,2,75,0,0
172493,-100,4,2,1,75,0,0
172758,-100,4,2,2,75,0,0
172824,-100,4,2,1,75,0,0
173287,-100,4,2,2,75,0,0
173419,-100,4,2,1,75,0,0
173552,-100,4,2,1,60,0,0
182023,-100,4,2,1,65,0,0
190494,-100,4,2,13,80,0,0
190758,-100,4,2,1,80,0,0
191023,-100,4,2,6,80,0,0
191552,-100,4,2,7,80,0,0
192082,-100,4,2,6,80,0,0
192347,-100,4,2,7,80,0,0
192611,-100,4,2,14,80,0,0
193008,-100,4,2,1,80,0,0
193141,-100,4,2,6,80,0,0
193670,-100,4,2,7,80,0,0
193935,-100,4,2,1,80,0,0
194200,-100,4,2,5,80,0,0
194464,-100,4,2,8,80,0,0
194729,-100,4,2,15,80,0,0
194994,-100,4,2,1,80,0,0
195258,-100,4,2,6,80,0,0
195788,-100,4,2,7,80,0,0
196317,-100,4,2,6,80,0,0
196582,-100,4,2,7,80,0,0
196847,-100,4,2,14,80,0,0
197111,-100,4,2,1,80,0,0
197376,-100,4,2,6,80,0,0
197906,-100,4,2,7,80,0,0
198170,-100,4,2,1,80,0,0
198435,-100,4,2,5,80,0,0
198700,-100,4,2,8,80,0,0
198964,-100,4,2,13,80,0,0
199229,-100,4,2,1,80,0,0
199494,-100,4,2,6,80,0,0
200023,-100,4,2,7,80,0,0
200553,-100,4,2,6,80,0,0
200817,-100,4,2,7,80,0,0
201082,-100,4,2,14,80,0,0
201479,-100,4,2,1,80,0,0
201611,-100,4,2,6,80,0,0
202141,-100,4,2,7,80,0,0
202406,-100,4,2,1,80,0,0
202670,-100,4,2,5,80,0,0
202935,-100,4,2,8,80,0,0
203200,-100,4,2,15,80,0,0
203464,-100,4,2,1,80,0,0
203729,-100,4,2,6,80,0,0
204259,-100,4,2,7,80,0,0
204788,-100,4,2,6,80,0,0
205053,-100,4,2,7,80,0,0
205317,-100,4,2,14,80,0,0
205715,-100,4,2,1,80,0,0
205847,-100,4,2,6,80,0,0
206376,-100,4,2,7,80,0,0
206641,-100,4,2,1,80,0,0
206906,-100,4,2,5,80,0,0
207170,-100,4,2,8,80,0,0
207435,-100,4,2,1,55,0,0
224377,-100,4,2,16,60,0,0
224774,-100,4,2,1,60,0,0
224906,-100,4,2,2,60,0,0
225171,-100,4,2,1,60,0,0
225436,-100,4,2,16,60,0,0
225700,-100,4,2,1,60,0,0
225965,-100,4,2,2,60,0,0
226230,-100,4,2,1,60,0,0
226495,-100,4,2,16,60,0,0
226892,-100,4,2,1,60,0,0
227024,-100,4,2,11,60,0,0
227289,-100,4,2,1,60,0,0
227553,-100,4,2,16,60,0,0
227620,-100,4,2,1,60,0,0
228083,-100,4,2,2,60,0,0
228612,-100,4,2,16,60,0,0
229009,-100,4,2,1,60,0,0
229142,-100,4,2,2,60,0,0
229406,-100,4,2,1,60,0,0
229671,-100,4,2,16,60,0,0
229936,-100,4,2,1,60,0,0
230201,-100,4,2,2,60,0,0
230465,-100,4,2,1,60,0,0
230730,-100,4,2,16,60,0,0
231127,-100,4,2,1,60,0,0
231259,-100,4,2,2,60,0,0
231524,-100,4,2,1,60,0,0
231789,-100,4,2,16,60,0,0
232054,-100,4,2,1,60,0,0
232318,-100,4,2,2,60,0,0
232583,-100,4,2,1,60,0,0
232848,-100,4,2,16,60,0,0
233245,-100,4,2,1,60,0,0
233377,-100,4,2,2,60,0,0
233642,-100,4,2,1,60,0,0
233907,-100,4,2,16,60,0,0
234171,-100,4,2,1,60,0,0
234436,-100,4,2,2,60,0,0
234701,-100,4,2,1,60,0,0
234965,-100,4,2,16,60,0,0
235362,-100,4,2,1,60,0,0
235495,-100,4,2,2,60,0,0
235760,-100,4,2,1,60,0,0
236024,-100,4,2,16,60,0,0
236289,-100,4,2,1,60,0,0
236554,-100,4,2,2,60,0,0
236818,-100,4,2,1,60,0,0
237083,-100,4,2,16,60,0,0
237480,-100,4,2,1,60,0,0
237613,-100,4,2,2,60,0,0
237877,-100,4,2,1,60,0,0
238142,-100,4,2,16,60,0,0
238407,-100,4,2,1,60,0,0
238671,-100,4,2,2,60,0,0
238936,-100,4,2,1,60,0,0
239201,-100,4,2,16,60,0,0
239598,-100,4,2,1,60,0,0
239730,-100,4,2,2,60,0,0
239995,-100,4,2,1,60,0,0
240260,-100,4,2,16,60,0,0
240524,-100,4,2,1,60,0,0
240789,-100,4,2,2,60,0,0
241054,-100,4,2,1,60,0,0
241319,-100,4,2,16,60,0,0

[Colours]
Combo1 : 240,108,21
Combo2 : 166,166,166
Combo3 : 255,149,70
Combo4 : 117,117,117

[HitObjects]
217,141,2019,6,0,P|234:198|250:256,3,120,10|10|10|10,2:1|2:1|2:1|2:1,0:0:0:0:
181,339,4136,2,0,P|129:343|125:266,1,120,10|10,2:1|2:2,0:0:0:0:
148,186,5194,1,8,2:1:0:0:
244,234,5724,1,8,2:2:0:0:
301,325,6253,2,0,P|353:329|393:281,1,120,10|10,2:1|2:2,0:0:0:0:
477,212,7312,2,0,P|480:159|433:120,1,120,8|10,2:1|2:2,0:0:0:0:
395,87,8106,1,2,2:2:0:0:
395,87,8371,6,0,P|340:105|257:129,1,120,10|10,2:1|2:2,0:0:0:0:
176,152,9430,1,8,2:1:0:0:
82,98,9959,1,8,2:2:0:0:
142,8,10489,2,0,P|173:18|209:27,2,60,10|2|10,2:1|2:2|2:2,0:0:0:0:
76,93,11547,2,0,P|45:103|9:112,2,60,10|2|10,2:1|2:2|2:2,0:0:0:0:
170,145,12606,6,0,P|221:179|199:261,1,120,10|10,2:1|2:2,0:0:0:0:
205,339,13665,1,8,2:1:0:0:
101,370,14195,1,8,2:2:0:0:
6,316,14724,2,0,P|9:254|91:232,1,120,10|10,2:1|2:2,0:0:0:0:
99,127,15783,2,0,P|159:150|235:174,1,120,8|8,2:1|2:2,0:0:0:0:
268,157,16577,1,2,2:2:0:0:
268,157,16842,6,0,P|325:119|317:61,2,120,10|10|8,2:1|2:2|2:1,0:0:0:0:
162,181,18430,1,8,2:2:0:0:
176,287,18959,2,0,P|241:304|310:336,1,120,10|10,2:1|2:2,0:0:0:0:
384,375,20018,1,8,2:1:0:0:
463,173,21077,5,10,2:1:0:0:
361,208,21607,2,0,P|341:239|344:278,2,60,10|2|10,2:2|2:2|2:1,0:0:0:0:
445,141,22665,1,10,2:2:0:0:
374,59,23195,1,10,2:1:0:0:
266,59,23724,2,0,B|173:85|101:142|155:261|217:258|270:246|296:185|255:149,1,360,10|10,2:2|2:1,0:0:0:0:
135,73,26107,5,2,2:2:0:0:
135,73,26371,1,10,2:1:0:0:
43,131,26901,1,10,2:2:0:0:
43,238,27430,2,0,P|106:218|169:205,1,120,10|10,2:1|2:2,0:0:0:0:
240,136,28489,2,0,P|303:116|366:103,1,120,8|10,2:1|2:2,0:0:0:0:
453,55,29548,5,10,2:1:0:0:
453,55,29813,1,2,2:2:0:0:
512,151,30342,1,2,2:2:0:0:
512,151,30607,2,0,P|498:222|430:230,1,120,10|10,2:1|2:2,0:0:0:0:
359,195,31666,1,10,2:1:0:0:
252,176,32195,1,10,2:2:0:0:
149,210,32725,2,0,P|104:274|213:264,1,240,10|10,2:1|2:1,0:0:0:0:
288,132,34578,5,2,2:2:0:0:
288,132,34842,2,0,P|272:77|242:8,1,120,10|10,2:1|2:2,0:0:0:0:
145,54,35901,2,0,P|168:109|185:166,1,120,8|10,2:1|2:2,0:0:0:0:
212,271,36960,1,8,2:1:0:0:
410,355,38019,6,0,P|467:325|466:268,1,120,10|10,2:1|2:2,0:0:0:0:
450,230,38813,1,2,2:2:0:0:
450,230,39078,1,10,2:1:0:0:
360,168,39607,1,10,2:2:0:0:
253,152,40137,2,0,P|200:120|210:65,1,120,10|10,2:1|2:2,0:0:0:0:
241,28,40931,1,2,2:2:0:0:
241,28,41195,1,10,2:1:0:0:
348,21,41725,1,10,2:2:0:0:
429,92,42254,5,10,2:1:0:0:
383,190,42784,2,0,P|331:171|263:153,2,120,10|10|10,2:2|2:1|2:2,0:0:0:0:
452,272,44372,1,10,2:1:0:0:
345,288,44901,2,0,P|293:269|225:251,2,120,10|10|10,2:2|2:1|2:2,0:0:0:0:
292,382,46490,6,0,P|242:363|172:346,1,120,10|10,2:1|2:2,0:0:0:0:
127,355,47284,1,2,2:2:0:0:
127,355,47549,1,10,2:1:0:0:
28,310,48078,1,10,2:2:0:0:
46,203,48607,2,0,P|122:186|149:150,1,120,10|10,2:1|2:2,0:0:0:0:
251,128,49666,2,0,P|274:53|256:12,1,120,10|10,2:1|2:2,0:0:0:0:
212,5,50460,1,2,2:2:0:0:
212,5,50725,5,10,2:1:0:0:
110,42,51255,2,0,P|133:105|154:178,1,120,10|10,2:2|2:1,0:0:0:0:
166,262,52313,1,10,2:2:0:0:
266,303,52843,1,10,2:1:0:0:
363,256,53372,2,0,P|387:242|428:234,2,60,10|2|10,2:2|2:2|2:1,0:0:0:0:
265,302,54431,1,10,2:2:0:0:
166,262,54961,6,0,P|167:236|185:206,1,60,10|2,2:1|2:2,0:0:0:0:
188,153,55490,2,0,P|211:140|245:141,1,60,10|10,2:2|2:3,0:0:0:0:
298,142,56019,1,10,2:1:0:0:
400,174,56549,1,10,2:2:0:0:
438,170,56814,1,2,2:3:0:0:
459,139,57078,1,10,2:1:0:0:
452,31,57608,5,10,2:2:0:0:
344,45,58137,1,10,2:1:0:0:
238,69,58667,1,10,2:2:0:0:
136,106,59196,6,0,P|108:130|101:176,1,60,10|2,2:1|2:2,0:0:0:0:
60,187,59725,2,0,P|67:227|92:246,1,60,10|10,2:2|2:3,0:0:0:0:
96,291,60255,2,0,P|153:264|226:244,1,120,10|10,2:1|2:2,0:0:0:0:
265,247,61049,1,2,2:3:0:0:
265,247,61314,1,10,2:1:0:0:
370,270,61843,2,0,P|423:302|421:374,2,120,10|10|10,2:2|2:1|2:2,0:0:0:0:
293,194,63431,5,10,2:1:0:0:
259,170,63696,1,2,2:2:0:0:
263,129,63961,1,10,2:2:0:0:
370,118,64490,1,10,2:1:0:0:
472,81,65020,1,10,2:2:0:0:
506,57,65284,1,2,2:3:0:0:
502,16,65549,1,10,2:1:0:0:
395,22,66078,5,10,2:2:0:0:
331,109,66608,1,10,2:1:0:0:
373,207,67137,1,10,2:2:0:0:
480,217,67667,6,0,P|497:193|496:160,1,60,10|2,2:1|2:2,0:0:0:0:
469,116,68196,2,0,P|435:118|405:139,1,60,10|10,2:2|2:3,0:0:0:0:
367,159,68726,2,0,P|394:225|414:289,1,120,10|10,2:1|2:2,0:0:0:0:
426,327,69520,1,2,2:3:0:0:
426,327,69784,1,10,2:1:0:0:
320,304,70314,2,0,P|301:247|277:191,2,120,10|10|10,2:2|2:1|2:2,0:0:0:0:
251,384,71902,5,2,2:2:0:0:
12,359,76138,6,0,P|36:286|92:264,1,120,10|10,2:1|2:2,0:0:0:0:
174,237,77196,1,10,2:1:0:0:
240,151,77726,1,10,2:2:0:0:
183,58,78255,2,0,P|117:70|133:146,1,120,10|10,2:1|2:2,0:0:0:0:
53,207,79314,2,0,P|104:275|104:319,1,120,8|10,2:1|2:2,0:0:0:0:
184,381,80373,6,0,P|214:263|301:169,1,240,10|10,2:1|2:1,0:0:0:0:
391,136,81961,1,10,2:2:0:0:
475,203,82491,2,0,P|450:257|366:243,1,120,10|10,2:1|2:2,0:0:0:0:
307,201,83550,1,8,2:1:0:0:
391,136,84079,1,8,2:2:0:0:
475,203,84608,6,0,P|450:257|366:243,1,120,10|10,2:1|2:2,0:0:0:0:
307,201,85667,1,8,2:1:0:0:
391,136,86197,1,8,2:2:0:0:
475,203,86726,2,0,P|450:257|366:243,1,120,10|10,2:1|2:2,0:0:0:0:
267,173,88050,1,2,2:2:0:0:
267,173,88314,2,0,P|256:142|244:109,1,60,2|2,2:2|2:2,0:0:0:0:
221,68,88844,5,10,2:1:0:0:
118,33,89373,1,10,2:2:0:0:
17,71,89903,2,0,P|28:149|80:172,1,120,10|10,2:1|2:2,0:0:0:0:
123,254,90962,1,10,2:1:0:0:
213,195,91491,1,10,2:2:0:0:
318,218,92020,2,0,P|387:191|385:138,1,120,10|10,2:1|2:2,0:0:0:0:
360,112,92815,1,2,2:2:0:0:
360,112,93079,5,10,2:1:0:0:
257,79,93609,1,10,2:2:0:0:
166,137,94138,2,0,P|186:197|203:259,1,120,10|10,2:1|2:2,0:0:0:0:
214,363,95197,1,10,2:1:0:0:
214,363,95462,1,2,2:2:0:0:
112,344,95991,1,2,2:2:0:0:
112,344,96256,1,10,2:1:0:0:
6,321,96785,1,10,2:2:0:0:
87,250,97315,6,0,P|149:239|194:186,1,120,10|10,2:1|2:2,0:0:0:0:
294,213,98374,2,0,P|361:212|416:246,1,120,10|10,2:1|2:2,0:0:0:0:
449,278,99168,1,2,2:2:0:0:
449,278,99432,1,10,2:1:0:0:
385,365,99962,1,10,2:2:0:0:
277,375,100491,2,0,P|233:353|239:281,1,120,10|10,2:1|2:2,0:0:0:0:
278,258,101285,1,2,2:2:0:0:
278,258,101550,5,10,2:1:0:0:
433,211,102344,2,0,P|448:184|447:152,1,60,2|10,2:2|2:1,0:0:0:0:
421,115,102874,1,2,0:0:0:0:
421,115,103138,1,10,0:0:0:0:
262,116,103933,5,2,2:2:0:0:
262,116,104197,2,0,P|231:106|198:91,2,60,10|2|10,2:2|2:2|2:1,0:0:0:0:
369,127,105256,1,10,2:2:0:0:
428,37,105786,5,10,2:1:0:0:
390,16,106050,1,2,2:2:0:0:
349,28,106315,1,10,2:2:0:0:
261,91,106844,2,0,P|282:155|293:210,1,120,10|10,2:1|2:2,0:0:0:0:
291,264,107639,1,2,2:3:0:0:
291,264,107903,1,10,2:1:0:0:
205,329,108433,5,10,2:2:0:0:
108,280,108962,1,10,2:1:0:0:
114,172,109492,1,10,2:2:0:0:
191,96,110021,6,0,P|211:71|210:33,1,60,10|2,2:1|2:2,0:0:0:0:
175,6,110550,2,0,P|145:16|112:26,1,60,10|10,2:2|2:3,0:0:0:0:
64,35,111080,1,10,2:1:0:0:
70,142,111609,1,10,2:2:0:0:
104,166,111874,1,2,2:3:0:0:
111,207,112139,1,10,2:1:0:0:
76,309,112668,5,10,2:2:0:0:
173,262,113198,1,10,2:1:0:0:
278,284,113727,1,10,2:2:0:0:
361,352,114256,6,0,P|386:378|427:382,1,60,10|2,2:1|2:2,0:0:0:0:
451,350,114786,2,0,P|477:325|481:284,1,60,10|10,2:2|2:3,0:0:0:0:
456,255,115315,1,10,2:1:0:0:
371,188,115845,1,10,2:2:0:0:
337,215,116109,1,2,2:3:0:0:
295,215,116374,1,10,2:1:0:0:
226,131,116904,2,0,P|272:53|306:63,2,120,10|10|10,2:2|2:1|2:2,0:0:0:0:
295,215,118492,5,10,2:1:0:0:
329,242,118757,1,2,2:2:0:0:
331,285,119021,1,10,2:2:0:0:
271,375,119551,1,10,2:1:0:0:
165,352,120080,1,10,2:2:0:0:
131,325,120345,1,2,2:3:0:0:
129,282,120610,1,10,2:1:0:0:
195,196,121139,5,10,2:2:0:0:
204,88,121668,1,10,2:1:0:0:
107,39,122198,1,10,2:2:0:0:
17,99,122727,1,10,2:1:0:0:
12,218,131198,5,10,2:1:0:0:
93,147,131727,1,10,2:2:0:0:
199,127,132257,2,0,P|255:175|244:230,1,120,10|10,2:1|2:2,0:0:0:0:
190,304,133316,1,10,2:1:0:0:
290,343,133845,2,0,P|346:347|398:387,2,120,10|10|10,2:2|2:1|2:2,0:0:0:0:
190,304,135433,5,10,2:1:0:0:
122,219,135963,1,10,2:2:0:0:
193,146,136492,2,0,P|256:166|330:184,1,120,10|10,2:1|2:2,0:0:0:0:
371,275,137609,5,2,2:2:0:0:
233,0,139140,5,2,2:2:0:0:
142,58,139670,5,10,2:1:0:0:
150,103,139934,1,2,2:2:0:0:
158,148,140199,1,10,2:2:0:0:
256,192,140728,1,10,2:1:0:0:
354,236,141258,1,10,2:2:0:0:
362,281,141522,1,2,2:3:0:0:
370,326,141787,1,10,2:1:0:0:
269,365,142317,6,0,L|146:324,1,120,10|10,2:2|2:1,0:0:0:0:
111,316,143111,1,2,2:2:0:0:
80,283,143375,1,10,2:2:0:0:
81,237,143640,2,0,B|100:157|202:114|267:252|186:198|290:274|449:153|318:189|422:111|366:23|269:21|227:86,1,540,2|10,2:3|2:1,0:0:0:0:
155,155,146552,1,10,2:2:0:0:
165,266,147081,1,10,2:1:0:0:
165,266,147346,2,0,P|151:297|146:332,2,60,2|10|2,2:2|2:2|2:3,0:0:0:0:
218,272,148140,6,0,P|275:278|326:339,1,120,10|10,2:1|2:2,0:0:0:0:
421,354,149199,1,10,2:1:0:0:
501,282,149729,1,10,2:2:0:0:
483,239,149993,1,2,2:3:0:0:
502,197,150258,1,10,2:1:0:0:
456,99,150787,5,10,2:2:0:0:
355,138,151317,1,10,2:1:0:0:
265,77,151846,1,10,2:2:0:0:
346,5,152376,6,0,P|376:32|379:69,1,60,10|2,2:1|2:2,0:0:0:0:
409,95,152905,2,0,P|400:134|371:160,1,60,10|10,2:2|2:3,0:0:0:0:
296,202,153699,1,2,2:2:0:0:
296,202,153964,2,0,P|266:189|216:174,1,60,10|2,2:2|2:3,0:0:0:0:
197,146,154493,6,0,P|123:160|113:232,2,120,10|10|10,2:1|2:2|2:1,0:0:0:0:
291,198,156082,1,10,2:2:0:0:
398,200,156611,1,10,2:1:0:0:
350,71,165082,6,0,P|462:61|416:150,1,240,10|8,2:1|2:1,0:0:0:0:
367,227,166670,1,10,2:2:0:0:
267,184,167200,2,0,P|209:144|143:149,1,120,10|10,2:1|2:2,0:0:0:0:
59,106,168259,2,0,P|24:121|4:162,2,60,8|2|10,2:1|2:2|2:2,0:0:0:0:
166,113,169317,5,10,2:1:0:0:
238,193,169847,1,10,2:2:0:0:
203,295,170376,2,0,P|170:307|138:335,2,60,8|2|10,2:1|2:2|2:2,0:0:0:0:
301,339,171435,2,0,P|334:351|366:379,2,60,10|2|10,2:1|2:2|2:2,0:0:0:0:
293,231,172494,1,10,2:1:0:0:
308,188,172759,1,2,2:2:0:0:
352,171,173023,1,10,2:2:0:0:
457,148,173553,6,0,P|510:110|398:53,1,240,10|10,2:1|2:1,0:0:0:0:
318,97,175141,1,8,2:1:0:0:
215,61,175671,2,0,P|108:71|159:170,1,240,10|10,2:1|2:1,0:0:0:0:
249,176,177259,1,8,2:1:0:0:
336,238,177788,2,0,P|357:293|202:306,1,240,10|10,2:1|2:1,0:0:0:0:
178,253,179377,1,8,2:1:0:0:
83,200,179906,2,0,P|18:216|7:278,1,120,10|10,2:1|2:1,0:0:0:0:
19,368,180965,2,0,P|78:348|144:327,1,120,10|8,2:1|2:1,0:0:0:0:
236,298,182024,5,10,2:1:0:0:
328,353,182553,1,10,2:1:0:0:
421,299,183083,2,0,P|433:266|455:236,2,60,10|2|8,2:1|2:2|2:1,0:0:0:0:
324,251,184141,2,0,P|275:223|275:148,1,120,10|10,2:1|2:1,0:0:0:0:
238,59,185200,2,0,P|265:37|304:32,1,60,10|2,2:1|2:2,0:0:0:0:
342,36,185730,1,8,2:1:0:0:
435,89,186259,6,0,P|421:142|412:216,1,120,10|10,2:1|2:1,0:0:0:0:
318,259,187318,2,0,P|289:246|255:236,2,60,10|2|8,2:1|2:2|2:1,0:0:0:0:
384,340,188377,2,0,P|430:323|487:308,2,90,10|2|2,2:1|2:2|2:2,0:0:0:0:
337,366,189436,1,10,2:1:0:0:
138,282,190495,6,0,P|139:248|172:208,1,60,10|2,2:1|2:2,0:0:0:0:
163,176,191024,1,10,2:2:0:0:
163,176,191289,2,0,P|192:159|244:168,1,60,10|10,2:3|2:1,0:0:0:0:
322,131,192083,1,10,2:2:0:0:
347,103,192348,1,2,2:3:0:0:
340,68,192612,1,10,2:1:0:0:
244,17,193142,2,0,P|167:33|185:104,2,120,10|10|10,2:2|2:1|2:2,0:0:0:0:
340,68,194730,6,0,P|328:97|316:135,1,60,10|2,2:1|2:2,0:0:0:0:
282,163,195259,1,10,2:2:0:0:
282,163,195524,2,0,P|273:200|273:251,1,60,10|10,2:3|2:1,0:0:0:0:
305,324,196318,1,10,2:2:0:0:
336,343,196583,1,2,2:3:0:0:
373,340,196848,1,10,2:1:0:0:
445,260,197377,1,10,2:2:0:0:
416,155,197907,2,0,P|395:134|365:125,2,60,10|2|10,2:1|2:2|2:2,0:0:0:0:
329,219,198965,6,0,P|304:239|266:244,1,60,10|2,2:1|2:2,0:0:0:0:
233,274,199495,1,10,2:2:0:0:
233,274,199760,2,0,P|201:270|170:247,1,60,10|10,2:3|2:1,0:0:0:0:
105,183,200554,1,10,2:2:0:0:
105,183,200818,2,0,P|117:152|130:116,1,60,2|10,2:3|2:1,0:0:0:0:
135,19,201612,5,10,2:2:0:0:
27,13,202142,1,10,2:1:0:0:
0,117,202671,1,10,2:2:0:0:
60,206,203201,6,0,P|96:192|145:180,1,60,10|2,2:1|2:2,0:0:0:0:
152,146,203730,1,10,2:2:0:0:
152,146,203995,2,0,P|190:148|242:168,1,60,10|10,2:3|2:1,0:0:0:0:
321,135,204789,1,10,2:2:0:0:
321,135,205054,2,0,P|355:154|383:199,1,60,2|10,2:3|2:1,0:0:0:0:
414,267,205848,5,10,2:2:0:0:
388,298,206113,1,10,2:3:0:0:
398,337,206377,2,0,P|447:313|516:292,2,120,10|10|10,2:1|2:2|2:1,0:0:0:0:
