osu file format v14

[General]
AudioFilename: audio.mp3
AudioLeadIn: 0
PreviewTime: 559
Countdown: 0
SampleSet: Soft
StackLeniency: 0.4
Mode: 0
LetterboxInBreaks: 0
WidescreenStoryboard: 1

[Editor]
Bookmarks: 21074,38016,54957,71899,88841,105782,122724,139666,156607,173549,190491,207432
DistanceSpacing: 0.4
BeatDivisor: 8
GridSize: 8
TimelineZoom: 1.1

[Metadata]
Title:Gimme More
TitleUnicode:Gimme More
Artist:Britney Spears
ArtistUnicode:Britney Spears
Creator:jas
Version:Sylas' Insane
Source:
Tags:craezy muya- sylas thekoala blackout black out electronic electro synth dance english pop EDM music synthpop electropop dancepop
BeatmapID:4123724
BeatmapSetID:1957147

[Difficulty]
HPDrainRate:4.5
CircleSize:4
OverallDifficulty:7.5
ApproachRate:8.4
SliderMultiplier:1.9
SliderTickRate:1

[Events]
//Background and Video events
0,0,"gimmemore.jpg",0,0
//Break Periods
2,72102,74918
//Storyboard Layer 0 (Background)
//Storyboard Layer 1 (Fail)
//Storyboard Layer 2 (Pass)
//Storyboard Layer 3 (Foreground)
//Storyboard Layer 4 (Overlay)
//Storyboard Sound Samples

[TimingPoints]
2019,529.427336098121,4,2,1,50,1,0
2019,-90.9090909090909,4,2,1,50,0,0
2878,-90.9090909090909,4,2,1,50,0,0
2944,-90.9090909090909,4,2,1,50,0,0
3937,-90.9090909090909,4,2,1,50,0,0
4003,-90.9090909090909,4,2,1,50,0,0
4136,529.427336098121,4,2,1,60,1,0
4136,-90.9090909090909,4,2,1,60,0,0
15915,-125,4,2,1,60,0,0
16841,-90.9090909090909,4,2,1,60,0,0
20283,-200,4,2,1,60,0,0
21011,-200,4,2,1,60,0,0
21077,-90.9090909090909,4,2,2,70,0,0
21342,-90.9090909090909,4,2,1,70,0,0
21871,-90.9090909090909,4,2,2,70,0,0
22136,-90.9090909090909,4,2,1,70,0,0
22400,-90.9090909090909,4,2,2,70,0,0
22665,-90.9090909090909,4,2,1,70,0,0
22930,-90.9090909090909,4,2,2,70,0,0
23195,-76.9230769230769,4,2,1,70,0,0
23724,-100,4,2,1,70,0,0
23989,-100,4,2,2,70,0,0
25312,-90.9090909090909,4,2,1,70,0,0
26106,-90.9090909090909,4,2,2,70,0,0
26371,-83.3333333333333,4,2,1,70,0,0
26636,-76.9230769230769,4,2,2,70,0,0
26901,-71.4285714285714,4,2,1,70,0,0
27165,-71.4285714285714,4,2,2,70,0,0
27430,-71.4285714285714,4,2,1,70,0,0
27959,-83.3333333333333,4,2,1,70,0,0
28224,-83.3333333333333,4,2,2,70,0,0
28754,-83.3333333333333,4,2,1,70,0,0
29283,-83.3333333333333,4,2,2,70,0,0
29548,-83.3333333333333,4,2,3,70,0,0
29812,-66.6666666666667,4,2,2,70,0,0
30011,-66.6666666666667,4,2,2,70,0,0
30077,-83.3333333333333,4,2,1,70,0,0
30342,-66.6666666666667,4,2,2,70,0,0
30540,-66.6666666666667,4,2,2,70,0,0
30607,-83.3333333333333,4,2,1,70,0,0
30871,-83.3333333333333,4,2,2,70,0,0
31136,-83.3333333333333,4,2,1,70,0,0
31401,-83.3333333333333,4,2,2,70,0,0
31665,-76.9230769230769,4,2,1,70,0,0
32194,-71.4285714285714,4,2,1,70,0,0
33782,-90.9090909090909,4,2,1,70,0,0
33783,-90.9090909090909,4,2,1,70,0,0
34577,-90.9090909090909,4,2,2,70,0,0
34842,-83.3333333333333,4,2,1,70,0,0
35107,-76.9230769230769,4,2,2,70,0,0
35371,-71.4285714285714,4,2,1,70,0,0
35636,-71.4285714285714,4,2,2,70,0,0
36166,-83.3333333333333,4,2,2,70,0,0
36431,-76.9230769230769,4,2,1,70,0,0
36695,-71.4285714285714,4,2,2,70,0,0
37158,-71.4285714285714,4,2,2,70,0,0
37224,-100,4,2,2,70,0,0
37489,-100,4,2,1,70,0,0
38019,-100,4,2,4,75,0,0
38283,-83.3333333333333,4,2,3,75,0,0
38548,-71.4285714285714,4,2,1,75,0,0
38813,-66.6666666666667,4,2,3,75,0,0
39077,-66.6666666666667,4,2,5,75,0,0
39342,-83.3333333333333,4,2,3,75,0,0
39607,-71.4285714285714,4,2,1,75,0,0
39872,-66.6666666666667,4,2,3,75,0,0
40136,-66.6666666666667,4,2,5,75,0,0
40401,-83.3333333333333,4,2,3,75,0,0
40666,-71.4285714285714,4,2,1,75,0,0
40930,-66.6666666666667,4,2,3,75,0,0
41195,-66.6666666666667,4,2,5,75,0,0
41460,-100,4,2,3,75,0,0
41724,-83.3333333333333,4,2,1,75,0,0
41989,-71.4285714285714,4,2,3,75,0,0
42254,-62.5,4,2,6,75,0,0
42519,-55.5555555555556,4,2,3,75,0,0
42783,-55.5555555555556,4,2,1,75,0,0
43048,-55.5555555555556,4,2,3,75,0,0
43313,-55.5555555555556,4,2,7,75,0,0
43578,-100,4,2,3,75,0,0
43842,-83.3333333333333,4,2,1,75,0,0
44107,-71.4285714285714,4,2,3,75,0,0
44372,-62.5,4,2,7,75,0,0
44636,-55.5555555555556,4,2,3,75,0,0
44901,-55.5555555555556,4,2,1,75,0,0
45166,-55.5555555555556,4,2,3,75,0,0
45431,-55.5555555555556,4,2,7,75,0,0
45695,-100,4,2,3,75,0,0
45960,-100,4,2,4,75,0,0
46225,-100,4,2,2,75,0,0
46489,-100,4,2,4,75,0,0
46753,-83.3333333333333,4,2,3,75,0,0
47018,-71.4285714285714,4,2,1,75,0,0
47283,-66.6666666666667,4,2,3,75,0,0
47548,-66.6666666666667,4,2,5,75,0,0
47812,-83.3333333333333,4,2,3,75,0,0
48077,-71.4285714285714,4,2,1,75,0,0
48342,-66.6666666666667,4,2,3,75,0,0
48607,-66.6666666666667,4,2,5,75,0,0
48871,-83.3333333333333,4,2,3,75,0,0
49136,-71.4285714285714,4,2,1,75,0,0
49401,-66.6666666666667,4,2,3,75,0,0
49666,-66.6666666666667,4,2,5,75,0,0
49930,-100,4,2,3,75,0,0
50194,-83.3333333333333,4,2,1,75,0,0
50459,-71.4285714285714,4,2,3,75,0,0
50724,-62.5,4,2,6,75,0,0
50989,-55.5555555555556,4,2,3,75,0,0
51254,-55.5555555555556,4,2,1,75,0,0
51519,-55.5555555555556,4,2,3,75,0,0
51784,-55.5555555555556,4,2,7,75,0,0
52048,-83.3333333333333,4,2,3,75,0,0
52313,-71.4285714285714,4,2,1,75,0,0
52578,-62.5,4,2,3,75,0,0
52843,-62.5,4,2,5,75,0,0
53107,-62.5,4,2,3,75,0,0
53372,-62.5,4,2,1,75,0,0
53637,-62.5,4,2,3,75,0,0
53901,-62.5,4,2,7,75,0,0
54166,-62.5,4,2,3,75,0,0
54431,-62.5,4,2,5,75,0,0
54696,-62.5,4,2,3,75,0,0
54960,-62.5,4,2,8,90,0,0
55225,-62.5,4,2,3,90,0,0
55490,-62.5,4,2,6,90,0,0
55754,-62.5,4,2,3,90,0,0
56019,-62.5,4,2,9,90,0,0
56284,-62.5,4,2,2,90,0,0
56549,-62.5,4,2,6,90,0,0
56813,-62.5,4,2,4,90,0,0
57078,-250,4,2,10,90,0,0
57343,-250,4,2,2,90,0,0
57607,-62.5,4,2,6,90,0,0
57872,-62.5,4,2,3,90,0,0
58137,-62.5,4,2,7,90,0,0
58402,-62.5,4,2,3,90,0,0
58666,-55.5555555555556,4,2,7,90,0,0
58931,-55.5555555555556,4,2,5,90,0,0
59196,-62.5,4,2,4,90,0,0
59394,-62.5,4,2,4,90,0,0
59460,-62.5,4,2,3,90,0,0
59725,-62.5,4,2,6,90,0,0
59924,-62.5,4,2,6,90,0,0
59990,-62.5,4,2,3,90,0,0
60255,-250,4,2,9,90,0,0
60519,-250,4,2,2,90,0,0
60784,-62.5,4,2,6,90,0,0
60982,-62.5,4,2,6,90,0,0
61048,-62.5,4,2,4,90,0,0
61313,-62.5,4,2,6,90,0,0
61578,-62.5,4,2,2,90,0,0
61843,-62.5,4,2,6,90,0,0
62041,-62.5,4,2,6,90,0,0
62107,-62.5,4,2,3,90,0,0
62372,-62.5,4,2,7,90,0,0
62571,-62.5,4,2,7,90,0,0
62637,-62.5,4,2,3,90,0,0
62902,-250,4,2,8,90,0,0
63166,-250,4,2,5,90,0,0
63430,-62.5,4,2,4,90,0,0
63696,-62.5,4,2,3,90,0,0
63960,-62.5,4,2,6,90,0,0
64225,-62.5,4,2,3,90,0,0
64490,-62.5,4,2,11,90,0,0
64755,-62.5,4,2,2,90,0,0
65019,-62.5,4,2,6,90,0,0
65284,-62.5,4,2,4,90,0,0
65548,-250,4,2,10,90,0,0
65813,-250,4,2,2,90,0,0
66077,-62.5,4,2,6,90,0,0
66343,-62.5,4,2,3,90,0,0
66608,-62.5,4,2,7,90,0,0
66872,-62.5,4,2,3,90,0,0
67136,-55.5555555555556,4,2,7,90,0,0
67402,-55.5555555555556,4,2,5,90,0,0
67666,-62.5,4,2,4,90,0,0
67865,-62.5,4,2,4,90,0,0
67931,-62.5,4,2,3,90,0,0
68196,-62.5,4,2,6,90,0,0
68394,-62.5,4,2,6,90,0,0
68460,-62.5,4,2,3,90,0,0
68725,-250,4,2,9,90,0,0
68990,-250,4,2,2,90,0,0
69254,-62.5,4,2,6,90,0,0
69453,-62.5,4,2,6,90,0,0
69519,-62.5,4,2,4,90,0,0
69784,-62.5,4,2,6,90,0,0
70049,-62.5,4,2,2,90,0,0
70314,-62.5,4,2,6,90,0,0
70512,-62.5,4,2,6,90,0,0
70578,-62.5,4,2,3,90,0,0
70843,-62.5,4,2,7,90,0,0
71042,-62.5,4,2,7,90,0,0
71108,-62.5,4,2,3,90,0,0
71372,-250,4,2,8,90,0,0
71637,-250,4,2,5,90,0,0
71901,-62.5,4,2,1,50,0,0
76137,-83.3333333333333,4,2,2,70,0,0
76402,-83.3333333333333,4,2,1,70,0,0
76931,-83.3333333333333,4,2,2,70,0,0
77196,-83.3333333333333,4,2,1,70,0,0
77461,-83.3333333333333,4,2,2,70,0,0
77726,-83.3333333333333,4,2,1,70,0,0
77990,-83.3333333333333,4,2,2,70,0,0
78255,-83.3333333333333,4,2,1,70,0,0
79049,-83.3333333333333,4,2,2,70,0,0
79579,-83.3333333333333,4,2,1,70,0,0
80108,-83.3333333333333,4,2,2,70,0,0
80307,-83.3333333333333,4,2,2,70,0,0
80373,-83.3333333333333,4,2,12,70,0,0
80637,-83.3333333333333,4,2,1,70,0,0
81167,-83.3333333333333,4,2,2,70,0,0
81432,-83.3333333333333,4,2,1,70,0,0
81696,-83.3333333333333,4,2,2,70,0,0
81961,-83.3333333333333,4,2,1,70,0,0
82226,-83.3333333333333,4,2,2,70,0,0
82490,-83.3333333333333,4,2,1,70,0,0
82755,-83.3333333333333,4,2,2,70,0,0
83020,-83.3333333333333,4,2,1,70,0,0
83285,-71.4285714285714,4,2,2,70,0,0
83549,-83.3333333333333,4,2,2,70,0,0
84608,-83.3333333333333,4,2,1,70,0,0
84873,-83.3333333333333,4,2,2,70,0,0
85138,-83.3333333333333,4,2,1,70,0,0
85402,-71.4285714285714,4,2,2,70,0,0
85932,-83.3333333333333,4,2,2,70,0,0
86726,-83.3333333333333,4,2,1,70,0,0
86991,-83.3333333333333,4,2,2,70,0,0
87255,-83.3333333333333,4,2,1,70,0,0
87520,-125,4,2,2,70,0,0
88314,-125,4,2,1,70,0,0
88579,-125,4,2,2,70,0,0
88844,-100,4,2,4,75,0,0
89108,-83.3333333333333,4,2,3,75,0,0
89373,-71.4285714285714,4,2,1,75,0,0
89638,-66.6666666666667,4,2,3,75,0,0
89902,-66.6666666666667,4,2,5,75,0,0
90167,-83.3333333333333,4,2,3,75,0,0
90432,-71.4285714285714,4,2,1,75,0,0
90697,-66.6666666666667,4,2,3,75,0,0
90961,-66.6666666666667,4,2,5,75,0,0
91226,-83.3333333333333,4,2,3,75,0,0
91491,-71.4285714285714,4,2,1,75,0,0
91755,-66.6666666666667,4,2,3,75,0,0
92020,-66.6666666666667,4,2,5,75,0,0
92285,-100,4,2,3,75,0,0
92549,-83.3333333333333,4,2,1,75,0,0
92814,-71.4285714285714,4,2,3,75,0,0
93079,-62.5,4,2,6,75,0,0
93344,-55.5555555555556,4,2,3,75,0,0
93608,-55.5555555555556,4,2,1,75,0,0
93873,-55.5555555555556,4,2,3,75,0,0
94138,-55.5555555555556,4,2,7,75,0,0
94403,-100,4,2,3,75,0,0
94667,-83.3333333333333,4,2,1,75,0,0
94932,-71.4285714285714,4,2,3,75,0,0
95197,-62.5,4,2,7,75,0,0
95461,-55.5555555555556,4,2,3,75,0,0
95726,-55.5555555555556,4,2,1,75,0,0
95991,-62.5,4,2,3,75,0,0
96256,-55.5555555555556,4,2,7,75,0,0
96520,-100,4,2,3,75,0,0
96785,-100,4,2,9,75,0,0
97050,-100,4,2,2,75,0,0
97314,-100,4,2,4,75,0,0
97578,-83.3333333333333,4,2,3,75,0,0
97843,-71.4285714285714,4,2,1,75,0,0
98108,-66.6666666666667,4,2,3,75,0,0
98373,-66.6666666666667,4,2,5,75,0,0
98637,-83.3333333333333,4,2,3,75,0,0
98902,-71.4285714285714,4,2,1,75,0,0
99167,-66.6666666666667,4,2,3,75,0,0
99432,-66.6666666666667,4,2,5,75,0,0
99696,-83.3333333333333,4,2,3,75,0,0
99961,-71.4285714285714,4,2,1,75,0,0
100226,-66.6666666666667,4,2,3,75,0,0
100491,-66.6666666666667,4,2,5,75,0,0
100755,-100,4,2,3,75,0,0
101019,-83.3333333333333,4,2,1,75,0,0
101284,-71.4285714285714,4,2,3,75,0,0
101549,-62.5,4,2,6,75,0,0
101814,-55.5555555555556,4,2,3,75,0,0
102079,-55.5555555555556,4,2,1,75,0,0
102344,-55.5555555555556,4,2,3,75,0,0
102609,-55.5555555555556,4,2,7,75,0,0
102873,-83.3333333333333,4,2,3,75,0,0
103138,-71.4285714285714,4,2,1,75,0,0
103403,-62.5,4,2,3,75,0,0
103668,-62.5,4,2,5,75,0,0
103932,-55.5555555555556,4,2,3,75,0,0
104197,-55.5555555555556,4,2,1,75,0,0
104462,-55.5555555555556,4,2,3,75,0,0
104726,-55.5555555555556,4,2,7,75,0,0
104991,-55.5555555555556,4,2,3,75,0,0
105256,-55.5555555555556,4,2,5,75,0,0
105521,-55.5555555555556,4,2,3,75,0,0
105785,-62.5,4,2,8,90,0,0
106050,-62.5,4,2,3,90,0,0
106315,-62.5,4,2,6,90,0,0
106579,-62.5,4,2,3,90,0,0
106844,-62.5,4,2,9,90,0,0
107109,-62.5,4,2,2,90,0,0
107374,-62.5,4,2,6,90,0,0
107638,-62.5,4,2,4,90,0,0
107903,-250,4,2,10,90,0,0
108168,-250,4,2,2,90,0,0
108432,-62.5,4,2,6,90,0,0
108697,-62.5,4,2,3,90,0,0
108962,-62.5,4,2,7,90,0,0
109227,-62.5,4,2,3,90,0,0
109491,-55.5555555555556,4,2,7,90,0,0
109756,-55.5555555555556,4,2,5,90,0,0
110021,-62.5,4,2,4,90,0,0
110219,-62.5,4,2,4,90,0,0
110285,-62.5,4,2,3,90,0,0
110550,-62.5,4,2,6,90,0,0
110749,-62.5,4,2,6,90,0,0
110815,-62.5,4,2,3,90,0,0
111080,-250,4,2,9,90,0,0
111344,-250,4,2,2,90,0,0
111609,-62.5,4,2,6,90,0,0
111807,-62.5,4,2,6,90,0,0
111873,-62.5,4,2,4,90,0,0
112138,-62.5,4,2,6,90,0,0
112403,-62.5,4,2,2,90,0,0
112668,-62.5,4,2,6,90,0,0
112866,-62.5,4,2,6,90,0,0
112932,-62.5,4,2,3,90,0,0
113197,-62.5,4,2,7,90,0,0
113396,-62.5,4,2,7,90,0,0
113462,-62.5,4,2,3,90,0,0
113727,-250,4,2,8,90,0,0
113991,-250,4,2,5,90,0,0
114255,-62.5,4,2,4,90,0,0
114521,-62.5,4,2,3,90,0,0
114786,-62.5,4,2,6,90,0,0
115050,-62.5,4,2,3,90,0,0
115315,-62.5,4,2,11,90,0,0
115580,-62.5,4,2,2,90,0,0
115844,-62.5,4,2,6,90,0,0
116109,-62.5,4,2,4,90,0,0
116373,-250,4,2,10,90,0,0
116639,-250,4,2,2,90,0,0
116902,-62.5,4,2,6,90,0,0
117168,-62.5,4,2,3,90,0,0
117433,-62.5,4,2,7,90,0,0
117697,-62.5,4,2,3,90,0,0
117961,-55.5555555555556,4,2,7,90,0,0
118227,-55.5555555555556,4,2,5,90,0,0
118491,-62.5,4,2,4,90,0,0
118690,-62.5,4,2,4,90,0,0
118756,-62.5,4,2,3,90,0,0
119021,-62.5,4,2,6,90,0,0
119219,-62.5,4,2,6,90,0,0
119285,-62.5,4,2,3,90,0,0
119550,-250,4,2,9,90,0,0
119815,-250,4,2,2,90,0,0
120079,-62.5,4,2,6,90,0,0
120278,-62.5,4,2,6,90,0,0
120344,-62.5,4,2,4,90,0,0
120609,-62.5,4,2,6,90,0,0
120874,-62.5,4,2,2,90,0,0
121139,-62.5,4,2,6,90,0,0
121337,-62.5,4,2,6,90,0,0
121403,-62.5,4,2,3,90,0,0
121668,-62.5,4,2,7,90,0,0
121867,-62.5,4,2,7,90,0,0
121933,-62.5,4,2,3,90,0,0
122197,-250,4,2,8,90,0,0
122462,-250,4,2,5,90,0,0
122727,-100,4,2,1,60,0,0
130668,-100,4,2,10,60,0,0
131198,-100,4,2,1,60,0,0
136492,558.139534883721,4,2,1,60,1,0
137609,529.427336098121,4,2,1,50,1,0
139140,529.427336098121,4,2,1,60,1,0
139140,-55.5555555555556,4,2,7,80,0,0
139537,-55.5555555555556,4,2,7,80,0,0
139670,529.427336098121,4,2,8,90,1,0
139670,-62.5,4,2,8,90,0,0
139933,-62.5,4,2,3,90,0,0
140198,-62.5,4,2,6,90,0,0
140463,-62.5,4,2,3,90,0,0
140727,-62.5,4,2,9,90,0,0
140992,-62.5,4,2,2,90,0,0
141257,-62.5,4,2,6,90,0,0
141521,-62.5,4,2,4,90,0,0
141786,-250,4,2,10,90,0,0
142051,-250,4,2,2,90,0,0
142315,-62.5,4,2,6,90,0,0
142580,-62.5,4,2,3,90,0,0
142845,-62.5,4,2,7,90,0,0
143110,-62.5,4,2,3,90,0,0
143308,-62.5,4,2,3,90,0,0
143374,-55.5555555555556,4,2,7,90,0,0
143639,-55.5555555555556,4,2,4,90,0,0
143904,-62.5,4,2,4,90,0,0
144102,-62.5,4,2,4,90,0,0
144168,-62.5,4,2,3,90,0,0
144433,-62.5,4,2,6,90,0,0
144632,-62.5,4,2,6,90,0,0
144698,-62.5,4,2,3,90,0,0
144963,-250,4,2,9,90,0,0
145227,-250,4,2,2,90,0,0
145492,-62.5,4,2,6,90,0,0
145691,-62.5,4,2,6,90,0,0
145757,-62.5,4,2,4,90,0,0
146022,-62.5,4,2,6,90,0,0
146286,-62.5,4,2,2,90,0,0
146551,-62.5,4,2,6,90,0,0
146750,-62.5,4,2,6,90,0,0
146816,-62.5,4,2,3,90,0,0
147080,-62.5,4,2,7,90,0,0
147279,-62.5,4,2,7,90,0,0
147345,-62.5,4,2,3,90,0,0
147610,-250,4,2,8,90,0,0
147875,-250,4,2,4,90,0,0
148138,-62.5,4,2,4,90,0,0
148404,-62.5,4,2,3,90,0,0
148669,-62.5,4,2,6,90,0,0
148933,-62.5,4,2,3,90,0,0
149198,-55.5555555555556,4,2,11,90,0,0
149463,-55.5555555555556,4,2,2,90,0,0
149728,-62.5,4,2,6,90,0,0
149992,-62.5,4,2,4,90,0,0
150256,-250,4,2,10,90,0,0
150522,-250,4,2,2,90,0,0
150785,-62.5,4,2,6,90,0,0
151051,-62.5,4,2,3,90,0,0
151316,-62.5,4,2,7,90,0,0
151581,-62.5,4,2,3,90,0,0
151844,-55.5555555555556,4,2,7,90,0,0
152110,-55.5555555555556,4,2,5,90,0,0
152374,-62.5,4,2,4,90,0,0
152573,-62.5,4,2,4,90,0,0
152639,-62.5,4,2,3,90,0,0
152904,-62.5,4,2,6,90,0,0
153103,-62.5,4,2,6,90,0,0
153169,-62.5,4,2,3,90,0,0
153433,-250,4,2,9,90,0,0
153698,-250,4,2,3,90,0,0
153962,-62.5,4,2,6,90,0,0
154228,-50,4,2,4,90,0,0
154426,-50,4,2,4,90,0,0
154492,-62.5,4,2,6,90,0,0
154757,-62.5,4,2,2,90,0,0
155022,-62.5,4,2,6,90,0,0
155220,-62.5,4,2,6,90,0,0
155286,-62.5,4,2,3,90,0,0
155551,-62.5,4,2,7,90,0,0
155750,-62.5,4,2,7,90,0,0
155816,-62.5,4,2,3,90,0,0
156080,-250,4,2,8,90,0,0
156345,-250,4,2,5,90,0,0
156610,-100,4,2,1,75,0,0
156875,-100,4,2,2,75,0,0
157007,-100,4,2,1,75,0,0
157404,-100,4,2,2,75,0,0
157669,-100,4,2,1,75,0,0
158463,-100,4,2,2,75,0,0
159125,-100,4,2,1,75,0,0
159522,-100,4,2,2,75,0,0
159721,-100,4,2,2,75,0,0
159787,-100,4,2,2,75,0,0
160051,-100,4,2,1,75,0,0
160581,-100,4,2,2,75,0,0
160779,-100,4,2,2,75,0,0
160845,-100,4,2,2,75,0,0
161243,-100,4,2,1,75,0,0
161640,-100,4,2,2,75,0,0
162169,-100,4,2,1,75,0,0
162699,-100,4,2,2,75,0,0
162963,-100,4,2,1,75,0,0
163757,-100,4,2,2,75,0,0
163890,-100,4,2,1,75,0,0
164287,-100,4,2,2,75,0,0
164353,-100,4,2,1,75,0,0
164552,-100,4,2,10,75,0,0
164816,-100,4,2,1,75,0,0
165346,-100,4,2,2,75,0,0
165478,-100,4,2,1,75,0,0
165875,-100,4,2,2,75,0,0
166669,-100,4,2,1,75,0,0
166934,-100,4,2,2,75,0,0
167199,-100,4,2,1,75,0,0
167463,-100,4,2,2,75,0,0
167596,-100,4,2,1,75,0,0
167993,-100,4,2,2,75,0,0
168787,-100,4,2,1,75,0,0
169052,-100,4,2,2,75,0,0
169250,-100,4,2,2,75,0,0
169316,-100,4,2,1,75,0,0
169581,-100,4,2,2,75,0,0
169714,-100,4,2,1,75,0,0
170111,-100,4,2,2,75,0,0
170375,-100,4,2,2,33,0,0
170640,-100,4,2,2,40,0,0
170905,-100,4,2,1,47,0,0
171169,-100,4,2,2,54,0,0
171434,-71.4285714285714,4,2,1,61,0,0
171633,-90.9090909090909,4,2,1,61,0,0
171699,-90.9090909090909,4,2,2,75,0,0
171964,-62.5,4,2,1,75,0,0
172162,-90.9090909090909,4,2,1,75,0,0
172228,-90.9090909090909,4,2,2,75,0,0
172493,-55.5555555555556,4,2,1,75,0,0
172692,-90.9090909090909,4,2,1,75,0,0
172758,-90.9090909090909,4,2,2,75,0,0
172824,-90.9090909090909,4,2,1,75,0,0
173022,-50,4,2,1,75,0,0
173221,-90.9090909090909,4,2,1,75,0,0
173287,-90.9090909090909,4,2,2,75,0,0
173419,-90.9090909090909,4,2,1,75,0,0
173552,-66.6666666666667,4,2,1,60,0,0
174015,-66.6666666666667,4,2,1,60,0,0
174081,-66.6666666666667,4,2,1,60,0,0
176133,-66.6666666666667,4,2,1,60,0,0
176199,-66.6666666666667,4,2,1,60,0,0
178251,-66.6666666666667,4,2,1,60,0,0
178317,-66.6666666666667,4,2,1,60,0,0
180368,-66.6666666666667,4,2,1,60,0,0
180434,-66.6666666666667,4,2,1,60,0,0
182023,-66.6666666666667,4,2,1,65,0,0
182486,-66.6666666666667,4,2,1,65,0,0
182552,-66.6666666666667,4,2,1,65,0,0
184604,-66.6666666666667,4,2,1,65,0,0
184670,-66.6666666666667,4,2,1,65,0,0
186721,-66.6666666666667,4,2,1,65,0,0
186787,-66.6666666666667,4,2,1,65,0,0
190494,-66.6666666666667,4,2,13,80,0,0
190758,-66.6666666666667,4,2,1,80,0,0
191023,-66.6666666666667,4,2,6,80,0,0
191552,-66.6666666666667,4,2,7,80,0,0
192082,-66.6666666666667,4,2,6,80,0,0
192347,-66.6666666666667,4,2,7,80,0,0
192611,-66.6666666666667,4,2,14,80,0,0
193008,-66.6666666666667,4,2,1,80,0,0
193141,-66.6666666666667,4,2,6,80,0,0
193670,-66.6666666666667,4,2,7,80,0,0
193935,-66.6666666666667,4,2,1,80,0,0
194200,-66.6666666666667,4,2,5,80,0,0
194464,-66.6666666666667,4,2,8,80,0,0
194729,-66.6666666666667,4,2,15,80,0,0
194927,-66.6666666666667,4,2,15,80,0,0
194993,-66.6666666666667,4,2,1,80,0,0
195258,-66.6666666666667,4,2,6,80,0,0
195457,-66.6666666666667,4,2,6,80,0,0
195523,-66.6666666666667,4,2,6,80,0,0
195788,-66.6666666666667,4,2,7,80,0,0
196317,-66.6666666666667,4,2,6,80,0,0
196516,-66.6666666666667,4,2,6,80,0,0
196582,-66.6666666666667,4,2,7,80,0,0
196847,-66.6666666666667,4,2,14,80,0,0
197111,-66.6666666666667,4,2,1,80,0,0
197376,-66.6666666666667,4,2,6,80,0,0
197575,-66.6666666666667,4,2,6,80,0,0
197641,-66.6666666666667,4,2,6,80,0,0
197906,-66.6666666666667,4,2,7,80,0,0
198104,-66.6666666666667,4,2,7,80,0,0
198170,-66.6666666666667,4,2,1,80,0,0
198435,-66.6666666666667,4,2,5,80,0,0
198700,-66.6666666666667,4,2,8,80,0,0
198964,-66.6666666666667,4,2,13,80,0,0
199229,-66.6666666666667,4,2,1,80,0,0
199494,-66.6666666666667,4,2,6,80,0,0
200023,-66.6666666666667,4,2,7,80,0,0
200553,-66.6666666666667,4,2,6,80,0,0
200817,-66.6666666666667,4,2,7,80,0,0
201082,-66.6666666666667,4,2,14,80,0,0
201479,-66.6666666666667,4,2,1,80,0,0
201611,-66.6666666666667,4,2,6,80,0,0
202141,-66.6666666666667,4,2,7,80,0,0
202406,-66.6666666666667,4,2,1,80,0,0
202670,-66.6666666666667,4,2,5,80,0,0
202935,-66.6666666666667,4,2,8,80,0,0
203200,-66.6666666666667,4,2,15,80,0,0
203398,-66.6666666666667,4,2,15,80,0,0
203464,-66.6666666666667,4,2,1,80,0,0
203729,-66.6666666666667,4,2,6,80,0,0
203928,-66.6666666666667,4,2,6,80,0,0
203994,-66.6666666666667,4,2,6,80,0,0
204259,-66.6666666666667,4,2,7,80,0,0
204788,-66.6666666666667,4,2,6,80,0,0
204987,-66.6666666666667,4,2,6,80,0,0
205053,-66.6666666666667,4,2,7,80,0,0
205317,-66.6666666666667,4,2,14,80,0,0
205715,-66.6666666666667,4,2,1,80,0,0
205847,-66.6666666666667,4,2,6,80,0,0
206045,-66.6666666666667,4,2,6,80,0,0
206111,-66.6666666666667,4,2,6,80,0,0
206376,-66.6666666666667,4,2,7,80,0,0
206575,-66.6666666666667,4,2,7,80,0,0
206641,-66.6666666666667,4,2,1,80,0,0
206906,-66.6666666666667,4,2,5,80,0,0
207170,-66.6666666666667,4,2,8,80,0,0
207435,-66.6666666666667,4,2,1,55,0,0
224377,-66.6666666666667,4,2,16,60,0,0
224774,-66.6666666666667,4,2,1,60,0,0
224906,-66.6666666666667,4,2,2,60,0,0
225171,-66.6666666666667,4,2,1,60,0,0
225436,-66.6666666666667,4,2,16,60,0,0
225700,-66.6666666666667,4,2,1,60,0,0
225965,-66.6666666666667,4,2,2,60,0,0
226230,-66.6666666666667,4,2,1,60,0,0
226495,-66.6666666666667,4,2,16,60,0,0
226892,-66.6666666666667,4,2,1,60,0,0
227024,-66.6666666666667,4,2,11,60,0,0
227289,-66.6666666666667,4,2,1,60,0,0
227553,-66.6666666666667,4,2,16,60,0,0
227620,-66.6666666666667,4,2,1,60,0,0
228083,-66.6666666666667,4,2,2,60,0,0
228612,-66.6666666666667,4,2,16,60,0,0
229009,-66.6666666666667,4,2,1,60,0,0
229142,-66.6666666666667,4,2,2,60,0,0
229406,-66.6666666666667,4,2,1,60,0,0
229671,-66.6666666666667,4,2,16,60,0,0
229936,-66.6666666666667,4,2,1,60,0,0
230201,-66.6666666666667,4,2,2,60,0,0
230465,-66.6666666666667,4,2,1,60,0,0
230730,-66.6666666666667,4,2,16,60,0,0
231127,-66.6666666666667,4,2,1,60,0,0
231259,-66.6666666666667,4,2,2,60,0,0
231524,-66.6666666666667,4,2,1,60,0,0
231789,-66.6666666666667,4,2,16,60,0,0
232054,-66.6666666666667,4,2,1,60,0,0
232318,-66.6666666666667,4,2,2,60,0,0
232583,-66.6666666666667,4,2,1,60,0,0
232848,-66.6666666666667,4,2,16,60,0,0
233245,-66.6666666666667,4,2,1,60,0,0
233377,-66.6666666666667,4,2,2,60,0,0
233642,-66.6666666666667,4,2,1,60,0,0
233907,-66.6666666666667,4,2,16,60,0,0
234171,-66.6666666666667,4,2,1,60,0,0
234436,-66.6666666666667,4,2,2,60,0,0
234701,-66.6666666666667,4,2,1,60,0,0
234965,-66.6666666666667,4,2,16,60,0,0
235362,-66.6666666666667,4,2,1,60,0,0
235495,-66.6666666666667,4,2,2,60,0,0
235760,-66.6666666666667,4,2,1,60,0,0
236024,-66.6666666666667,4,2,16,60,0,0
236289,-66.6666666666667,4,2,1,60,0,0
236554,-66.6666666666667,4,2,2,60,0,0
236818,-66.6666666666667,4,2,1,60,0,0
237083,-66.6666666666667,4,2,16,60,0,0
237480,-66.6666666666667,4,2,1,60,0,0
237613,-66.6666666666667,4,2,2,60,0,0
237877,-66.6666666666667,4,2,1,60,0,0
238142,-66.6666666666667,4,2,16,60,0,0
238407,-66.6666666666667,4,2,1,60,0,0
238671,-66.6666666666667,4,2,2,60,0,0
238936,-66.6666666666667,4,2,1,60,0,0
239201,-66.6666666666667,4,2,16,60,0,0
239598,-66.6666666666667,4,2,1,60,0,0
239730,-66.6666666666667,4,2,2,60,0,0
239995,-66.6666666666667,4,2,1,60,0,0
240260,-66.6666666666667,4,2,16,60,0,0
240524,-66.6666666666667,4,2,1,60,0,0
240789,-66.6666666666667,4,2,2,60,0,0
241054,-66.6666666666667,4,2,1,60,0,0
241319,-66.6666666666667,4,2,16,60,0,0

[Colours]
Combo1 : 240,108,21
Combo2 : 166,166,166
Combo3 : 255,149,70
Combo4 : 117,117,117

[HitObjects]
28,309,2019,6,0,B|81:269|140:283|140:283|113:299|116:332,1,156.750004783631,10|2,2:1|2:2,0:0:0:0:
188,343,2548,2,0,L|328:327,1,130.625003986359,10|0,2:1|0:0,0:0:0:0:
325,332,2945,1,2,2:2:0:0:
394,377,3077,6,0,B|434:324|420:265|420:265|404:292|371:289,1,156.750004783631,10|2,2:1|2:2,0:0:0:0:
360,217,3607,2,0,L|376:77,1,130.625003986359,10|0,2:1|0:0,0:0:0:0:
371,80,4004,1,2,2:2:0:0:
328,16,4136,6,0,B|381:-24|440:-10|440:-10|413:6|416:39,1,156.750004783631,10|2,2:1|2:2,0:0:0:0:
288,86,4665,6,0,L|169:99,2,104.500003189087,10|2|8,2:2|2:2|2:1,0:0:0:0:
283,79,5459,5,2,2:2:0:0:
98,39,5724,1,8,2:2:0:0:
156,220,5988,1,2,2:2:0:0:
394,230,6253,6,0,P|447:197|393:130,1,156.750004783631,10|2,2:1|2:2,0:0:0:0:
301,209,6783,2,0,P|316:250|330:322,2,104.500003189087,10|2|8,2:2|2:2|2:1,0:0:0:0:
309,205,7577,5,2,2:2:0:0:
133,297,7841,2,0,B|136:287|136:287|238:304,1,104.500003189087,10|2,2:2|2:2,0:0:0:0:
22,59,8371,6,0,L|57:216,1,156.750004783631,10|2,2:1|2:2,0:0:0:0:
124,160,8900,5,10,2:2:0:0:
94,282,9165,2,0,L|66:402,1,104.500003189087,2|8,2:2|2:1,0:0:0:0:
62,378,9694,5,2,2:2:0:0:
31,209,9959,1,8,2:2:0:0:
2,33,10224,1,2,2:2:0:0:
217,147,10489,6,0,P|245:172|320:172,1,104.500003189087,10|2,2:1|2:2,0:0:0:0:
369,129,10886,1,2,2:2:0:0:
367,123,11018,2,0,L|356:62,1,52.2500015945435,10|0,2:2|0:0,0:0:0:0:
419,189,11283,5,2,2:2:0:0:
418,195,11415,1,2,2:2:0:0:
417,202,11547,2,0,L|406:263,1,52.2500015945435,10|0,2:1|0:0,0:0:0:0:
490,137,11812,5,2,2:2:0:0:
333,278,12077,1,10,2:2:0:0:
135,216,12342,1,2,2:2:0:0:
331,197,12606,6,0,P|285:210|253:305,1,156.750004783631,10|2,2:1|2:2,0:0:0:0:
242,199,13136,2,0,L|228:80,2,104.500003189087,10|2|8,2:2|2:2|2:1,0:0:0:0:
251,196,13930,5,2,2:2:0:0:
321,16,14195,1,8,2:2:0:0:
135,45,14459,1,2,2:2:0:0:
118,231,14724,6,0,P|126:308|147:384,1,156.750004783631,10|2,2:1|2:2,0:0:0:0:
209,330,15253,5,10,2:2:0:0:
36,382,15518,2,0,P|38:330|53:262,1,104.500003189087,2|8,2:2|2:1,0:0:0:0:
35,206,15915,6,0,P|19:195|-13:197,6,38,0|2|0|8|0|2|0,0:0|2:2|0:0|2:2|0:0|2:2|0:0,0:0:0:0:
72,110,16842,6,0,L|233:83,1,156.750004783631,10|2,2:1|2:2,0:0:0:0:
184,9,17371,2,0,L|63:29,2,104.500003189087,10|2|8,2:2|2:2|2:1,0:0:0:0:
183,2,18165,5,2,2:2:0:0:
154,175,18430,1,8,2:2:0:0:
124,352,18695,1,2,2:2:0:0:
350,268,18959,6,0,P|380:237|342:143,1,156.750004783631,10|2,2:1|2:2,0:0:0:0:
277,245,19489,2,0,P|272:284|316:337,2,104.500003189087,10|2|8,2:2|2:2|2:1,0:0:0:0:
272,240,20283,6,0,L|219:253,1,47.5,2|8,2:2|2:2,0:0:0:0:
148,157,20812,2,0,L|155:115,1,35.625,2|0,2:2|0:0,0:0:0:0:
153,121,21077,6,0,P|115:143|110:264,1,156.750004783631,10|0,2:1|0:0,0:0:0:0:
235,338,21607,2,0,L|226:280,1,52.2500015945435,10|0,2:2|0:0,0:0:0:0:
161,357,21871,2,0,L|152:299,1,52.2500015945435,2|0,2:2|0:0,0:0:0:0:
310,358,22136,5,10,2:1:0:0:
75,311,22401,1,2,2:2:0:0:
316,354,22665,2,0,P|368:347|397:292,1,104.500003189087,10|2,2:2|2:2,0:0:0:0:
361,24,23195,6,0,P|366:92|397:225,1,185.249991519928,10|0,2:1|0:0,0:0:0:0:
448,92,23724,6,0,B|474:104|501:74|436:-9|282:-13|235:99|265:166|267:146|330:237|208:332|97:299|64:235,1,570,10|10,2:2|2:1,0:0:0:0:
71,246,26107,6,0,P|92:210|90:183,1,52.2500015945435,2|0,2:2|0:0,0:0:0:0:
165,179,26371,2,0,P|153:153|119:130,1,56.9999982604981,10|0,2:1|0:0,0:0:0:0:
33,78,26636,2,0,P|53:120|56:161,1,61.7499971733095,2|0,2:2|0:0,0:0:0:0:
124,45,26901,5,10,2:2:0:0:
68,338,27166,1,2,2:2:0:0:
305,242,27430,6,0,B|305:254|305:254|369:199|365:66,1,199.499993911743,10|0,2:1|0:0,0:0:0:0:
292,126,27960,6,0,P|310:154|336:162,1,56.9999982604981,10|0,2:2|0:0,0:0:0:0:
463,122,28224,2,0,P|445:66|427:-10,2,113.999996520996,2|8|2,2:2|2:1|2:3,0:0:0:0:
470,119,29019,6,0,P|487:90|484:63,1,56.9999982604981,10|0,2:2|0:0,0:0:0:0:
385,222,29283,2,0,P|438:220|487:259,1,113.999996520996,2|10,2:2|2:1,0:0:0:0:
253,376,29813,6,0,B|260:377|260:377|273:274,1,106.875004076958,2|0,2:2|0:0,0:0:0:0:
268,273,30077,2,0,P|238:287|238:318,1,56.9999982604981,10|0,2:2|0:0,0:0:0:0:
257,196,30342,6,0,B|250:197|250:197|237:94,1,106.875004076958,2|0,2:2|0:0,0:0:0:0:
242,93,30607,2,0,P|272:107|272:138,1,56.9999982604981,10|0,2:1|0:0,0:0:0:0:
262,18,30872,5,2,2:2:0:0:
171,219,31136,1,10,2:2:0:0:
344,349,31401,1,2,2:2:0:0:
176,119,31666,6,0,B|21:146|21:146|34:193,1,185.249991519928,10|0,2:1|0:0,0:0:0:0:
108,53,32195,6,0,B|98:111|98:111|84:183|160:174|147:245|147:245|134:309,3,265.999991882324,10|10|10|10,2:2|2:1|2:2|2:1,0:0:0:0:
135,300,34578,6,0,L|193:285,1,52.2500015945435,2|0,2:2|0:0,0:0:0:0:
244,241,34842,2,0,P|256:207|248:166,1,56.9999982604981,10|0,2:1|0:0,0:0:0:0:
339,309,35107,6,0,P|349:341|382:363,1,61.7499971733095,2|0,2:2|0:0,0:0:0:0:
462,241,35372,2,0,L|394:257,1,66.4999979705811,10|0,2:2|0:0,0:0:0:0:
291,94,35636,6,0,B|319:100|319:100|339:209,1,132.999995941162,2|8,2:2|2:1,0:0:0:0:
392,69,36166,6,0,L|407:6,1,56.9999982604981,2|0,2:2|0:0,0:0:0:0:
410,148,36431,1,10,2:2:0:0:
219,35,36695,2,0,B|226:26|226:26|177:5|106:36|79:96|90:153,1,232.749992897034,2|0,2:2|0:0,0:0:0:0:
99,155,37225,6,0,P|127:159|148:146,1,47.5,2|0,2:2|0:0,0:0:0:0:
217,156,37489,2,0,P|207:113|118:81,1,142.5,10|0,2:2|0:0,0:0:0:0:
20,187,38019,6,0,L|5:251,1,47.5,10|0,2:1|0:0,0:0:0:0:
86,237,38284,2,0,L|82:303,1,56.9999982604981,2|0,2:2|0:0,0:0:0:0:
157,163,38548,2,0,L|165:228,1,66.4999979705811,10|0,2:2|0:0,0:0:0:0:
263,236,38813,2,0,L|307:377,1,142.500005435944,2|10,2:2|2:1,0:0:0:0:
366,151,39342,6,0,L|369:217,1,56.9999982604981,2|0,2:2|0:0,0:0:0:0:
286,90,39607,2,0,L|277:155,1,66.4999979705811,10|0,2:2|0:0,0:0:0:0:
191,131,39872,2,0,L|146:272,1,142.500005435944,2|10,2:2|2:1,0:0:0:0:
444,154,40401,6,0,L|447:87,1,56.9999982604981,2|0,2:2|0:0,0:0:0:0:
344,115,40666,2,0,L|335:49,1,66.4999979705811,10|0,2:2|0:0,0:0:0:0:
274,241,40931,2,0,L|229:100,1,142.500005435944,2|10,2:2|2:1,0:0:0:0:
224,106,41460,6,0,P|216:141|228:169,1,47.5,2|0,2:2|0:0,0:0:0:0:
143,158,41725,2,0,P|150:193|173:213,1,56.9999982604981,10|0,2:2|0:0,0:0:0:0:
137,281,41990,2,0,P|167:300|208:291,1,66.4999979705811,2|0,2:2|0:0,0:0:0:0:
271,360,42254,2,0,P|306:352|328:316,1,76,10|0,2:1|0:0,0:0:0:0:
433,280,42519,2,0,P|434:244|399:204,1,85.4999973907472,2|0,2:2|0:0,0:0:0:0:
290,131,42784,5,10,2:2:0:0:
274,208,43048,1,2,2:2:0:0:
342,248,43313,1,10,2:1:0:0:
172,277,43578,6,0,P|164:242|176:214,1,47.5,2|0,2:2|0:0,0:0:0:0:
91,225,43843,2,0,P|98:190|121:170,1,56.9999982604981,10|0,2:2|0:0,0:0:0:0:
85,101,44107,2,0,P|115:82|156:91,1,66.4999979705811,2|0,2:2|0:0,0:0:0:0:
225,24,44372,2,0,P|260:32|282:68,1,76,10|0,2:1|0:0,0:0:0:0:
389,89,44637,2,0,P|390:125|355:165,1,85.4999973907472,2|0,2:2|0:0,0:0:0:0:
238,248,44901,5,10,2:2:0:0:
222,171,45166,1,2,2:2:0:0:
290,131,45431,1,10,2:1:0:0:
306,207,45696,1,2,2:2:0:0:
157,252,45960,5,10,2:2:0:0:
157,252,46490,6,0,L|93:237,1,47.5,10|0,2:1|0:0,0:0:0:0:
195,335,46754,2,0,L|129:331,1,56.9999982604981,2|0,2:2|0:0,0:0:0:0:
275,181,47019,2,0,L|210:189,1,66.4999979705811,10|0,2:2|0:0,0:0:0:0:
383,228,47284,2,0,L|242:272,1,142.500005435944,2|10,2:2|2:1,0:0:0:0:
182,62,47813,6,0,L|246:77,1,56.9999982604981,2|0,2:2|0:0,0:0:0:0:
208,153,48078,2,0,L|273:150,1,66.4999979705811,10|0,2:2|0:0,0:0:0:0:
107,273,48343,2,0,L|251:229,1,142.500005435944,2|10,2:2|2:1,0:0:0:0:
52,38,48872,6,0,L|116:53,1,56.9999982604981,2|0,2:2|0:0,0:0:0:0:
0,163,49137,2,0,L|65:160,1,66.4999979705811,10|0,2:2|0:0,0:0:0:0:
107,273,49402,2,0,L|251:229,2,142.500005435944,2|10|2,2:2|2:1|2:2,0:0:0:0:
393,277,50196,6,0,P|417:234|412:201,1,56.9999982604981,10|0,2:2|0:0,0:0:0:0:
345,192,50460,2,0,P|323:225|330:285,1,66.4999979705811,2|0,2:2|0:0,0:0:0:0:
496,126,50725,2,0,P|495:94|467:47,1,76,10|0,2:1|0:0,0:0:0:0:
398,75,50990,2,0,P|406:136|465:171,1,85.4999973907472,2|0,2:2|0:0,0:0:0:0:
476,358,51255,5,10,2:2:0:0:
489,283,51519,1,2,2:2:0:0:
500,210,51784,1,10,2:1:0:0:
241,256,52049,6,0,P|250:213|283:205,1,56.9999982604981,2|0,2:2|0:0,0:0:0:0:
329,233,52313,2,0,P|328:261|293:298,1,66.4999979705811,10|0,2:2|0:0,0:0:0:0:
161,272,52578,2,0,P|166:196|218:136,1,152,2|10,2:2|2:1,0:0:0:0:
257,371,53108,5,2,2:2:0:0:
440,247,53372,1,10,2:2:0:0:
413,77,53637,1,2,2:2:0:0:
286,31,53902,1,10,2:1:0:0:
202,101,54166,1,2,2:2:0:0:
215,177,54431,1,10,2:2:0:0:
256,192,54696,1,2,2:2:0:0:
93,352,54961,6,0,L|84:248,1,76,10|0,2:1|0:0,0:0:0:0:
24,229,55225,2,0,P|2:269|8:297,1,76,2|0,2:2|0:0,0:0:0:0:
170,311,55490,6,0,L|161:207,1,76,10|0,2:2|0:0,0:0:0:0:
0,236,55755,2,0,P|-10:280|2:305,1,76,10|0,2:3|0:0,0:0:0:0:
241,350,56019,6,2,B|330:393|398:280|346:222|300:251|293:278|306:294,1,228,10|0,2:1|0:0,0:1:0:0:
425,281,56549,6,0,L|529:272,1,76,10|0,2:2|0:0,0:0:0:0:
380,94,56814,2,0,L|484:85,1,76,2|0,2:3|0:0,0:0:0:0:
363,173,57078,6,0,L|423:168,1,57,10|0,2:1|0:0,0:0:0:0:
133,210,57608,6,0,P|94:180|98:144,1,76,10|0,2:2|0:0,0:0:0:0:
312,237,57872,2,0,P|328:270|312:303,1,76,10|0,2:3|0:0,0:0:0:0:
184,109,58137,2,0,P|200:62|235:55,1,76,10|0,2:1|0:0,0:0:0:0:
212,289,58402,2,0,P|185:314|148:310,1,76,2|0,2:2|0:0,0:0:0:0:
295,127,58667,6,2,B|369:99|407:183|390:192|432:259|510:231,1,256.499992172241,10|0,2:2|0:0,0:1:0:0:
228,185,59196,6,0,L|82:207,1,114,10|0,2:1|0:0,0:0:0:0:
107,194,59461,2,0,P|116:168|171:154,1,76,2|0,2:2|0:0,0:0:0:0:
235,259,59725,6,0,L|89:281,1,114,10|0,2:2|0:0,0:0:0:0:
94,343,59990,2,0,P|67:332|54:278,1,76,10|0,2:3|0:0,0:0:0:0:
120,67,60255,6,0,L|129:123,1,57,10|0,2:1|0:0,0:0:0:0:
313,187,60784,6,0,P|369:188|387:117,1,114,10|0,2:2|0:0,0:0:0:0:
404,141,61049,2,0,L|419:60,1,76,2|0,2:3|0:0,0:0:0:0:
367,369,61314,5,10,2:1:0:0:
367,369,61843,6,0,P|323:334|348:268,1,114,10|0,2:2|0:0,0:0:0:0:
403,260,62108,2,0,L|484:275,1,76,10|0,2:3|0:0,0:0:0:0:
297,198,62373,6,0,P|351:200|380:154,1,114,10|0,2:1|0:0,0:0:0:0:
453,181,62637,2,0,L|468:100,1,76,2|0,2:2|0:0,0:0:0:0:
229,157,62902,6,0,P|217:183|220:217,1,57,10|0,2:2|0:0,0:0:0:0:
247,77,63431,6,0,L|233:-4,1,76,10|0,2:1|0:0,0:0:0:0:
84,156,63696,2,0,P|112:193|161:186,1,76,2|0,2:2|0:0,0:0:0:0:
237,79,63961,6,0,L|223:-2,1,76,10|0,2:2|0:0,0:0:0:0:
82,189,64226,2,0,P|123:211|164:183,1,76,10|0,2:3|0:0,0:0:0:0:
61,16,64490,6,2,B|53:13|53:13|-8:42|-39:164|11:227,1,228,10|0,2:1|0:0,0:1:0:0:
69,346,65020,6,0,L|54:265,1,76,10|0,2:2|0:0,0:0:0:0:
231,278,65284,2,0,L|216:197,1,76,2|0,2:3|0:0,0:0:0:0:
146,377,65549,6,0,L|157:317,1,57,10|0,2:1|0:0,0:0:0:0:
306,220,66078,6,0,P|336:242|337:291,1,76,10|0,2:2|0:0,0:0:0:0:
173,142,66343,2,0,P|187:112|199:46,1,76,10|0,2:3|0:0,0:0:0:0:
276,77,66608,2,0,P|267:40|251:5,1,76,10|0,2:1|0:0,0:0:0:0:
99,152,66873,2,0,P|104:188|134:210,1,76,2|0,2:2|0:0,0:0:0:0:
383,202,67137,6,2,B|387:214|387:214|464:200|508:77|465:1,1,256.499992172241,10|0,2:2|0:0,0:1:0:0:
292,168,67667,6,0,P|309:223|311:308,1,114,10|0,2:1|0:0,0:0:0:0:
321,284,67931,2,0,P|287:320|234:316,1,76,2|0,2:2|0:0,0:0:0:0:
183,233,68196,6,0,P|187:176|204:121,1,114,10|0,2:2|0:0,0:0:0:0:
215,50,68461,2,0,P|250:60|273:90,1,76,10|0,2:3|0:0,0:0:0:0:
190,307,68726,6,0,L|128:319,1,57,10|0,2:1|0:0,0:0:0:0:
0,214,69255,6,0,P|11:159|73:162,1,114,10|0,2:2|0:0,0:0:0:0:
46,76,69520,2,0,L|35:-8,1,76,2|0,2:3|0:0,0:0:0:0:
66,264,69784,5,10,2:1:0:0:
66,264,70314,6,0,L|81:383,1,114,10|0,2:2|0:0,0:0:0:0:
151,351,70579,2,0,L|139:260,1,76,10|0,2:3|0:0,0:0:0:0:
270,88,70843,6,0,L|254:207,1,114,10|0,2:1|0:0,0:0:0:0:
185,175,71108,2,0,L|196:84,1,76,2|0,2:2|0:0,0:0:0:0:
372,216,71373,6,0,L|382:294,1,76,10|2,2:2|2:2,0:0:0:0:
275,83,75608,5,10,2:2:0:0:
268,80,76138,6,0,L|282:252,1,170.999994781494,10|2,2:1|2:2,0:0:0:0:
392,346,76667,2,0,B|396:351|396:351|424:322|391:260|336:262,1,113.999996520996,10|2,2:2|2:2,0:0:0:0:
121,153,77196,6,0,L|109:223,1,56.9999982604981,10|0,2:1|0:0,0:0:0:0:
192,194,77461,2,0,L|180:264,1,56.9999982604981,2|0,2:2|0:0,0:0:0:0:
96,81,77726,5,10,2:2:0:0:
147,325,77991,1,2,2:2:0:0:
103,72,78255,6,0,B|145:48|190:93|178:95|211:145|263:121,1,170.999994781494,10|2,2:1|2:2,0:0:0:0:
255,46,78785,2,0,B|249:26|239:25|239:25|237:47|256:64,1,56.9999982604981,10|0,2:2|0:0,0:0:0:0:
308,255,79049,6,0,P|322:172|359:24,1,227.999993041992,2|2,2:2|2:3,0:0:0:0:
379,287,79844,2,0,P|370:313|345:326,1,56.9999982604981,10|0,2:2|0:0,0:0:0:0:
225,239,80108,2,0,P|220:195|202:138,1,85.4999973907472,2|0,2:2|0:0,0:0:0:0:
213,151,80373,6,0,P|168:139|148:240,1,170.999994781494,10|2,2:1|2:2,0:0:0:0:
177,59,80902,2,0,L|187:-17,1,56.9999982604981,10|0,2:2|0:0,0:0:0:0:
255,79,81167,5,2,2:2:0:0:
168,326,81432,1,10,2:1:0:0:
43,148,81697,1,2,2:2:0:0:
234,158,81961,6,0,P|220:185|197:206,1,56.9999982604981,10|0,2:2|0:0,0:0:0:0:
139,253,82226,2,0,P|114:234|85:225,1,56.9999982604981,2|0,2:2|0:0,0:0:0:0:
314,190,82491,5,10,2:1:0:0:
7,219,82755,1,2,2:2:0:0:
384,232,83020,1,10,2:2:0:0:
223,55,83285,6,0,B|216:59|216:59|246:279,1,199.499993911743,2|0,2:2|0:0,0:0:0:0:
311,153,83814,2,0,P|327:110|306:44,1,113.999996520996,2|8,2:2|2:2,0:0:0:0:
161,313,84344,5,2,2:2:0:0:
374,205,84608,1,10,2:1:0:0:
183,83,84873,1,2,2:2:0:0:
230,265,85138,2,0,P|247:222|237:188,1,56.9999982604981,10|0,2:2|0:0,0:0:0:0:
49,131,85403,6,0,B|42:120|42:120|82:102|135:123|171:168|166:229,1,199.499993911743,2|0,2:2|0:0,0:0:0:0:
87,381,85932,2,0,L|107:249,1,113.999996520996,2|8,2:2|2:2,0:0:0:0:
138,25,86461,5,2,2:2:0:0:
12,221,86726,1,10,2:1:0:0:
220,320,86991,1,2,2:2:0:0:
222,63,87256,2,0,P|192:92|189:117,1,56.9999982604981,10|0,2:2|0:0,0:0:0:0:
296,274,87520,6,0,P|279:211|264:117,1,152,2|2,2:2|2:2,0:0:0:0:
405,34,88314,1,2,2:2:0:0:
405,34,88844,6,0,L|390:98,1,47.5,10|0,2:1|0:0,0:0:0:0:
315,26,89109,2,0,L|311:92,1,56.9999982604981,2|0,2:2|0:0,0:0:0:0:
192,64,89373,2,0,L|200:129,1,66.4999979705811,10|0,2:2|0:0,0:0:0:0:
77,205,89638,2,0,L|121:346,1,142.500005435944,2|10,2:2|2:1,0:0:0:0:
119,341,90167,6,0,L|175:343,1,56.9999982604981,2|0,2:2|0:0,0:0:0:0:
316,260,90432,2,0,L|251:269,1,66.4999979705811,10|0,2:2|0:0,0:0:0:0:
333,138,90697,2,0,L|474:93,1,142.500005435944,2|10,2:2|2:1,0:0:0:0:
400,300,91226,6,0,L|403:233,1,56.9999982604981,2|0,2:2|0:0,0:0:0:0:
249,120,91491,2,0,L|258:186,1,66.4999979705811,10|0,2:2|0:0,0:0:0:0:
90,167,91756,2,0,L|45:26,1,142.500005435944,2|10,2:2|2:1,0:0:0:0:
169,337,92285,6,0,P|194:338|225:317,1,47.5,2|0,2:2|0:0,0:0:0:0:
266,198,92550,2,0,P|254:157|251:123,1,56.9999982604981,10|0,2:2|0:0,0:0:0:0:
120,233,92815,2,0,P|136:251|182:260,1,66.4999979705811,2|0,2:2|0:0,0:0:0:0:
348,225,93079,2,0,P|347:182|358:138,1,76,10|0,2:1|0:0,0:0:0:0:
143,107,93344,2,0,P|144:136|181:187,1,85.4999973907472,2|0,2:2|0:0,0:0:0:0:
304,57,93609,5,10,2:2:0:0:
249,0,93873,1,2,2:2:0:0:
226,74,94138,1,10,2:1:0:0:
325,345,94403,6,0,P|307:360|283:364,1,47.5,2|0,2:2|0:0,0:0:0:0:
342,165,94668,2,0,P|347:193|355:220,1,56.9999982604981,10|0,2:2|0:0,0:0:0:0:
277,282,94932,2,0,P|244:284|215:268,1,66.4999979705811,2|0,2:2|0:0,0:0:0:0:
443,172,95197,2,0,P|436:210|438:248,1,76,10|0,2:1|0:0,0:0:0:0:
266,204,95462,2,0,P|234:177|218:135,1,85.4999973907472,2|0,2:2|0:0,0:0:0:0:
329,32,95726,5,8,2:2:0:0:
451,174,95991,6,0,P|444:212|447:250,1,76,2|0,2:2|0:0,0:0:0:0:
261,210,96256,2,0,P|229:183|214:144,1,85.4999973907472,10|0,2:1|0:0,0:0:0:0:
368,109,96521,5,2,2:2:0:0:
306,319,96785,1,10,2:2:0:0:
306,319,97315,6,0,L|224:341,1,47.5,10|0,2:1|0:0,0:0:0:0:
218,218,97579,2,0,L|190:280,1,56.9999982604981,2|0,2:2|0:0,0:0:0:0:
70,235,97844,2,0,L|116:305,1,66.4999979705811,10|0,2:2|0:0,0:0:0:0:
208,136,98109,6,0,L|361:104,1,142.500005435944,2|10,2:2|2:1,0:0:0:0:
160,11,98638,2,0,L|150:99,1,56.9999982604981,2|0,2:2|0:0,0:0:0:0:
85,113,98903,6,0,L|32:60,1,66.4999979705811,10|0,2:2|0:0,0:0:0:0:
130,234,99168,2,0,L|107:378,1,142.500005435944,2|10,2:2|2:1,0:0:0:0:
33,180,99697,6,0,L|45:249,1,56.9999982604981,2|0,2:2|0:0,0:0:0:0:
201,146,99962,2,0,L|216:242,1,66.4999979705811,10|0,2:2|0:0,0:0:0:0:
319,376,100227,6,0,L|345:215,1,142.500005435944,2|10,2:2|2:1,0:0:0:0:
370,39,100756,1,2,2:2:0:0:
396,173,101021,6,0,P|410:132|394:100,1,56.9999982604981,10|0,2:2|0:0,0:0:0:0:
309,98,101285,2,0,P|297:135|310:186,1,66.4999979705811,2|0,2:2|0:0,0:0:0:0:
474,341,101550,2,0,P|475:308|456:265,1,76,10|0,2:1|0:0,0:0:0:0:
349,291,101815,2,0,P|342:323|364:369,1,85.4999973907472,2|0,2:2|0:0,0:0:0:0:
494,170,102080,5,10,2:2:0:0:
481,94,102344,1,2,2:2:0:0:
469,20,102609,1,10,2:1:0:0:
269,153,102874,6,0,P|255:112|271:80,1,56.9999982604981,2|0,2:2|0:0,0:0:0:0:
350,79,103138,2,0,P|362:116|349:167,1,66.4999979705811,10|0,2:2|0:0,0:0:0:0:
227,336,103403,2,0,P|225:303|245:260,1,76,2|0,2:2|0:0,0:0:0:0:
329,242,103668,5,10,2:1:0:0:
111,212,103933,5,2,2:2:0:0:
102,202,104197,1,10,2:2:0:0:
107,192,104462,1,2,2:2:0:0:
265,165,104727,5,10,2:1:0:0:
274,175,104991,1,2,2:2:0:0:
269,185,105256,1,10,2:2:0:0:
188,189,105521,5,2,2:2:0:0:
432,218,105786,6,0,L|441:114,1,76,10|0,2:1|0:0,0:0:0:0:
334,32,106050,2,0,L|327:107,1,76,2|0,2:2|0:0,0:0:0:0:
447,198,106315,6,0,L|456:94,1,76,10|0,2:2|0:0,0:0:0:0:
269,185,106580,2,0,L|262:260,1,76,10|0,2:3|0:0,0:0:0:0:
457,377,106844,6,2,B|532:417|530:328|451:278|388:280|334:357|324:389,1,228,10|0,2:1|0:0,0:1:0:0:
190,307,107374,6,0,P|160:272|174:223,1,76,10|0,2:2|0:0,0:0:0:0:
322,182,107639,2,0,P|352:217|338:266,1,76,2|0,2:3|0:0,0:0:0:0:
184,141,107903,6,0,L|176:71,1,57,10|0,2:1|0:0,0:0:0:0:
31,38,108433,6,0,L|137:54,1,76,10|0,2:2|0:0,0:0:0:0:
259,69,108697,2,0,L|365:85,1,76,10|0,2:3|0:0,0:0:0:0:
0,214,108962,6,0,L|106:197,1,76,10|0,2:1|0:0,0:0:0:0:
306,162,109227,2,0,L|412:145,1,76,2|0,2:2|0:0,0:0:0:0:
220,359,109492,6,2,B|262:285|210:237|201:242|141:191|196:101,1,256.499992172241,10|0,2:2|0:0,0:1:0:0:
397,37,110021,6,0,L|377:178,1,114,10|0,2:1|0:0,0:0:0:0:
371,154,110286,2,0,L|360:229,1,76,2|0,2:2|0:0,0:0:0:0:
466,84,110550,6,0,L|446:225,1,114,10|0,2:2|0:0,0:0:0:0:
424,346,110815,2,0,L|435:271,1,76,10|0,2:3|0:0,0:0:0:0:
311,84,111080,6,0,P|282:89|263:107,1,57,10|0,2:1|0:0,0:0:0:0:
189,356,111609,6,0,P|238:324|220:258,1,114,10|0,2:2|0:0,0:0:0:0:
243,267,111874,2,0,L|232:192,1,76,2|0,2:3|0:0,0:0:0:0:
201,9,112139,5,10,2:1:0:0:
201,9,112668,2,0,L|186:151,1,114,10|0,2:2|0:0,0:0:0:0:
115,143,112933,2,0,P|83:114|85:70,1,76,10|0,2:3|0:0,0:0:0:0:
99,271,113198,6,0,L|114:413,1,114,10|0,2:1|0:0,0:0:0:0:
26,266,113462,2,0,P|31:229|60:206,1,76,2|0,2:2|0:0,0:0:0:0:
251,268,113727,6,0,L|240:329,1,57,10|0,2:2|0:0,0:0:0:0:
348,128,114256,6,0,P|354:113|326:46,1,76,10|0,2:1|0:0,0:0:0:0:
432,180,114521,2,0,L|518:164,1,76,2|0,2:2|0:0,0:0:0:0:
258,72,114786,6,0,P|252:87|280:154,1,76,10|0,2:2|0:0,0:0:0:0:
438,185,115051,2,0,L|524:169,1,76,10|0,2:3|0:0,0:0:0:0:
199,192,115315,6,2,B|189:187|189:187|175:257|229:275|267:278|309:347|270:386,1,228,10|0,2:1|0:0,0:1:0:0:
97,219,115845,6,0,L|82:123,1,76,10|0,2:2|0:0,0:0:0:0:
285,174,116109,2,0,L|270:78,1,76,2|0,2:3|0:0,0:0:0:0:
179,326,116374,6,0,L|190:262,1,57,10|0,2:1|0:0,0:0:0:0:
89,120,116904,6,0,P|51:99|4:126,1,76,10|0,2:2|0:0,0:0:0:0:
285,174,117168,2,0,P|322:171|347:144,1,76,10|0,2:3|0:0,0:0:0:0:
93,243,117433,2,0,P|64:266|59:303,1,76,10|0,2:1|0:0,0:0:0:0:
207,75,117698,2,0,P|216:39|198:6,1,76,2|0,2:2|0:0,0:0:0:0:
214,278,117962,6,2,B|220:324|265:387|338:383|338:383|331:326|294:318,1,256.499992172241,10|0,2:2|0:0,0:1:0:0:
422,162,118492,6,0,B|428:166|428:166|395:302,1,114,10|0,2:1|0:0,0:0:0:0:
391,279,118757,2,0,P|367:253|373:208,1,76,2|0,2:2|0:0,0:0:0:0:
484,102,119021,6,0,B|491:103|491:103|518:240,1,114,10|0,2:2|0:0,0:0:0:0:
411,81,119286,2,0,P|408:44|432:16,1,76,10|0,2:3|0:0,0:0:0:0:
275,239,119551,6,0,L|214:248,1,57,10|0,2:1|0:0,0:0:0:0:
84,69,120080,6,0,P|151:77|160:139,1,114,10|0,2:2|0:0,0:0:0:0:
97,156,120345,2,0,L|85:54,1,76,2|0,2:3|0:0,0:0:0:0:
120,359,120610,5,10,2:1:0:0:
120,359,121139,6,0,P|154:326|139:262,1,114,10|0,2:2|0:0,0:0:0:0:
80,229,121404,2,0,L|-3:248,1,76,10|0,2:3|0:0,0:0:0:0:
323,286,121668,6,0,P|314:239|253:216,1,114,10|0,2:1|0:0,0:0:0:0:
189,180,121933,2,0,L|170:263,1,76,2|0,2:2|0:0,0:0:0:0:
427,140,122198,6,0,L|412:78,1,57,10|0,2:2|0:0,0:0:0:0:
464,29,122727,5,10,2:1:0:0:
335,148,122992,5,2,2:2:0:0:
335,148,123124,1,2,2:2:0:0:
335,148,123257,1,10,2:2:0:0:
171,102,123521,5,2,2:2:0:0:
171,102,123654,1,2,2:2:0:0:
171,102,123786,1,10,2:1:0:0:
248,57,124051,5,2,2:2:0:0:
260,70,124183,1,2,2:2:0:0:
257,90,124316,1,10,2:2:0:0:
420,166,124580,5,2,2:2:0:0:
417,192,124713,1,2,2:2:0:0:
394,207,124845,1,10,2:1:0:0:
304,279,125110,6,0,L|296:224,1,47.5,2|2,2:2|2:2,0:0:0:0:
282,158,125374,1,10,2:2:0:0:
332,355,125639,5,2,2:2:0:0:
253,352,125771,1,2,2:2:0:0:
217,284,125904,1,10,2:1:0:0:
90,327,126169,5,2,2:2:0:0:
77,303,126301,1,2,2:2:0:0:
87,278,126433,1,10,2:2:0:0:
15,241,126698,5,2,2:2:0:0:
18,227,126830,1,2,2:2:0:0:
31,222,126963,1,10,2:1:0:0:
97,154,127227,5,2,2:2:0:0:
97,154,127360,1,2,2:2:0:0:
97,154,127492,1,10,2:2:0:0:
265,225,127757,5,2,2:2:0:0:
265,225,127889,1,2,2:2:0:0:
265,225,128021,1,10,2:1:0:0:
358,81,128286,6,0,L|366:18,1,47.5,2|2,2:2|2:2,0:0:0:0:
344,162,128551,1,10,2:2:0:0:
472,123,128816,6,0,L|464:60,1,47.5,2|2,2:2|2:2,0:0:0:0:
423,299,129080,6,0,P|480:272|479:221,1,95,10|2,2:1|2:2,0:0:0:0:
341,278,129477,2,0,P|335:340|380:365,1,95,2|0,2:2|0:0,0:0:0:0:
401,220,129874,5,2,2:2:0:0:
392,214,130007,1,2,2:2:0:0:
360,199,130139,1,10,2:1:0:0:
298,211,130272,1,2,2:2:0:0:
259,278,130404,1,2,2:2:0:0:
142,114,130669,6,0,B|121:101|129:69|207:96|193:158|142:200,1,142.5,10|0,2:2|0:0,0:0:0:0:
59,109,131198,6,0,L|42:-5,1,95,10|2,2:1|2:2,0:0:0:0:
7,168,131595,1,2,2:2:0:0:
7,168,131727,1,10,2:2:0:0:
98,261,131992,6,0,L|106:204,1,47.5,2|2,2:2|2:2,0:0:0:0:
60,368,132257,2,0,P|104:332|154:347,1,95,10|2,2:1|2:2,0:0:0:0:
181,270,132654,1,2,2:2:0:0:
181,270,132786,1,10,2:2:0:0:
367,362,133051,6,0,L|353:244,1,95,2|10,2:2|2:1,0:0:0:0:
412,204,133448,1,0,0:0:0:0:
412,204,133580,2,0,L|398:268,1,47.5,2|2,2:2|2:2,0:0:0:0:
290,317,133845,1,10,2:2:0:0:
319,19,134110,5,2,2:2:0:0:
380,65,134242,1,2,2:2:0:0:
364,139,134375,1,10,2:1:0:0:
234,67,134639,5,2,2:2:0:0:
223,36,134772,1,2,2:2:0:0:
220,3,134904,1,10,2:2:0:0:
195,173,135169,5,2,2:2:0:0:
195,189,135301,1,2,2:2:0:0:
186,197,135433,2,0,L|123:207,1,47.5,10|0,2:1|0:0,0:0:0:0:
62,216,135698,2,0,L|-1:226,1,47.5,2|2,2:2|2:2,0:0:0:0:
149,102,135963,1,10,2:2:0:0:
306,211,136228,5,2,2:2:0:0:
316,256,136360,1,2,2:2:0:0:
286,292,136492,1,10,2:1:0:0:
389,223,136771,6,0,L|383:172,2,47.5,2|2|10,2:2|2:2|2:2,0:0:0:0:
369,317,137329,2,0,P|391:340|423:343,1,47.5,2|0,2:2|0:0,0:0:0:0:
474,259,137609,5,2,2:2:0:0:
238,177,138006,5,2,2:2:0:0:
142,323,138403,5,2,2:2:0:0:
75,281,138535,5,2,2:2:0:0:
21,325,138667,6,0,L|29:360,5,23.75,2|2|2|2|2|2,2:2|2:2|2:2|2:2|2:2|2:2,0:0:0:0:
182,167,139140,6,0,P|229:97|162:157,1,256.499992172241,2|0,2:2|0:0,0:0:0:0:
269,132,139670,6,0,L|374:117,1,76,10|0,2:1|0:0,0:0:0:0:
75,155,139934,2,0,L|0:165,1,76,2|0,2:2|0:0,0:0:0:0:
270,125,140199,6,0,L|375:110,1,76,10|0,2:2|0:0,0:0:0:0:
78,162,140464,2,0,L|2:172,1,76,10|0,2:3|0:0,0:0:0:0:
243,376,140728,6,2,B|284:309|262:235|262:235|212:229|203:172,1,228,10|0,2:1|0:0,0:1:0:0:
380,38,141258,6,0,P|358:76|344:126,1,76,10|0,2:2|0:0,0:0:0:0:
349,287,141522,2,0,P|371:249|385:199,1,76,2|0,2:3|0:0,0:0:0:0:
270,125,141787,6,0,P|279:153|303:176,1,57,10|0,2:1|0:0,0:0:0:0:
460,185,142317,6,0,P|447:149|427:116,1,76,10|0,2:2|0:0,0:0:0:0:
206,204,142581,2,0,P|218:239|238:272,1,76,10|0,2:3|0:0,0:0:0:0:
353,106,142846,2,0,P|340:70|320:37,1,76,10|0,2:1|0:0,0:0:0:0:
116,211,143111,2,0,P|115:257|84:341,1,114,2|0,2:2|0:0,0:0:0:0:
151,370,143375,6,2,L|109:90,1,256.499992172241,10|0,2:2|0:0,0:1:0:0:
232,25,143905,6,0,P|283:42|296:113,1,114,10|0,2:1|0:0,0:0:0:0:
295,109,144170,2,0,L|202:127,1,76,2|0,2:2|0:0,0:0:0:0:
11,100,144434,6,0,P|28:48|81:30,1,114,10|0,2:2|0:0,0:0:0:0:
132,83,144699,2,0,L|144:161,1,76,10|0,2:3|0:0,0:0:0:0:
164,346,144964,6,0,L|154:282,1,57,10|0,2:1|0:0,0:0:0:0:
248,327,145493,6,0,P|291:359|356:328,1,114,10|0,2:2|0:0,0:0:0:0:
419,352,145758,2,0,L|517:370,1,76,2|0,2:3|0:0,0:0:0:0:
229,181,146023,5,10,2:1:0:0:
229,181,146552,6,0,L|211:62,1,114,10|0,2:2|0:0,0:0:0:0:
259,7,146817,2,0,L|246:88,1,76,10|0,2:3|0:0,0:0:0:0:
148,165,147081,6,0,L|130:46,1,114,10|0,2:1|0:0,0:0:0:0:
329,52,147346,2,0,L|316:133,1,76,2|0,2:2|0:0,0:0:0:0:
281,304,147611,6,0,L|271:360,1,57,10|0,2:2|0:0,0:0:0:0:
335,238,148140,6,0,P|295:216|249:231,1,76,10|0,2:1|0:0,0:0:0:0:
124,301,148405,2,0,P|84:323|38:308,1,76,2|0,2:2|0:0,0:0:0:0:
350,235,148670,6,0,P|317:203|268:205,1,76,10|0,2:2|0:0,0:0:0:0:
128,312,148934,2,0,P|125:349|145:380,1,76,10|0,2:3|0:0,0:0:0:0:
412,291,149199,6,2,B|465:233|423:164|415:174|338:134|380:58,1,256.499992172241,10|0,2:1|0:0,0:1:0:0:
471,119,149729,6,0,L|450:205,1,76,10|0,2:2|0:0,0:0:0:0:
299,3,149993,2,0,L|278:89,1,76,2|0,2:3|0:0,0:0:0:0:
188,71,150258,6,0,L|202:131,1,57,10|0,2:1|0:0,0:0:0:0:
52,194,150787,6,0,P|108:230|128:210,1,76,10|0,2:2|0:0,0:0:0:0:
206,369,151052,2,0,P|242:313|222:293,1,76,10|0,2:3|0:0,0:0:0:0:
111,86,151317,6,0,P|125:151|153:151,1,76,10|0,2:1|0:0,0:0:0:0:
93,314,151582,2,0,P|158:299|158:271,1,76,2|0,2:2|0:0,0:0:0:0:
379,319,151846,6,2,P|349:252|299:44,1,256.499992172241,10|0,2:2|0:0,0:1:0:0:
488,154,152376,6,0,P|479:212|414:218,1,114,10|0,2:1|0:0,0:0:0:0:
393,158,152640,2,0,P|405:125|428:73,1,76,2|0,2:2|0:0,0:0:0:0:
317,267,152905,6,0,P|258:263|246:198,1,114,10|0,2:2|0:0,0:0:0:0:
303,112,153170,2,0,P|306:149|311:187,1,76,10|0,2:3|0:0,0:0:0:0:
407,350,153435,6,0,P|411:326|417:307,1,38,10|2,2:1|2:2,0:0:0:0:
149,106,153964,6,0,P|116:137|117:172,1,76,10|0,2:2|0:0,0:0:0:0:
158,365,154229,6,0,B|168:365|168:365|188:220,1,142.5,2|0,2:3|0:0,0:0:0:0:
190,229,154493,1,10,2:1:0:0:
44,208,154758,2,0,P|69:247|106:240,1,76,2|0,2:3|0:0,0:0:0:0:
278,211,155023,6,0,P|286:171|218:163,1,114,10|0,2:2|0:0,0:0:0:0:
234,75,155288,2,0,L|253:-5,1,76,10|0,2:3|0:0,0:0:0:0:
366,204,155552,6,0,L|390:342,1,114,10|0,2:1|0:0,0:0:0:0:
436,171,155817,2,0,L|417:91,1,76,2|0,2:2|0:0,0:0:0:0:
259,300,156082,6,0,P|293:309|302:333,1,57,10|0,2:2|0:0,0:0:0:0:
472,271,156611,5,10,2:1:0:0:
66,321,157141,1,10,2:2:0:0:
255,134,157405,6,0,L|261:190,1,47.5,2|0,2:2|0:0,0:0:0:0:
278,43,157670,5,10,2:1:0:0:
230,381,158199,1,10,2:2:0:0:
176,74,158464,6,0,L|170:18,1,47.5,2|0,2:2|0:0,0:0:0:0:
82,59,158729,5,8,2:1:0:0:
443,143,159258,1,10,2:2:0:0:
208,256,159523,6,0,P|263:270|272:298,1,71.25,2|0,2:2|0:0,0:0:0:0:
273,268,159788,2,0,L|296:78,1,190,8|10,2:1|2:2,0:0:0:0:
111,255,160582,2,0,L|128:333,1,71.25,2|0,2:2|0:0,0:0:0:0:
133,331,160847,5,8,2:1:0:0:
185,26,161376,1,10,2:2:0:0:
48,171,161641,6,0,P|85:163|98:143,1,47.5,2|0,2:2|0:0,0:0:0:0:
0,40,161905,5,8,2:1:0:0:
59,353,162435,1,10,2:2:0:0:
224,165,162700,6,0,P|223:141|210:122,1,47.5,2|0,2:2|0:0,0:0:0:0:
289,64,162964,5,10,2:1:0:0:
206,261,163361,5,2,2:2:0:0:
389,313,163758,5,2,2:2:0:0:
347,244,163891,5,2,2:2:0:0:
285,290,164023,6,0,L|292:334,6,23.75,10|2|2|2|2|2|2,2:1|2:2|2:2|2:2|2:2|2:2|2:2,0:0:0:0:
426,151,164553,6,0,P|450:125|407:148,1,142.5,10|0,2:2|0:0,0:0:0:0:
491,202,165082,5,10,2:1:0:0:
285,54,165479,1,2,2:2:0:0:
285,54,165611,1,10,2:2:0:0:
156,208,165876,1,2,2:2:0:0:
265,271,166141,1,8,2:1:0:0:
333,177,166406,6,0,P|340:155|326:130,1,47.5,2|0,2:2|0:0,0:0:0:0:
252,141,166670,2,0,P|245:163|259:188,1,47.5,10|0,2:2|0:0,0:0:0:0:
378,302,166935,2,0,P|395:248|421:193,2,95,2|10|2,2:2|2:1|2:2,0:0:0:0:
310,348,167597,5,2,2:2:0:0:
310,348,167729,1,10,2:2:0:0:
178,235,167994,1,2,2:2:0:0:
32,297,168259,1,8,2:1:0:0:
107,361,168523,6,0,L|121:296,1,47.5,2|0,2:2|0:0,0:0:0:0:
167,158,168788,2,0,L|182:109,1,47.5,10|0,2:2|0:0,0:0:0:0:
56,23,169053,2,0,P|9:36|0:65,1,71.25,2|0,2:2|0:0,0:0:0:0:
7,62,169317,5,10,2:1:0:0:
254,177,169715,1,2,2:2:0:0:
254,177,169847,1,10,2:2:0:0:
398,90,170112,1,2,2:2:0:0:
321,17,170376,6,0,L|303:123,1,95,8|2,2:1|2:2,0:0:0:0:
211,35,170906,6,0,L|193:141,1,95,10|2,2:2|2:2,0:0:0:0:
95,235,171435,6,0,L|75:135,1,99.7499969558717,10|0,2:1|0:0,0:0:0:0:
75,137,171700,1,2,2:2:0:0:
204,346,171965,6,0,L|180:227,1,114,10|0,2:2|0:0,0:0:0:0:
182,235,172229,1,2,2:2:0:0:
314,186,172494,6,0,L|283:33,1,128.249996086121,10|0,2:1|0:0,0:0:0:0:
289,61,172759,1,2,2:2:0:0:
500,329,173023,6,0,L|469:176,1,142.5,10|0,2:2|0:0,0:0:0:0:
473,190,173288,1,2,2:2:0:0:
313,334,173553,6,0,B|243:375|201:285|244:275|194:174|119:245,1,249.375009512902,10|0,2:1|0:0,0:0:0:0:
134,243,174082,2,0,P|170:185|162:99,1,142.500005435944,10|0,2:1|0:0,0:0:0:0:
4,0,174612,5,10,2:1:0:0:
73,179,174876,1,2,2:2:0:0:
73,179,175009,1,2,2:2:0:0:
370,20,175406,5,2,2:2:0:0:
370,20,175538,1,0,0:0:0:0:
308,66,175671,6,0,P|362:64|381:220,1,249.375009512902,10|0,2:1|0:0,0:0:0:0:
390,226,176200,2,0,P|387:296|423:356,1,142.500005435944,10|0,2:1|0:0,0:0:0:0:
281,155,176729,5,10,2:1:0:0:
316,345,176994,1,2,2:2:0:0:
316,345,177126,1,2,2:2:0:0:
38,362,177524,5,2,2:2:0:0:
38,362,177656,1,0,0:0:0:0:
104,322,177788,6,0,L|176:347,1,71.2500027179719,10|0,2:1|0:0,0:0:0:0:
37,140,178053,2,0,L|55:254,1,106.875004076958
60,250,178318,2,0,P|101:229|131:128,1,142.500005435944,10|0,2:1|0:0,0:0:0:0:
32,0,178847,5,10,2:1:0:0:
216,135,179112,1,2,2:2:0:0:
213,155,179244,1,2,2:2:0:0:
470,12,179641,5,2,2:2:0:0:
473,32,179774,1,0,0:0:0:0:
409,71,179906,6,0,P|383:44|387:5,1,71.2500027179719,10|0,2:1|0:0,0:0:0:0:
492,122,180171,2,0,P|475:156|447:237,1,106.875004076958
441,227,180435,2,0,L|452:376,1,142.500005435944,10|0,2:1|0:0,0:0:0:0:
320,137,180965,5,10,2:1:0:0:
262,344,181230,1,2,2:2:0:0:
266,335,181362,1,2,2:2:0:0:
66,151,181759,5,2,2:2:0:0:
70,160,181891,1,0,0:0:0:0:
137,127,182024,6,0,B|211:86|318:127|302:196|276:236|220:208|252:169,1,249.375009512902,10|0,2:1|0:0,0:0:0:0:
348,132,182553,2,0,L|497:144,1,142.500005435944,10|0,2:1|0:0,0:0:0:0:
249,3,183083,5,10,2:1:0:0:
369,298,183480,1,2,2:2:0:0:
396,227,183612,1,8,2:1:0:0:
122,326,183877,5,2,2:2:0:0:
122,326,184009,1,0,0:0:0:0:
194,311,184141,6,0,P|232:290|234:252,1,71.2500027179719,10|0,2:1|0:0,0:0:0:0:
131,138,184406,2,0,P|143:181|151:265,1,106.875004076958
77,260,184671,2,0,P|22:229|29:133,1,142.500005435944,10|0,2:1|0:0,0:0:0:0:
185,0,185200,5,10,2:1:0:0:
356,183,185465,1,2,2:2:0:0:
280,208,185597,1,2,2:2:0:0:
462,43,185994,1,2,2:2:0:0:
462,43,186127,1,0,0:0:0:0:
488,120,186259,6,0,P|463:165|453:205,1,71.2500027179719,10|0,2:1|0:0,0:0:0:0:
310,28,186524,2,0,P|375:88|390:127,1,106.875004076958
308,133,186789,2,0,B|258:124|237:151|247:153|224:189|179:179,1,142.500005435944,10|0,2:1|0:0,0:0:0:0:
474,311,187318,5,10,2:1:0:0:
157,300,187583,1,2,2:2:0:0:
237,331,187715,1,2,2:2:0:0:
182,52,188112,5,2,2:2:0:0:
184,63,188244,1,0,0:0:0:0:
115,94,188377,5,10,2:1:0:0:
327,25,188774,5,2,2:2:0:0:
399,245,189171,5,2,2:2:0:0:
330,212,189303,5,2,2:2:0:0:
359,145,189436,6,0,L|372:106,8,35.625001358986,10|2|2|2|2|2|2|0|10,2:1|2:2|2:2|2:2|2:2|2:2|2:2|0:0|2:1,0:0:0:0:
113,253,190495,6,0,P|109:295|130:318,1,71.2500027179719,10|0,2:1|0:0,0:0:0:0:
220,297,190759,2,0,P|224:255|203:232,1,71.2500027179719,2|2,2:2|2:2,0:0:0:0:
70,68,191024,6,0,P|50:96|57:131,1,71.2500027179719,10|0,2:2|0:0,0:0:0:0:
152,149,191289,2,0,P|171:120|165:86,1,71.2500027179719,10|0,2:3|0:0,0:0:0:0:
136,9,191553,5,10,2:1:0:0:
136,9,192083,6,0,L|237:24,1,71.2500027179719,10|0,2:2|0:0,0:0:0:0:
280,174,192348,2,0,L|381:159,1,71.2500027179719,2|0,2:3|0:0,0:0:0:0:
425,144,192612,5,10,2:1:0:0:
425,144,193142,6,0,L|435:73,1,71.2500027179719,10|0,2:2|0:0,0:0:0:0:
247,175,193406,2,0,P|258:223|276:236,1,71.2500027179719,10|0,2:3|0:0,0:0:0:0:
345,94,193671,6,0,L|355:23,1,71.2500027179719,10|0,2:1|0:0,0:0:0:0:
307,313,193936,2,0,L|296:383,1,71.2500027179719,2|0,2:2|0:0,0:0:0:0:
367,258,194201,5,10,2:2:0:0:
27,206,194730,6,0,P|33:254|98:273,1,106.875004076958,10|0,2:1|0:0,0:0:0:0:
89,270,194995,2,0,P|99:231|110:202,1,71.2500027179719,2|2,2:2|2:2,0:0:0:0:
204,361,195259,6,0,P|196:288|168:232,1,106.875004076958,10|0,2:2|0:0,0:0:0:0:
183,250,195524,2,0,P|228:253|247:293,1,71.2500027179719,10|0,2:3|0:0,0:0:0:0:
189,164,195789,5,10,2:1:0:0:
189,164,196318,6,0,P|208:120|223:38,1,106.875004076958,10|0,2:2|0:0,0:0:0:0:
206,58,196583,2,0,P|166:62|144:107,1,71.2500027179719,2|0,2:3|0:0,0:0:0:0:
78,38,196848,5,10,2:1:0:0:
78,38,197377,6,0,P|51:87|-8:95,1,106.875004076958,10|0,2:2|0:0,0:0:0:0:
8,108,197642,2,0,L|88:124,1,71.2500027179719,10|0,2:3|0:0,0:0:0:0:
200,184,197907,6,0,L|334:166,1,106.875004076958,10|0,2:1|0:0,0:0:0:0:
365,130,198171,2,0,P|351:104|303:99,1,71.2500027179719,2|0,2:2|0:0,0:0:0:0:
283,25,198436,5,10,2:2:0:0:
296,307,198965,6,0,L|304:403,1,71.2500027179719,10|0,2:1|0:0,0:0:0:0:
405,361,199230,2,0,P|409:327|389:290,1,71.2500027179719,2|2,2:2|2:2,0:0:0:0:
163,137,199495,6,0,P|147:169|151:204,1,71.2500027179719,10|0,2:2|0:0,0:0:0:0:
253,222,199760,2,0,L|258:150,1,71.2500027179719,10|0,2:3|0:0,0:0:0:0:
229,75,200024,5,10,2:1:0:0:
229,75,200554,6,0,L|234:3,1,71.2500027179719,10|0,2:2|0:0,0:0:0:0:
205,286,200818,2,0,L|199:357,1,71.2500027179719,2|0,2:3|0:0,0:0:0:0:
132,256,201083,5,10,2:1:0:0:
132,256,201612,6,0,P|94:235|94:184,1,71.2500027179719,10|0,2:2|0:0,0:0:0:0:
138,93,201877,2,0,P|147:141|157:179,1,71.2500027179719,10|0,2:3|0:0,0:0:0:0:
11,214,202142,6,0,P|13:170|60:149,1,71.2500027179719,10|0,2:1|0:0,0:0:0:0:
234,151,202407,2,0,P|230:199|230:238,1,71.2500027179719,2|0,2:2|0:0,0:0:0:0:
218,75,202671,5,10,2:2:0:0:
218,75,203201,6,0,P|270:66|303:17,1,106.875004076958,10|0,2:1|0:0,0:0:0:0:
310,30,203465,2,0,L|301:116,1,71.2500027179719,2|2,2:2|2:2,0:0:0:0:
337,238,203730,6,0,P|368:279|420:288,1,106.875004076958,10|0,2:2|0:0,0:0:0:0:
427,278,203995,2,0,L|419:207,1,71.2500027179719,10|0,2:3|0:0,0:0:0:0:
412,129,204260,5,10,2:1:0:0:
412,129,204789,6,0,P|352:131|315:173,1,106.875004076958,10|0,2:2|0:0,0:0:0:0:
254,195,205054,2,0,P|227:162|220:109,1,71.2500027179719,2|0,2:3|0:0,0:0:0:0:
233,268,205318,5,10,2:1:0:0:
233,268,205848,6,0,P|194:325|145:338,1,106.875004076958,10|0,2:2|0:0,0:0:0:0:
92,297,206113,2,0,L|78:211,1,71.2500027179719,10|0,2:3|0:0,0:0:0:0:
216,86,206377,6,0,P|263:108|288:155,1,106.875004076958,10|0,2:1|0:0,0:0:0:0:
209,167,206642,2,0,L|123:153,1,71.2500027179719,2|0,2:2|0:0,0:0:0:0:
6,138,206907,5,10,2:2:0:0:
466,73,207436,5,10,2:1:0:0:
