osu file format v14

[General]
AudioFilename: audio.mp3
AudioLeadIn: 0
PreviewTime: 559
Countdown: 0
SampleSet: Soft
StackLeniency: 0
Mode: 0
LetterboxInBreaks: 0
WidescreenStoryboard: 1

[Editor]
Bookmarks: 207432
DistanceSpacing: 0.4
BeatDivisor: 4
GridSize: 32
TimelineZoom: 1.1

[Metadata]
Title:Gimme More
TitleUnicode:Gimme More
Artist:Britney Spears
ArtistUnicode:Britney Spears
Creator:jas
Version:Blackout
Source:
Tags:craezy muya- sylas thekoala blackout black out electronic electro synth dance english pop EDM music synthpop electropop dancepop
BeatmapID:4054425
BeatmapSetID:1957147

[Difficulty]
HPDrainRate:5
CircleSize:4
OverallDifficulty:8
ApproachRate:8.5
SliderMultiplier:2
SliderTickRate:1

[Events]
//Background and Video events
0,0,"gimmemore.jpg",0,0
//Break Periods
//Storyboard Layer 0 (Background)
//Storyboard Layer 1 (Fail)
//Storyboard Layer 2 (Pass)
//Storyboard Layer 3 (Foreground)
//Storyboard Layer 4 (Overlay)
//Storyboard Sound Samples

[TimingPoints]
2019,529.427336098121,4,2,1,50,1,0
2348,-100,4,2,0,5,0,0
2415,-100,4,2,1,50,0,0
2547,-80,4,2,1,50,0,0
2878,-80,4,2,0,5,0,0
2944,-80,4,2,1,50,0,0
3076,-66.6666666666667,4,2,1,50,0,0
3407,-66.6666666666667,4,2,0,5,0,0
3473,-66.6666666666667,4,2,1,50,0,0
3606,-57.1428571428571,4,2,1,50,0,0
3937,-57.1428571428571,4,2,0,5,0,0
4003,-57.1428571428571,4,2,1,50,0,0
4136,529.427336098121,4,2,1,60,1,0
4136,-133.333333333333,4,2,1,60,0,0
4665,-200,4,2,1,60,0,0
5193,-266.666666666667,4,2,1,60,0,0
5723,-400,4,2,1,60,0,0
6252,-100,4,2,1,60,0,0
6782,-200,4,2,1,60,0,0
7576,-50,4,2,1,60,0,0
8370,-33.3333333333333,4,2,1,60,0,0
8899,-200,4,2,1,60,0,0
9429,-266.666666666667,4,2,1,60,0,0
9959,-400,4,2,1,60,0,0
11812,-266.666666666667,4,2,1,60,0,0
12010,-266.666666666667,4,2,0,5,0,0
12077,-33.3333333333333,4,2,1,60,0,0
12540,-33.3333333333333,4,2,0,5,0,0
12606,-133.333333333333,4,2,1,60,0,0
13135,-200,4,2,1,60,0,0
13665,-266.666666666667,4,2,1,60,0,0
14194,-400,4,2,1,60,0,0
14724,-100,4,2,1,60,0,0
15253,-200,4,2,1,60,0,0
15915,-133.333333333333,4,2,1,60,0,0
16312,-200,4,2,1,60,0,0
16841,-133.333333333333,4,2,1,60,0,0
17371,-200,4,2,1,60,0,0
17900,-266.666666666667,4,2,1,60,0,0
18430,-400,4,2,1,60,0,0
18959,-800,4,2,1,60,0,0
19489,-400,4,2,1,60,0,0
20018,-160,4,2,1,60,0,0
20547,-100,4,2,1,60,0,0
21077,-100,4,2,2,70,0,0
21342,-100,4,2,1,70,0,0
21606,-50,4,2,1,70,0,0
21805,-50,4,2,0,5,0,0
21871,-66.6666666666667,4,2,2,70,0,0
22070,-66.6666666666667,4,2,0,5,0,0
22136,-66.6666666666667,4,2,1,70,0,0
22400,-57.1428571428571,4,2,2,70,0,0
22665,-57.1428571428571,4,2,1,70,0,0
22930,-57.1428571428571,4,2,2,70,0,0
23195,-40,4,2,1,70,0,0
23724,-266.666666666667,4,2,1,70,0,0
23989,-266.666666666667,4,2,2,70,0,0
25312,-266.666666666667,4,2,1,70,0,0
26106,-66.6666666666667,4,2,2,70,0,0
26305,-66.6666666666667,4,2,0,5,0,0
26371,-50,4,2,1,70,0,0
26570,-50,4,2,0,5,0,0
26636,-66.6666666666667,4,2,2,70,0,0
26901,-57.1428571428571,4,2,1,70,0,0
27165,-50,4,2,2,70,0,0
27430,-50,4,2,1,70,0,0
27827,-44.4444444444445,4,2,1,70,0,0
28224,-40,4,2,2,70,0,0
28754,-40,4,2,1,70,0,0
29283,-53.3333333333333,4,2,2,70,0,0
29548,-53.3333333333333,4,2,3,70,0,0
29812,-100,4,2,2,70,0,0
30077,-50,4,2,1,70,0,0
30342,-100,4,2,2,70,0,0
30607,-66.6666666666667,4,2,1,70,0,0
30871,-50,4,2,2,70,0,0
31136,-50,4,2,1,70,0,0
31335,-50,4,2,0,5,0,0
31401,-50,4,2,2,70,0,0
31665,-40,4,2,1,70,0,0
32195,-80,4,2,1,70,0,0
32724,-50,4,2,1,70,0,0
33254,-100,4,2,1,70,0,0
34577,-80,4,2,2,70,0,0
34842,-80,4,2,1,70,0,0
35107,-66.6666666666667,4,2,2,70,0,0
35371,-57.1428571428571,4,2,1,70,0,0
35636,-50,4,2,2,70,0,0
36166,-66.6666666666667,4,2,2,70,0,0
36430,-57.1428571428571,4,2,1,70,0,0
36695,-80,4,2,2,70,0,0
37224,-400,4,2,2,70,0,0
37489,-400,4,2,1,70,0,0
38019,-33.3333333333333,4,2,4,75,0,0
38283,-40,4,2,3,75,0,0
38548,-50,4,2,1,75,0,0
38813,-200,4,2,3,75,0,0
39077,-200,4,2,5,75,0,0
39342,-33.3333333333333,4,2,3,75,0,0
39607,-50,4,2,1,75,0,0
39872,-200,4,2,3,75,0,0
40136,-200,4,2,5,75,0,0
40401,-33.3333333333333,4,2,3,75,0,0
40666,-50,4,2,1,75,0,0
40930,-200,4,2,3,75,0,0
41195,-200,4,2,5,75,0,0
41460,-66.6666666666667,4,2,3,75,0,0
41725,-50,4,2,1,75,0,0
41989,-40,4,2,3,75,0,0
42254,-33.3333333333333,4,2,6,75,0,0
42519,-133.333333333333,4,2,3,75,0,0
42717,-133.333333333333,4,2,0,5,0,0
42783,-133.333333333333,4,2,1,75,0,0
42982,-133.333333333333,4,2,0,5,0,0
43048,-133.333333333333,4,2,3,75,0,0
43247,-133.333333333333,4,2,0,5,0,0
43313,-133.333333333333,4,2,7,75,0,0
43511,-133.333333333333,4,2,0,5,0,0
43578,-50,4,2,3,75,0,0
43842,-40,4,2,1,75,0,0
44107,-33.3333333333333,4,2,3,75,0,0
44372,-28.5714285714286,4,2,7,75,0,0
44636,-25,4,2,3,75,0,0
44901,-133.333333333333,4,2,1,75,0,0
45100,-133.333333333333,4,2,0,5,0,0
45166,-133.333333333333,4,2,3,75,0,0
45364,-133.333333333333,4,2,0,5,0,0
45431,-133.333333333333,4,2,7,75,0,0
45629,-133.333333333333,4,2,0,5,0,0
45695,-133.333333333333,4,2,3,75,0,0
45894,-133.333333333333,4,2,0,5,0,0
45960,-133.333333333333,4,2,4,75,0,0
46225,-133.333333333333,4,2,2,75,0,0
46489,-33.3333333333333,4,2,4,75,0,0
46754,-40,4,2,3,75,0,0
47019,-50,4,2,1,75,0,0
47284,-200,4,2,3,75,0,0
47548,-200,4,2,5,75,0,0
47813,-33.3333333333333,4,2,3,75,0,0
48078,-50,4,2,1,75,0,0
48342,-200,4,2,3,75,0,0
48607,-200,4,2,5,75,0,0
48872,-33.3333333333333,4,2,3,75,0,0
49137,-50,4,2,1,75,0,0
49401,-200,4,2,3,75,0,0
49666,-200,4,2,5,75,0,0
49931,-200,4,2,3,75,0,0
50195,-66.6666666666667,4,2,1,75,0,0
50460,-50,4,2,3,75,0,0
50725,-33.3333333333333,4,2,6,75,0,0
50990,-50,4,2,3,75,0,0
51254,-133.333333333333,4,2,1,75,0,0
51453,-133.333333333333,4,2,0,5,0,0
51519,-133.333333333333,4,2,3,75,0,0
51717,-133.333333333333,4,2,0,5,0,0
51784,-133.333333333333,4,2,7,75,0,0
51982,-133.333333333333,4,2,0,5,0,0
52048,-50,4,2,3,75,0,0
52313,-40,4,2,1,75,0,0
52578,-66.6666666666667,4,2,3,75,0,0
52843,-66.6666666666667,4,2,5,75,0,0
53107,-26.6666666666667,4,2,3,75,0,0
53306,-26.6666666666667,4,2,0,5,0,0
53372,-100,4,2,1,75,0,0
53637,-100,4,2,3,75,0,0
53901,-50,4,2,7,75,0,0
54166,-50,4,2,3,75,0,0
54431,-100,4,2,5,75,0,0
54696,-100,4,2,3,75,0,0
54960,-33.3333333333333,4,2,8,90,0,0
55159,-33.3333333333333,4,2,0,5,0,0
55225,-80,4,2,3,90,0,0
55490,-33.3333333333333,4,2,6,90,0,0
55688,-33.3333333333333,4,2,0,5,0,0
55754,-80,4,2,3,90,0,0
56019,-31.25,4,2,9,90,0,0
56284,-31.25,4,2,2,90,0,0
56482,-31.25,4,2,0,5,0,0
56549,-100,4,2,6,90,0,0
56813,-66.6666666666667,4,2,4,90,0,0
57078,-1000,4,2,10,90,0,0
57343,-1000,4,2,2,90,0,0
57607,-66.6666666666667,4,2,6,90,0,0
57872,-50,4,2,3,90,0,0
58137,-40,4,2,7,90,0,0
58402,-33.3333333333333,4,2,3,90,0,0
58666,-28.5714285714286,4,2,7,90,0,0
58931,-28.5714285714286,4,2,5,90,0,0
59196,-33.3333333333333,4,2,4,90,0,0
59394,-33.3333333333333,4,2,0,5,0,0
59460,-100,4,2,3,90,0,0
59725,-66.6666666666667,4,2,6,90,0,0
59990,-33.3333333333333,4,2,3,90,0,0
60188,-33.3333333333333,4,2,0,5,0,0
60255,-666.666666666667,4,2,9,90,0,0
60519,-666.666666666667,4,2,2,90,0,0
60784,-95.2380952380952,4,2,6,90,0,0
61049,-66.6666666666667,4,2,4,90,0,0
61313,-25,4,2,6,90,0,0
61578,-25,4,2,2,90,0,0
61843,-66.6666666666667,4,2,6,90,0,0
62108,-22.2222222222222,4,2,3,90,0,0
62372,-50,4,2,7,90,0,0
62637,-20,4,2,3,90,0,0
62902,-666.666666666667,4,2,8,90,0,0
63166,-666.666666666667,4,2,5,90,0,0
63431,-28.5714285714286,4,2,4,90,0,0
63630,-28.5714285714286,4,2,0,5,0,0
63696,-80,4,2,3,90,0,0
63960,-28.5714285714286,4,2,6,90,0,0
64159,-28.5714285714286,4,2,0,5,0,0
64225,-80,4,2,3,90,0,0
64490,-33.3333333333333,4,2,11,90,0,0
64755,-33.3333333333333,4,2,2,90,0,0
65019,-50,4,2,6,90,0,0
65284,-36.3636363636364,4,2,4,90,0,0
65549,-1000,4,2,10,90,0,0
65813,-1000,4,2,2,90,0,0
66078,-66.6666666666667,4,2,6,90,0,0
66343,-50,4,2,3,90,0,0
66608,-40,4,2,7,90,0,0
66872,-40,4,2,3,90,0,0
67137,-33.3333333333333,4,2,7,90,0,0
67402,-33.3333333333333,4,2,5,90,0,0
67600,-33.3333333333333,4,2,0,5,0,0
67666,-100,4,2,4,90,0,0
67931,-66.6666666666667,4,2,3,90,0,0
68196,-100,4,2,6,90,0,0
68461,-66.6666666666667,4,2,3,90,0,0
68725,-666.666666666667,4,2,9,90,0,0
68990,-666.666666666667,4,2,2,90,0,0
69255,-66.6666666666667,4,2,6,90,0,0
69519,-50,4,2,4,90,0,0
69784,-50,4,2,6,90,0,0
70049,-50,4,2,2,90,0,0
70314,-66.6666666666667,4,2,6,90,0,0
70578,-50,4,2,3,90,0,0
70843,-40,4,2,7,90,0,0
71108,-40,4,2,3,90,0,0
71372,-1000,4,2,8,90,0,0
71637,-1000,4,2,5,90,0,0
71902,-1000,4,2,1,50,0,0
76137,-1000,4,2,2,70,0,0
76402,-1000,4,2,1,70,0,0
76931,-1000,4,2,2,70,0,0
77196,-1000,4,2,1,70,0,0
77461,-1000,4,2,2,70,0,0
77726,-1000,4,2,1,70,0,0
77990,-1000,4,2,2,70,0,0
78255,-1000,4,2,1,70,0,0
79049,-1000,4,2,2,70,0,0
79579,-1000,4,2,1,70,0,0
80108,-1000,4,2,2,70,0,0
80373,-1000,4,2,12,70,0,0
80637,-1000,4,2,1,70,0,0
81167,-1000,4,2,2,70,0,0
81432,-1000,4,2,1,70,0,0
81696,-1000,4,2,2,70,0,0
81961,-1000,4,2,1,70,0,0
82226,-1000,4,2,2,70,0,0
82490,-1000,4,2,1,70,0,0
82755,-1000,4,2,2,70,0,0
83020,-1000,4,2,1,70,0,0
83285,-200,4,2,2,70,0,0
84608,-200,4,2,1,70,0,0
84873,-200,4,2,2,70,0,0
85138,-200,4,2,1,70,0,0
85402,-200,4,2,2,70,0,0
86726,-200,4,2,1,70,0,0
86991,-200,4,2,2,70,0,0
87255,-200,4,2,1,70,0,0
87520,-200,4,2,2,70,0,0
88049,-100,4,2,2,70,0,0
88314,-80,4,2,1,70,0,0
88579,-66.6666666666667,4,2,2,70,0,0
88844,-133.333333333333,4,2,4,75,0,0
89108,-133.333333333333,4,2,3,75,0,0
89373,-133.333333333333,4,2,1,75,0,0
89638,-33.3333333333333,4,2,3,75,0,0
89902,-33.3333333333333,4,2,5,75,0,0
90167,-100,4,2,3,75,0,0
90432,-100,4,2,1,75,0,0
90697,-40,4,2,3,75,0,0
90961,-40,4,2,5,75,0,0
91226,-66.6666666666667,4,2,3,75,0,0
91491,-66.6666666666667,4,2,1,75,0,0
91755,-50,4,2,3,75,0,0
92020,-50,4,2,5,75,0,0
92285,-200,4,2,3,75,0,0
92550,-100,4,2,1,75,0,0
92814,-66.6666666666667,4,2,3,75,0,0
93079,-57.1428571428571,4,2,6,75,0,0
93344,-57.1428571428571,4,2,3,75,0,0
93608,-57.1428571428571,4,2,1,75,0,0
93873,-57.1428571428571,4,2,3,75,0,0
94138,-57.1428571428571,4,2,7,75,0,0
94403,-57.1428571428571,4,2,3,75,0,0
94667,-57.1428571428571,4,2,1,75,0,0
94932,-57.1428571428571,4,2,3,75,0,0
95197,-57.1428571428571,4,2,7,75,0,0
95461,-57.1428571428571,4,2,3,75,0,0
95726,-57.1428571428571,4,2,1,75,0,0
95991,-57.1428571428571,4,2,3,75,0,0
96256,-57.1428571428571,4,2,7,75,0,0
96520,-57.1428571428571,4,2,3,75,0,0
96785,-57.1428571428571,4,2,9,75,0,0
97050,-57.1428571428571,4,2,2,75,0,0
97314,-66.6666666666667,4,2,4,75,0,0
97579,-66.6666666666667,4,2,3,75,0,0
97778,-66.6666666666667,4,2,0,5,0,0
97844,-66.6666666666667,4,2,1,75,0,0
98109,-33.3333333333333,4,2,3,75,0,0
98373,-33.3333333333333,4,2,5,75,0,0
98638,-100,4,2,3,75,0,0
98903,-66.6666666666667,4,2,1,75,0,0
99167,-33.3333333333333,4,2,3,75,0,0
99432,-33.3333333333333,4,2,5,75,0,0
99697,-66.6666666666667,4,2,3,75,0,0
99962,-66.6666666666667,4,2,1,75,0,0
100160,-66.6666666666667,4,2,0,5,0,0
100226,-33.3333333333333,4,2,3,75,0,0
100491,-33.3333333333333,4,2,5,75,0,0
100756,-66.6666666666667,4,2,3,75,0,0
101020,-100,4,2,1,75,0,0
101285,-66.6666666666667,4,2,3,75,0,0
101550,-57.1428571428571,4,2,6,75,0,0
101815,-57.1428571428571,4,2,3,75,0,0
102079,-57.1428571428571,4,2,1,75,0,0
102344,-57.1428571428571,4,2,3,75,0,0
102609,-57.1428571428571,4,2,7,75,0,0
102873,-57.1428571428571,4,2,3,75,0,0
103138,-57.1428571428571,4,2,1,75,0,0
103403,-200,4,2,3,75,0,0
103668,-200,4,2,5,75,0,0
103932,-200,4,2,3,75,0,0
104197,-200,4,2,1,75,0,0
104462,-200,4,2,3,75,0,0
104726,-200,4,2,7,75,0,0
104991,-200,4,2,3,75,0,0
105256,-200,4,2,5,75,0,0
105521,-200,4,2,3,75,0,0
105785,-50,4,2,8,90,0,0
106050,-40,4,2,3,90,0,0
106315,-33.3333333333333,4,2,6,90,0,0
106513,-33.3333333333333,4,2,0,5,0,0
106579,-50,4,2,3,90,0,0
106844,-35.0877192982456,4,2,9,90,0,0
107109,-35.0877192982456,4,2,2,90,0,0
107307,-35.0877192982456,4,2,0,5,0,0
107374,-66.6666666666667,4,2,6,90,0,0
107638,-100,4,2,4,90,0,0
107903,-1000,4,2,10,90,0,0
108168,-1000,4,2,2,90,0,0
108432,-133.333333333333,4,2,6,90,0,0
108697,-133.333333333333,4,2,3,90,0,0
108962,-114.285714285714,4,2,7,90,0,0
109227,-114.285714285714,4,2,3,90,0,0
109491,-31.7460317460317,4,2,7,90,0,0
109756,-31.7460317460317,4,2,5,90,0,0
109954,-31.7460317460317,4,2,0,5,0,0
110021,-100,4,2,4,90,0,0
110285,-66.6666666666667,4,2,3,90,0,0
110550,-66.6666666666667,4,2,6,90,0,0
110815,-100,4,2,3,90,0,0
111080,-1000,4,2,9,90,0,0
111344,-1000,4,2,2,90,0,0
111609,-50,4,2,6,90,0,0
111807,-50,4,2,0,5,0,0
111874,-40,4,2,4,90,0,0
112138,-33.3333333333333,4,2,6,90,0,0
112403,-25,4,2,2,90,0,0
112668,-66.6666666666667,4,2,6,90,0,0
112933,-50,4,2,3,90,0,0
113197,-50,4,2,7,90,0,0
113462,-40,4,2,3,90,0,0
113727,-1000,4,2,8,90,0,0
113991,-1000,4,2,5,90,0,0
114190,-1000,4,2,0,5,0,0
114256,-33.3333333333333,4,2,4,90,0,0
114455,-33.3333333333333,4,2,0,5,0,0
114521,-50,4,2,3,90,0,0
114786,-28.5714285714286,4,2,6,90,0,0
114984,-28.5714285714286,4,2,0,5,0,0
115050,-27.5862068965517,4,2,3,90,0,0
115249,-27.5862068965517,4,2,0,5,0,0
115315,-80,4,2,11,90,0,0
115580,-80,4,2,2,90,0,0
115844,-100,4,2,6,90,0,0
116109,-66.6666666666667,4,2,4,90,0,0
116374,-666.666666666667,4,2,10,90,0,0
116639,-666.666666666667,4,2,2,90,0,0
116903,-666.666666666667,4,2,6,90,0,0
117168,-666.666666666667,4,2,3,90,0,0
117433,-666.666666666667,4,2,7,90,0,0
117697,-666.666666666667,4,2,3,90,0,0
117962,-40,4,2,7,90,0,0
118227,-40,4,2,5,90,0,0
118492,-66.6666666666667,4,2,4,90,0,0
118756,-100,4,2,3,90,0,0
119021,-66.6666666666667,4,2,6,90,0,0
119286,-50,4,2,3,90,0,0
119550,-1000,4,2,9,90,0,0
119815,-1000,4,2,2,90,0,0
120080,-50,4,2,6,90,0,0
120345,-28.5714285714286,4,2,4,90,0,0
120543,-28.5714285714286,4,2,0,5,0,0
120609,-16.6666666666667,4,2,6,90,0,0
120874,-16.6666666666667,4,2,2,90,0,0
121139,-66.6666666666667,4,2,6,90,0,0
121403,-100,4,2,3,90,0,0
121668,-100,4,2,7,90,0,0
121933,-66.6666666666667,4,2,3,90,0,0
122198,-666.666666666667,4,2,8,90,0,0
122462,-666.666666666667,4,2,5,90,0,0
122727,-666.666666666667,4,2,1,60,0,0
129080,-133.333333333333,4,2,1,60,0,0
130668,-33.3333333333333,4,2,10,60,0,0
131198,-40,4,2,1,60,0,0
131992,-100,4,2,1,60,0,0
134110,-66.6666666666667,4,2,1,60,0,0
135168,-50,4,2,1,60,0,0
136227,-100,4,2,1,60,0,0
136492,558.139534883721,4,2,1,60,1,0
137609,529.427336098121,4,2,1,50,1,0
137609,-133.333333333333,4,2,1,50,0,0
138666,-66.6666666666667,4,2,1,50,0,0
139140,529.427336098121,4,2,7,80,1,0
139140,-1000,4,2,7,80,0,0
139593,-1000,4,2,0,5,0,0
139670,529.427336098121,4,2,8,90,1,0
139670,-100,4,2,8,90,0,0
139933,-100,4,2,3,90,0,0
140198,-66.6666666666667,4,2,6,90,0,0
140463,-66.6666666666667,4,2,3,90,0,0
140727,-33.3333333333333,4,2,9,90,0,0
140992,-33.3333333333333,4,2,2,90,0,0
141191,-33.3333333333333,4,2,0,5,0,0
141257,-40,4,2,6,90,0,0
141455,-40,4,2,0,5,0,0
141521,-72.7272727272727,4,2,4,90,0,0
141720,-72.7272727272727,4,2,0,5,0,0
141786,-1000,4,2,10,90,0,0
142051,-1000,4,2,2,90,0,0
142316,-66.6666666666667,4,2,6,90,0,0
142580,-50,4,2,3,90,0,0
142845,-40,4,2,7,90,0,0
143110,-36.3636363636364,4,2,3,90,0,0
143308,-36.3636363636364,4,2,0,5,0,0
143374,-36.3636363636364,4,2,7,90,0,0
143573,-36.3636363636364,4,2,0,5,0,0
143639,-36.3636363636364,4,2,4,90,0,0
144169,-36.3636363636364,4,2,3,90,0,0
144433,-66.6666666666667,4,2,6,90,0,0
144698,-66.6666666666667,4,2,3,90,0,0
144963,-66.6666666666667,4,2,9,90,0,0
145227,-66.6666666666667,4,2,2,90,0,0
145492,-66.6666666666667,4,2,6,90,0,0
145757,-66.6666666666667,4,2,4,90,0,0
146022,-66.6666666666667,4,2,6,90,0,0
146286,-66.6666666666667,4,2,2,90,0,0
146551,-100,4,2,6,90,0,0
146816,-66.6666666666667,4,2,3,90,0,0
147080,-100,4,2,7,90,0,0
147345,-40,4,2,3,90,0,0
147544,-40,4,2,0,5,0,0
147610,-66.6666666666667,4,2,8,90,0,0
147875,-36.3636363636364,4,2,4,90,0,0
148073,-36.3636363636364,4,2,0,5,0,0
148139,-66.6666666666667,4,2,4,90,0,0
148404,-50,4,2,3,90,0,0
148669,-40,4,2,6,90,0,0
148933,-33.3333333333333,4,2,3,90,0,0
149198,-33.3333333333333,4,2,11,90,0,0
149463,-33.3333333333333,4,2,2,90,0,0
149661,-33.3333333333333,4,2,0,5,0,0
149728,-100,4,2,6,90,0,0
149992,-66.6666666666667,4,2,4,90,0,0
150257,-1000,4,2,10,90,0,0
150522,-1000,4,2,2,90,0,0
150786,-1000,4,2,6,90,0,0
151051,-1000,4,2,3,90,0,0
151316,-1000,4,2,7,90,0,0
151581,-1000,4,2,3,90,0,0
151845,-33.3333333333333,4,2,7,90,0,0
152110,-33.3333333333333,4,2,5,90,0,0
152375,-28.5714285714286,4,2,4,90,0,0
152573,-28.5714285714286,4,2,0,5,0,0
152639,-100,4,2,3,90,0,0
152904,-100,4,2,6,90,0,0
153169,-66.6666666666667,4,2,3,90,0,0
153434,-666.666666666667,4,2,9,90,0,0
153632,-666.666666666667,4,2,0,5,0,0
153698,-57.1428571428571,4,2,3,90,0,0
153963,-57.1428571428571,4,2,6,90,0,0
154228,-33.3333333333333,4,2,4,90,0,0
154426,-33.3333333333333,4,2,0,5,0,0
154492,-20,4,2,6,90,0,0
154757,-20,4,2,2,90,0,0
155022,-100,4,2,6,90,0,0
155287,-66.6666666666667,4,2,3,90,0,0
155551,-100,4,2,7,90,0,0
155816,-66.6666666666667,4,2,3,90,0,0
156081,-1000,4,2,8,90,0,0
156345,-1000,4,2,5,90,0,0
156610,-100,4,2,1,75,0,0
156875,-100,4,2,2,75,0,0
157007,-100,4,2,1,75,0,0
157404,-100,4,2,2,75,0,0
157669,-100,4,2,1,75,0,0
158463,-100,4,2,2,75,0,0
159125,-100,4,2,1,75,0,0
159522,-100,4,2,2,75,0,0
160051,-100,4,2,1,75,0,0
160581,-100,4,2,2,75,0,0
161243,-100,4,2,1,75,0,0
161640,-100,4,2,2,75,0,0
162169,-100,4,2,1,75,0,0
162699,-100,4,2,2,75,0,0
162963,-133.333333333333,4,2,1,75,0,0
163757,-133.333333333333,4,2,2,75,0,0
163890,-133.333333333333,4,2,1,75,0,0
164287,-133.333333333333,4,2,2,75,0,0
164353,-133.333333333333,4,2,1,75,0,0
164552,-1000,4,2,10,75,0,0
164816,-1000,4,2,1,75,0,0
165346,-1000,4,2,2,75,0,0
165478,-1000,4,2,1,75,0,0
165875,-1000,4,2,2,75,0,0
166669,-1000,4,2,1,75,0,0
166934,-1000,4,2,2,75,0,0
167199,-1000,4,2,1,75,0,0
167463,-1000,4,2,2,75,0,0
167596,-1000,4,2,1,75,0,0
167993,-1000,4,2,2,75,0,0
168787,-1000,4,2,1,75,0,0
169052,-1000,4,2,2,75,0,0
169316,-1000,4,2,1,75,0,0
169581,-1000,4,2,2,75,0,0
169714,-1000,4,2,1,75,0,0
170111,-1000,4,2,2,75,0,0
170375,-133.333333333333,4,2,2,33,0,0
170640,-114.285714285714,4,2,2,40,0,0
170905,-100,4,2,1,47,0,0
171169,-80,4,2,2,54,0,0
171434,-66.6666666666667,4,2,1,61,0,0
171699,-66.6666666666667,4,2,2,75,0,0
171964,-66.6666666666667,4,2,1,75,0,0
172228,-66.6666666666667,4,2,2,75,0,0
172493,-66.6666666666667,4,2,1,75,0,0
172758,-66.6666666666667,4,2,2,75,0,0
172824,-50,4,2,1,75,0,0
173022,-100,4,2,1,75,0,0
173287,-100,4,2,2,75,0,0
173419,-100,4,2,1,75,0,0
173552,-66.6666666666667,4,2,1,60,0,0
174081,-133.333333333333,4,2,1,60,0,0
174611,-200,4,2,1,60,0,0
175008,-80,4,2,1,60,0,0
175670,-66.6666666666667,4,2,1,60,0,0
176199,-133.333333333333,4,2,1,60,0,0
176728,-100,4,2,1,60,0,0
177523,-66.6666666666667,4,2,1,60,0,0
178317,-133.333333333333,4,2,1,60,0,0
178846,-100,4,2,1,60,0,0
179905,-66.6666666666667,4,2,1,60,0,0
180434,-133.333333333333,4,2,1,60,0,0
180964,-100,4,2,1,60,0,0
181957,-100,4,2,0,5,0,0
182023,-66.6666666666667,4,2,1,65,0,0
182552,-133.333333333333,4,2,1,65,0,0
183082,-80,4,2,1,65,0,0
184140,-66.6666666666667,4,2,1,65,0,0
184670,-133.333333333333,4,2,1,65,0,0
185199,-80,4,2,1,65,0,0
185464,-100,4,2,1,65,0,0
185993,-133.333333333333,4,2,1,65,0,0
186258,-66.6666666666667,4,2,1,65,0,0
186788,-133.333333333333,4,2,1,65,0,0
187317,-72.7272727272727,4,2,1,65,0,0
187714,-80,4,2,1,65,0,0
188376,-133.333333333333,4,2,1,65,0,0
190494,-100,4,2,1,80,0,0
190692,-100,4,2,0,5,0,0
190758,-100,4,2,1,80,0,0
190957,-100,4,2,0,5,0,0
191023,-66.6666666666667,4,2,1,80,0,0
191221,-100,4,2,0,5,0,0
191288,-66.6666666666667,4,2,1,80,0,0
191486,-100,4,2,0,5,0,0
191552,-66.6666666666667,4,2,1,80,0,0
192082,-66.6666666666667,4,2,1,80,0,0
192280,-100,4,2,0,5,0,0
192347,-66.6666666666667,4,2,1,80,0,0
192545,-100,4,2,0,5,0,0
192611,-66.6666666666667,4,2,1,80,0,0
193141,-66.6666666666667,4,2,1,80,0,0
193339,-100,4,2,0,5,0,0
193405,-66.6666666666667,4,2,1,80,0,0
193604,-100,4,2,0,5,0,0
193670,-66.6666666666667,4,2,1,80,0,0
193869,-100,4,2,0,5,0,0
193935,-50,4,2,1,80,0,0
194133,-100,4,2,0,5,0,0
194200,-50,4,2,1,80,0,0
194729,-100,4,2,1,80,0,0
194927,-100,4,2,0,5,0,0
194994,-100,4,2,1,80,0,0
195192,-100,4,2,0,5,0,0
195258,-66.6666666666667,4,2,1,80,0,0
195457,-100,4,2,0,5,0,0
195523,-66.6666666666667,4,2,1,80,0,0
195722,-100,4,2,0,5,0,0
195788,-66.6666666666667,4,2,1,80,0,0
196317,-66.6666666666667,4,2,1,80,0,0
196516,-100,4,2,0,5,0,0
196582,-66.6666666666667,4,2,1,80,0,0
196780,-100,4,2,0,5,0,0
196847,-66.6666666666667,4,2,1,80,0,0
197376,-66.6666666666667,4,2,1,80,0,0
197575,-100,4,2,0,5,0,0
197641,-66.6666666666667,4,2,1,80,0,0
197839,-100,4,2,0,5,0,0
197906,-66.6666666666667,4,2,1,80,0,0
198104,-100,4,2,0,5,0,0
198170,-50,4,2,1,80,0,0
198369,-100,4,2,0,5,0,0
198435,-50,4,2,1,80,0,0
198964,-100,4,2,1,80,0,0
199163,-100,4,2,0,5,0,0
199229,-100,4,2,1,80,0,0
199428,-100,4,2,0,5,0,0
199494,-66.6666666666667,4,2,1,80,0,0
199692,-100,4,2,0,5,0,0
199759,-66.6666666666667,4,2,1,80,0,0
199957,-100,4,2,0,5,0,0
200023,-66.6666666666667,4,2,1,80,0,0
200553,-66.6666666666667,4,2,1,80,0,0
200751,-100,4,2,0,5,0,0
200817,-66.6666666666667,4,2,1,80,0,0
201016,-100,4,2,0,5,0,0
201082,-66.6666666666667,4,2,1,80,0,0
201611,-66.6666666666667,4,2,1,80,0,0
201810,-100,4,2,0,5,0,0
201876,-66.6666666666667,4,2,1,80,0,0
202075,-100,4,2,0,5,0,0
202141,-66.6666666666667,4,2,1,80,0,0
202339,-100,4,2,0,5,0,0
202406,-50,4,2,1,80,0,0
202604,-100,4,2,0,5,0,0
202670,-50,4,2,1,80,0,0
203200,-100,4,2,1,80,0,0
203398,-100,4,2,0,5,0,0
203464,-100,4,2,1,80,0,0
203663,-100,4,2,0,5,0,0
203729,-66.6666666666667,4,2,1,80,0,0
203928,-100,4,2,0,5,0,0
203994,-66.6666666666667,4,2,1,80,0,0
204192,-100,4,2,0,5,0,0
204259,-66.6666666666667,4,2,1,80,0,0
204788,-66.6666666666667,4,2,1,80,0,0
204987,-100,4,2,0,5,0,0
205053,-66.6666666666667,4,2,1,80,0,0
205251,-100,4,2,0,5,0,0
205317,-66.6666666666667,4,2,1,80,0,0
205847,-66.6666666666667,4,2,1,80,0,0
206045,-100,4,2,0,5,0,0
206112,-66.6666666666667,4,2,1,80,0,0
206310,-100,4,2,0,5,0,0
206376,-50,4,2,1,80,0,0
206575,-100,4,2,0,5,0,0
206641,-50,4,2,1,80,0,0
206840,-100,4,2,0,5,0,0
206906,-50,4,2,1,80,0,0
207435,-50,4,2,1,55,0,0
224377,-50,4,2,1,60,0,0

[Colours]
Combo1 : 240,108,21
Combo2 : 166,166,166
Combo3 : 255,149,70
Combo4 : 117,117,117

[HitObjects]
58,384,2018,6,0,L|22:265,1,125,10|0,2:1|0:0,0:0:0:0:
21,264,2416,2,0,L|30:240,1,25,2|0,2:2|0:0,0:0:0:0:
176,226,2548,6,0,B|136:223|110:259|110:259|118:215|90:186,1,156.25,10|0,2:1|0:0,0:0:0:0:
90,186,2945,2,0,L|102:155,1,31.25,2|0,2:2|0:0,0:0:0:0:
176,305,3077,6,0,L|355:369,1,187.500007152558,10|0,2:1|0:0,0:0:0:0:
352,368,3474,2,0,L|369:325,1,37.5000014305115,2|0,2:2|0:0,0:0:0:0:
438,275,3607,6,0,B|453:303|481:309|481:309|385:332|346:235,1,218.750002086163,10|0,2:1|0:0,0:0:0:0:
349,243,4004,2,0,L|366:200,1,43.7500004172325,2|0,2:2|0:0,0:0:0:0:
504,233,4136,6,0,L|465:123,1,112.500004291535,10|2,2:1|2:2,0:0:0:0:
272,217,4665,6,0,L|290:169,1,50,10|2,2:2|2:2,0:0:0:0:
457,45,5194,6,0,L|420:57,1,37.5000014305115,8|2,2:1|2:2,0:0:0:0:
206,165,5724,6,0,L|196:141,1,25,8|2,2:2|2:2,0:0:0:0:
139,0,6253,6,0,B|147:16|147:16|110:162,1,150,10|2,2:1|2:2,0:0:0:0:
18,339,6783,6,0,L|65:321,2,50,10|2|8,2:2|2:2|2:1,0:0:0:0:
247,237,7577,6,0,B|241:261|241:261|97:220|97:220|90:244,2,200,2|10|2,2:2|2:2|2:2,0:0:0:0:
304,373,8371,6,0,B|294:321|242:311|242:311|268:238|320:258|341:336|480:181|415:77|269:110|312:199,1,450.000017166138,10|2,2:1|2:2,0:0:0:0:
374,329,8900,6,0,L|422:346,1,50,10|2,2:2|2:2,0:0:0:0:
460,138,9430,6,0,L|426:162,1,37.5000014305115,8|2,2:1|2:2,0:0:0:0:
342,56,9959,6,0,L|330:29,2,25,8|2|10,2:2|2:2|2:1,0:0:0:0:
52,357,10753,5,2,2:2:0:0:
98,290,10886,1,2,2:2:0:0:
67,381,11018,1,10,2:2:0:0:
127,186,11283,5,2,2:2:0:0:
207,172,11415,1,2,2:2:0:0:
120,214,11547,1,10,2:1:0:0:
170,39,11812,6,0,L|179:6,1,28.1250010728836,2|0,2:2|0:0,0:0:0:0:
182,0,12077,6,0,B|240:-4|262:67|262:67|158:35|107:111|107:111|228:70|279:183|229:245|145:176|216:136,1,525.000020027161,10|0,2:2|0:0,0:0:0:0:
307,134,12606,6,0,B|358:117|358:117|362:112|362:112|412:95,1,112.500004291535,10|2,2:1|2:2,0:0:0:0:
182,0,13136,6,0,L|199:48,1,50,10|2,2:2|2:2,0:0:0:0:
49,169,13665,6,0,L|9:158,1,37.5000014305115,8|2,2:1|2:2,0:0:0:0:
277,61,14195,6,0,L|294:36,1,25,8|2,2:2|2:2,0:0:0:0:
393,193,14724,6,0,L|449:333,1,150,10|2,2:1|2:2,0:0:0:0:
334,258,15253,6,0,L|285:247,1,50,10|2,2:2|2:2,0:0:0:0:
484,199,15783,5,8,2:1:0:0:
488,203,15915,2,0,L|510:162,2,37.5000014305115,0|2|0,0:0|2:2|0:0,0:0:0:0:
437,126,16312,2,0,L|424:93,3,25,8|0|2|0,2:2|0:0|2:2|0:0,0:0:0:0:
261,323,16842,6,0,B|167:354|167:354|152:380,1,112.500004291535,10|2,2:1|2:2,0:0:0:0:
285,247,17371,6,0,L|300:192,1,50,10|2,2:2|2:2,0:0:0:0:
375,76,17901,6,0,L|386:113,1,37.5000014305115,8|2,2:1|2:2,0:0:0:0:
341,306,18430,6,0,L|368:313,1,25,8|2,2:2|2:2,0:0:0:0:
452,367,18959,6,0,L|467:354,1,18.75,10|2,2:1|2:2,0:0:0:0:
466,354,19489,6,0,L|438:363,1,25,10|2,2:2|2:2,0:0:0:0:
353,244,20018,6,0,L|339:311,1,62.5,8|2,2:1|2:2,0:0:0:0:
149,250,20548,6,0,L|188:349,2,100,8|2|10,2:2|2:2|2:1,0:0:0:0:
74,13,21474,5,0,0:0:0:0:
78,17,21607,2,0,P|76:80|12:59,1,150,10|0,2:2|0:0,0:0:0:0:
131,77,21871,6,0,P|189:42|262:36,1,112.500004291535,2|0,2:2|0:0,0:0:0:0:
201,127,22136,2,0,P|249:137|291:163,1,75.0000028610231,10|0,2:1|0:0,0:0:0:0:
217,302,22401,6,0,P|180:233|117:156,2,175.00000166893,2|10|2,2:2|2:2|2:2,0:0:0:0:
404,344,23195,6,0,B|396:357|396:357|348:364|297:390|297:390|255:257|418:275|352:126,1,375,10|0,2:1|0:0,0:0:0:0:
270,83,23724,6,0,B|328:86|358:144|358:144|352:79|399:45,1,225.000008583069,10|10,2:2|2:1,0:0:0:0:
476,71,25710,1,0,0:0:0:0:
480,75,25842,1,8,2:2:0:0:
66,329,26107,6,0,B|55:387|1:331|80:290|126:313,1,112.500004291535,2|0,2:2|0:0,0:0:0:0:
102,316,26371,6,0,P|125:236|160:172,1,150,10|0,2:1|0:0,0:0:0:0:
40,239,26636,2,0,P|25:200|20:164,1,75.0000028610231,2|0,2:2|0:0,0:0:0:0:
51,69,26901,6,0,P|77:108|128:99,1,87.500000834465,10|0,2:2|0:0,0:0:0:0:
157,259,27166,2,0,P|205:257|229:206,1,100,2|0,2:2|0:0,0:0:0:0:
383,357,27430,6,0,B|369:351|369:351|365:258|307:195|307:195|315:171,1,200,10|2,2:1|2:3,0:0:0:0:
401,232,27827,2,0,B|435:263|435:263|354:234,1,112.500004291535,0|10,0:0|2:2,0:0:0:0:
315,186,28224,6,0,B|300:198|294:220|294:220|158:154|257:-109|533:-29|496:179|401:182|364:166|359:115|413:136,1,500,2|2,2:2|2:3,0:0:0:0:
500,92,29019,6,0,P|461:108|497:85,1,125,10|0,2:2|0:0,0:0:0:0:
389,137,29283,2,0,P|327:103|179:64,1,187.500004470348,2|10,2:2|2:1,0:0:0:0:
414,14,29813,6,0,P|399:33|376:41,1,50,2|0,2:2|0:0,0:0:0:0:
200,173,30077,6,0,B|186:124|158:146|141:97,1,100,10|0,2:2|0:0,0:0:0:0:
290,40,30342,6,0,P|299:62|294:87,1,50,2|0,2:2|0:0,0:0:0:0:
124,199,30607,6,0,P|91:207|31:242,1,75.0000028610231,10|0,2:1|0:0,0:0:0:0:
102,361,30872,2,0,P|124:314|164:261,1,100,2|0,2:2|0:0,0:0:0:0:
68,133,31136,6,0,B|37:104|-23:154|8:225|80:241,1,150,10|0,2:2|0:0,0:0:0:0:
151,274,31401,2,0,P|198:296|251:336,1,100,2|0,2:2|0:0,0:0:0:0:
374,278,31666,6,0,B|395:208|469:220|460:222|454:229|547:269|591:172|571:62|422:65|421:160,1,375,10|0,2:1|0:0,0:0:0:0:
482,207,32195,6,0,P|511:130|436:142,1,187.5,10|0,2:2|0:0,0:0:0:0:
288,79,32725,6,0,B|227:99|291:281|416:232|348:60|287:79,1,300,10|0,2:1|0:0,0:0:0:0:
170,75,33254,6,0,B|129:61|171:-58|254:-26|209:87|169:75,1,200,10|10,2:2|2:1,0:0:0:0:
109,16,34181,1,0,0:0:0:0:
113,20,34313,1,8,2:2:0:0:
0,144,34578,6,0,P|19:182|29:217,1,62.5,2|0,2:2|0:0,0:0:0:0:
102,224,34842,2,0,P|112:253|127:280,1,62.5,10|0,2:1|0:0,0:0:0:0:
0,338,35107,6,0,P|21:288|62:284,1,75.0000028610231,2|0,2:2|0:0,0:0:0:0:
116,144,35372,2,0,P|155:151|174:204,1,87.500000834465,10|0,2:2|0:0,0:0:0:0:
78,350,35636,6,0,P|197:312|298:290,1,200,2|8,2:2|2:1,0:0:0:0:
274,299,36166,6,0,P|245:266|245:230,1,75.0000028610231,2|0,2:2|0:0,0:0:0:0:
360,157,36431,2,0,P|337:194|321:235,1,87.500000834465,10|0,2:2|0:0,0:0:0:0:
219,139,36695,6,0,P|276:120|220:141,1,187.5,2|0,2:2|0:0,0:0:0:0:
0,82,37225,6,0,L|7:105,2,25,2|10|2,2:2|2:2|2:3,0:0:0:0:
111,0,38019,6,0,L|80:151,1,150.000005722046,10|0,2:1|0:0,0:0:0:0:
128,257,38284,6,0,L|176:109,1,125,2|0,2:2|0:0,0:0:0:0:
265,131,38548,6,0,L|222:221,1,100,10|0,2:2|0:0,0:0:0:0:
244,321,38813,6,0,L|280:275,1,50,2|10,2:2|2:1,0:0:0:0:
274,281,39342,6,0,L|145:365,1,150.000005722046,2|0,2:2|0:0,0:0:0:0:
43,303,39607,6,0,L|156:266,1,100,10|0,2:2|0:0,0:0:0:0:
246,208,39872,6,0,L|194:216,1,50,2|10,2:2|2:1,0:0:0:0:
197,216,40401,6,0,L|349:246,1,150.000005722046,2|0,2:2|0:0,0:0:0:0:
453,213,40666,6,0,L|361:162,1,100,10|0,2:2|0:0,0:0:0:0:
385,72,40931,6,0,L|428:111,1,50,2|10,2:2|2:1,0:0:0:0:
422,105,41460,6,0,L|376:40,1,75.0000028610231,2|0,2:2|0:0,0:0:0:0:
365,164,41725,6,0,L|425:283,1,100,10|0,2:2|0:0,0:0:0:0:
296,122,41990,6,0,L|270:-2,1,125,2|0,2:2|0:0,0:0:0:0:
231,206,42254,6,0,L|221:385,1,150.000005722046,10|0,2:1|0:0,0:0:0:0:
65,104,42519,6,0,L|86:46,1,56.2500021457673,2|0,2:2|0:0,0:0:0:0:
95,55,42784,2,0,L|51:110,1,56.2500021457673,10|0,2:2|0:0,0:0:0:0:
50,91,43048,2,0,L|108:65,1,56.2500021457673,2|0,2:2|0:0,0:0:0:0:
109,78,43313,2,0,L|42:81,1,56.2500021457673,10|0,2:1|0:0,0:0:0:0:
54,68,43578,6,0,L|161:96,1,100,2|0,2:2|0:0,0:0:0:0:
201,220,43843,6,0,L|69:145,1,125,10|0,2:2|0:0,0:0:0:0:
165,0,44107,6,0,L|295:116,1,150.000005722046,2|0,2:2|0:0,0:0:0:0:
375,320,44372,6,0,L|259:168,1,175.00000166893,10|0,2:1|0:0,0:0:0:0:
318,0,44637,6,0,L|411:185,1,200,2|0,2:2|0:0,0:0:0:0:
467,384,44901,6,0,L|451:322,1,56.2500021457673,10|0,2:2|0:0,0:0:0:0:
464,327,45166,2,0,L|459:385,1,56.2500021457673,2|0,2:2|0:0,0:0:0:0:
447,381,45431,2,0,L|479:324,1,56.2500021457673,10|0,2:1|0:0,0:0:0:0:
483,341,45696,2,0,L|436:373,1,56.2500021457673,2|0,2:2|0:0,0:0:0:0:
480,249,45960,5,10,2:2:0:0:
476,238,46093,1,0,0:0:0:0:
472,227,46225,1,2,2:3:0:0:
395,11,46490,6,0,L|445:153,1,150.000005722046,10|0,2:1|0:0,0:0:0:0:
483,341,46754,6,0,L|412:212,1,125,2|0,2:2|0:0,0:0:0:0:
284,151,47019,6,0,L|353:244,1,100,10|0,2:2|0:0,0:0:0:0:
351,346,47284,6,0,L|316:307,1,50,2|10,2:2|2:1,0:0:0:0:
317,308,47813,6,0,L|444:389,1,150.000005722046,2|0,2:2|0:0,0:0:0:0:
343,231,48078,6,0,L|228:176,1,100,10|0,2:2|0:0,0:0:0:0:
160,115,48343,6,0,L|216:123,1,50,2|10,2:2|2:1,0:0:0:0:
209,122,48872,6,0,L|29:127,1,150.000005722046,2|0,2:2|0:0,0:0:0:0:
0,237,49137,6,0,L|125:195,1,100,10|0,2:2|0:0,0:0:0:0:
70,298,49402,6,0,L|29:342,1,50,2|10,2:2|2:1,0:0:0:0:
35,334,49931,6,0,L|47:306,1,25,2|0,2:2|0:0,0:0:0:0:
130,298,50196,6,0,L|108:396,1,75.0000028610231,10|0,2:2|0:0,0:0:0:0:
221,382,50460,6,0,L|210:262,1,100,2|0,2:2|0:0,0:0:0:0:
287,237,50725,6,0,L|349:415,1,150.000005722046,10|0,2:1|0:0,0:0:0:0:
430,314,50990,6,0,L|377:228,1,100,2|0,2:2|0:0,0:0:0:0:
331,115,51255,6,0,L|381:151,1,56.2500021457673,10|0,2:2|0:0,0:0:0:0:
382,139,51519,2,0,L|314:121,1,56.2500021457673,2|0,2:2|0:0,0:0:0:0:
325,138,51784,2,0,L|398:127,1,56.2500021457673,10|0,2:1|0:0,0:0:0:0:
376,119,52049,6,0,L|290:170,1,100,2|0,2:2|0:0,0:0:0:0:
189,332,52313,6,0,L|293:244,1,125,10|0,2:2|0:0,0:0:0:0:
437,168,52578,6,0,L|340:311,1,150.000005722046,2|10,2:2|2:1,0:0:0:0:
55,84,52975,5,0,0:0:0:0:
59,88,53108,2,0,B|-9:3|-9:3|200:80,1,281.250006705523,2|0,2:2|0:0,0:0:0:0:
164,66,53372,6,0,L|187:131,1,50,10|0,2:2|0:0,0:0:0:0:
241,42,53637,2,0,L|264:107,1,50,2|0,2:2|0:0,0:0:0:0:
474,83,53902,6,0,B|416:234|416:234|468:260,1,200,10|2,2:1|2:2,0:0:0:0:
346,63,54431,2,0,B|338:133|338:133|369:139,1,100,10|2,2:2|2:2,0:0:0:0:
31,289,54961,6,0,B|40:271|40:271|140:270|203:202|203:202|225:203,1,225.000008583069,10|0,2:1|0:0,0:0:0:0:
304,224,55225,6,0,P|323:214|303:221,1,62.5,2|0,2:2|0:0,0:0:0:0:
71,380,55490,6,0,B|93:381|93:381|156:313|256:312|256:312|265:294,1,225.000008583069,10|0,2:2|0:0,0:0:0:0:
304,224,55755,6,0,P|323:214|303:221,1,62.5,10|0,2:3|0:0,0:0:0:0:
442,384,56019,6,2,B|340:350|340:350|333:337|333:337|391:166|391:166|486:197|486:197|494:214|494:214|444:374,1,560,10|0,2:1|0:0,0:1:0:0:
411,286,56549,6,0,L|398:219,1,50,10|0,2:2|0:0,0:0:0:0:
483,215,56814,2,0,L|426:144,1,75.0000028610231,2|0,2:3|0:0,0:0:0:0:
222,58,57078,6,0,L|226:43,1,15,10|0,2:1|0:0,0:0:0:0:
131,151,57608,6,0,P|174:152|208:117,1,75.0000028610231,10|0,2:2|0:0,0:0:0:0:
298,9,57872,2,0,P|349:23|370:85,1,100,10|0,2:3|0:0,0:0:0:0:
131,151,58137,6,0,P|191:145|235:186,1,125,10|0,2:1|0:0,0:0:0:0:
300,361,58402,2,0,P|369:375|400:312,1,150.000005722046,2|0,2:2|0:0,0:0:0:0:
280,115,58667,6,2,B|297:143|290:174|290:174|215:141|104:198|129:368|235:391|357:374|389:247|329:166|247:167,1,525.00000500679,10|0,2:2|0:0,0:1:0:0:
253,248,59196,6,0,B|160:267|119:374|119:374|87:388,1,225.000008583069,10|0,2:1|0:0,0:0:0:0:
19,350,59461,2,0,P|11:326|-1:299,1,50,2|0,2:2|0:0,0:0:0:0:
68,258,59725,6,0,P|100:290|138:287,1,75,10|0,2:2|0:0,0:0:0:0:
269,140,59990,2,0,P|267:49|197:107,1,225.000008583069,10|0,2:3|0:0,0:0:0:0:
25,105,60255,6,0,L|18:83,1,22.4999993133545,10|0,2:1|0:0,0:0:0:0:
75,28,60784,6,0,L|141:51,1,52.4999983978272,10|0,2:2|0:0,0:0:0:0:
133,211,61049,2,0,L|206:184,1,75.0000028610231,2|0,2:3|0:0,0:0:0:0:
357,354,61314,6,0,B|381:308|404:335|428:284,2,100,10|0|0,2:1|0:0|0:0,0:0:0:0:
436,203,61711,1,0,0:0:0:0:
440,207,61843,6,0,P|433:231|443:209,1,75.0000028610231,10|0,2:2|0:0,0:0:0:0:
374,68,62108,2,0,P|364:142|382:69,1,225.000008583069,10|0,2:3|0:0,0:0:0:0:
239,167,62373,6,0,P|271:176|241:162,1,100,10|0,2:1|0:0,0:0:0:0:
148,28,62637,2,0,P|165:108|157:26,1,250,2|0,2:2|0:0,0:0:0:0:
469,34,62902,6,0,L|476:12,1,22.4999993133545,10|0,2:2|0:0,0:0:0:0:
374,68,63431,6,0,B|382:111|382:111|391:119|391:119|447:112|447:112|455:119|455:119|491:280,1,262.500002503395,10|0,2:1|0:0,0:0:0:0:
424,334,63696,6,0,P|432:314|428:335,1,62.5,2|0,2:2|0:0,0:0:0:0:
344,293,63961,6,0,B|324:282|298:285|298:285|247:217|334:128|424:205|395:272,1,262.500002503395,10|0,2:2|0:0,0:0:0:0:
424,334,64226,6,0,P|432:314|428:335,1,62.5,10|0,2:3|0:0,0:0:0:0:
201,231,64490,6,2,B|147:223|109:268|109:268|170:153|347:203|316:366,1,450.000017166138,10|0,2:1|0:0,0:1:0:0:
103,380,65020,6,0,B|83:326|59:355|38:303,1,100,10|0,2:2|0:0,0:0:0:0:
156,133,65284,2,0,B|179:61|179:61|148:131,1,137.500001311302,2|0,2:3|0:0,0:0:0:0:
184,318,65549,6,0,L|179:333,1,15,10|0,2:1|0:0,0:0:0:0:
275,384,66078,6,0,P|280:340|253:307,1,75.0000028610231,10|0,2:2|0:0,0:0:0:0:
373,287,66343,2,0,P|328:242|283:244,1,100,10|0,2:3|0:0,0:0:0:0:
88,81,66608,6,0,L|126:199,1,125,10|0,2:1|0:0,0:0:0:0:
13,108,66873,2,0,L|52:229,1,125,2|0,2:2|0:0,0:0:0:0:
247,163,67137,6,2,P|286:-5|240:161,1,525.000020027161,10|0,2:2|0:0,0:1:0:0:
298,104,67667,6,0,L|313:41,1,50,10|0,2:1|0:0,0:0:0:0:
400,71,67931,2,0,L|372:-12,1,75.0000028610231,2|0,2:2|0:0,0:0:0:0:
230,40,68196,6,0,L|215:103,1,50,10|0,2:2|0:0,0:0:0:0:
128,73,68461,2,0,L|156:156,1,75.0000028610231,10|0,2:3|0:0,0:0:0:0:
429,265,68726,6,0,L|450:258,1,22.4999993133545,10|0,2:1|0:0,0:0:0:0:
435,352,69255,6,0,L|336:316,1,75.0000028610231,10|0,2:2|0:0,0:0:0:0:
305,168,69520,2,0,L|197:207,1,100,2|0,2:3|0:0,0:0:0:0:
46,349,69784,6,0,L|-37:318,2,50,10|0|0,2:1|0:0|0:0,0:0:0:0:
121,321,70182,1,0,0:0:0:0:
125,325,70314,6,0,P|156:298|151:241,1,75.0000028610231,10|0,2:2|0:0,0:0:0:0:
9,105,70579,2,0,P|41:142|90:149,1,100,10|0,2:3|0:0,0:0:0:0:
305,168,70843,6,0,L|347:50,1,125,10|0,2:1|0:0,0:0:0:0:
272,24,71108,2,0,L|230:142,1,125,2|0,2:2|0:0,0:0:0:0:
161,266,71373,6,0,L|147:261,1,15,10|0,2:2|0:0,0:0:0:0:
164,270,71902,5,2,2:2:0:0:
213,330,72299,5,2,2:2:0:0:
274,281,72432,5,2,2:2:0:0:
347,310,72696,5,2,2:2:0:0:
375,236,72961,5,2,2:2:0:0:
453,226,73226,5,2,2:2:0:0:
440,148,73490,5,2,2:2:0:0:
501,100,73755,5,2,2:2:0:0:
451,39,74020,5,2,2:2:0:0:
501,100,74417,5,2,2:2:0:0:
440,148,74549,5,2,2:2:0:0:
453,226,74814,5,2,2:2:0:0:
375,236,75079,5,2,2:2:0:0:
347,310,75343,5,2,2:2:0:0:
274,281,75476,1,2,2:2:0:0:
213,330,75608,1,10,2:2:0:0:
164,270,75741,1,2,0:0:0:0:
87,282,75873,1,2,2:2:0:0:
75,205,76138,5,10,2:1:0:0:
264,183,76535,1,2,2:2:0:0:
268,187,76667,1,10,2:2:0:0:
9,162,76932,1,2,2:2:0:0:
182,153,77196,5,10,2:1:0:0:
204,230,77461,1,2,2:2:0:0:
411,198,77726,5,10,2:2:0:0:
413,185,77991,1,2,2:2:0:0:
508,205,78255,5,10,2:1:0:0:
34,152,78652,1,2,2:2:0:0:
38,156,78785,1,10,2:2:0:0:
18,231,79049,1,2,2:2:0:0:
267,189,79314,5,8,2:1:0:0:
343,208,79579,1,2,2:3:0:0:
322,131,79844,1,10,2:2:0:0:
287,265,80108,1,2,2:2:0:0:
424,174,80373,5,10,2:1:0:0:
498,205,80770,1,2,2:2:0:0:
502,209,80902,1,10,2:2:0:0:
322,131,81167,5,2,2:2:0:0:
174,201,81432,5,10,2:1:0:0:
169,188,81697,1,2,2:2:0:0:
11,232,81961,5,10,2:2:0:0:
32,155,82226,1,2,2:2:0:0:
242,244,82491,5,10,2:1:0:0:
201,115,82755,1,2,2:2:0:0:
298,188,83020,1,10,2:2:0:0:
431,169,83285,6,0,L|446:122,1,50,2|8,2:2|2:1,0:0:0:0:
495,229,83814,2,0,L|510:182,1,50,2|8,2:2|2:2,0:0:0:0:
220,277,84344,5,2,2:2:0:0:
175,106,84608,1,10,2:1:0:0:
87,194,84873,5,2,2:2:0:0:
85,207,85138,1,10,2:2:0:0:
431,169,85403,6,0,L|446:122,1,50,2|8,2:2|2:1,0:0:0:0:
495,229,85932,2,0,L|510:182,1,50,2|8,2:2|2:2,0:0:0:0:
0,217,86461,5,2,2:2:0:0:
4,221,86726,1,10,2:1:0:0:
8,225,86991,1,2,2:2:0:0:
219,199,87256,5,10,2:2:0:0:
431,169,87520,6,0,L|446:122,1,50,2|0,2:2|0:0,0:0:0:0:
495,229,88050,6,0,L|510:182,1,50,2|0,2:2|0:0,0:0:0:0:
431,169,88314,6,0,L|401:102,1,62.5,2|0,2:2|0:0,0:0:0:0:
343,164,88579,6,0,L|270:138,1,75.0000028610231,2|0,2:2|0:0,0:0:0:0:
22,52,88844,6,0,L|65:68,1,37.5000014305115,10|0,2:1|0:0,0:0:0:0:
122,14,89109,2,0,L|141:55,1,37.5000014305115,2|0,2:2|0:0,0:0:0:0:
217,62,89373,2,0,L|200:104,1,37.5000014305115,10|0,2:2|0:0,0:0:0:0:
146,306,89638,6,0,B|17:318|-56:118|139:0|240:156|200:273|77:268|56:210,1,450.000017166138,2|0,2:2|0:0,0:0:0:0:
89,241,90167,6,0,P|80:217|63:178,1,50,2|0,2:2|0:0,0:0:0:0:
226,321,90432,2,0,P|216:344|207:367,1,50,10|0,2:2|0:0,0:0:0:0:
0,322,90697,6,0,B|75:169|239:204|239:204|252:250|295:272,1,375,2|0,2:2|0:0,0:0:0:0:
292,272,91226,6,0,P|311:230|337:213,1,75.0000028610231,2|0,2:2|0:0,0:0:0:0:
411,343,91491,2,0,P|383:320|370:285,1,75.0000028610231,10|0,2:2|0:0,0:0:0:0:
406,46,91756,6,0,B|446:44|486:17|486:17|412:222,1,300,2|0,2:2|0:0,0:0:0:0:
486,290,92285,6,0,L|452:279,1,25,2|0,2:2|0:0,0:0:0:0:
347,99,92550,2,0,P|331:80|329:56,1,50,10|0,2:2|0:0,0:0:0:0:
363,282,92815,2,0,P|336:256|277:266,1,75.0000028610231,2|0,2:2|0:0,0:0:0:0:
51,221,93079,6,0,L|337:163,1,262.500002503395,10|0,2:1|0:0,0:0:0:0:
312,172,93609,5,10,2:2:0:0:
297,163,93873,1,2,2:2:0:0:
266,201,94138,1,10,2:1:0:0:
153,174,94403,5,2,2:2:0:0:
125,248,94668,1,10,2:2:0:0:
51,221,94932,1,2,2:2:0:0:
312,172,95197,5,10,2:1:0:0:
51,221,95462,1,2,2:2:0:0:
312,172,95991,5,2,2:2:0:0:
51,221,96256,1,10,2:1:0:0:
390,153,96521,5,2,2:2:0:0:
260,111,96785,2,0,B|165:73|178:-103|304:-14|251:61|165:16,1,262.500002503395,10|0,2:2|0:0,0:0:0:0:
138,92,97315,6,0,P|124:107|93:163,1,75.0000028610231,10|0,2:1|0:0,0:0:0:0:
123,362,97579,2,0,P|72:340|84:279,1,112.500004291535,2|0,2:2|0:0,0:0:0:0:
82,279,97844,2,0,P|129:272|155:306,1,75.0000028610231,10|0,2:2|0:0,0:0:0:0:
202,345,98109,6,0,P|288:204|280:369,1,450.000017166138,2|0,2:2|0:0,0:0:0:0:
348,328,98638,6,0,P|371:306|376:273,1,50,2|0,2:2|0:0,0:0:0:0:
451,263,98903,2,0,P|436:223|402:202,1,75.0000028610231,10|0,2:2|0:0,0:0:0:0:
419,381,99168,6,0,B|344:216|457:94|457:94|451:35|395:27|395:27|425:60|410:114,1,450.000017166138,2|0,2:2|0:0,0:0:0:0:
348,107,99697,6,0,L|271:77,1,75.0000028610231,2|0,2:2|0:0,0:0:0:0:
204,49,99962,2,0,B|181:-12|181:-12|216:27,1,112.500004291535,10|0,2:2|0:0,0:0:0:0:
282,67,100227,6,0,B|-17:174|-17:174|45:127|58:25,1,450.000017166138,2|0,2:2|0:0,0:0:0:0:
141,13,100756,6,0,P|131:36|137:11,1,75.0000028610231,2|0,2:2|0:0,0:0:0:0:
86,186,101021,6,0,L|63:250,1,50,10|0,2:2|0:0,0:0:0:0:
151,235,101285,2,0,L|185:308,1,75.0000028610231,2|0,2:2|0:0,0:0:0:0:
219,374,101550,6,0,L|245:104,1,262.500002503395,10|0,2:1|0:0,0:0:0:0:
248,116,102080,5,10,2:2:0:0:
237,133,102344,1,2,2:2:0:0:
274,203,102874,5,2,2:2:0:0:
207,247,103138,1,10,2:2:0:0:
219,374,103403,2,0,L|230:319,1,50,2|10,2:2|2:1,0:0:0:0:
381,357,103933,5,2,2:2:0:0:
385,361,104197,1,10,2:2:0:0:
389,365,104462,1,2,2:2:0:0:
437,302,104727,5,10,2:1:0:0:
441,306,104991,1,2,2:2:0:0:
512,342,105256,5,10,2:2:0:0:
441,306,105786,6,0,P|416:262|441:177,1,100,10|0,2:1|0:0,0:0:0:0:
468,65,106050,2,0,P|397:97|419:167,1,125,2|0,2:2|0:0,0:0:0:0:
493,245,106315,6,0,P|427:192|290:154,1,225.000008583069,10|0,2:2|0:0,0:0:0:0:
282,157,106580,2,0,P|276:123|286:156,1,100,10|0,2:3|0:0,0:0:0:0:
204,222,106844,6,2,B|159:203|113:140|148:-1|300:-15|449:108|345:254|243:243|251:237|262:228|208:216|187:288,1,498.750004756451,10|0,2:1|0:0,0:1:0:0:
263,309,107374,6,0,L|362:341,1,75.0000028610231,10|0,2:2|0:0,0:0:0:0:
355,255,107639,2,0,L|412:241,1,50,2|0,2:3|0:0,0:0:0:0:
120,308,107903,6,0,L|104:311,1,15,10|0,2:1|0:0,0:0:0:0:
50,255,108433,6,0,L|6:245,1,37.5000014305115,10|0,2:2|0:0,0:0:0:0:
106,30,108697,2,0,L|69:21,1,37.5000014305115,10|0,2:3|0:0,0:0:0:0:
146,102,108962,6,0,L|102:112,1,43.7500004172325,10|0,2:1|0:0,0:0:0:0:
206,365,109227,2,0,L|164:375,1,43.7500004172325,2|0,2:2|0:0,0:0:0:0:
234,151,109492,6,2,B|211:97|211:97|57:34|57:34|5:50|5:50|0:61|0:61|23:111|23:111|179:174|179:174|240:148,1,551.250016297102,10|0,2:2|0:0,0:1:0:0:
221,72,110021,6,0,L|243:23,1,50,10|0,2:1|0:0,0:0:0:0:
318,50,110286,2,0,L|306:148,1,75.0000028610231,2|0,2:2|0:0,0:0:0:0:
221,234,110550,6,0,L|212:159,1,75.0000028610231,10|0,2:2|0:0,0:0:0:0:
124,212,110815,2,0,L|145:257,1,50,10|0,2:3|0:0,0:0:0:0:
280,353,111080,6,0,L|276:368,1,15,10|0,2:1|0:0,0:0:0:0:
354,383,111609,6,0,B|333:374|333:374|316:298|239:275,1,150,10|0,2:2|0:0,0:0:0:0:
183,246,111874,2,0,P|194:284|185:245,1,125,2|0,2:3|0:0,0:0:0:0:
388,248,112139,6,0,B|378:288|354:270|343:303,2,75.0000028610231,10|0|0,2:1|0:0|0:0,0:0:0:0:
308,217,112536,1,0,0:0:0:0:
312,221,112668,6,0,P|282:185|273:150,1,75.0000028610231,10|0,2:2|0:0,0:0:0:0:
309,68,112933,2,0,P|274:103|263:156,1,100,10|0,2:3|0:0,0:0:0:0:
449,172,113198,6,0,P|389:168|345:136,1,100,10|0,2:1|0:0,0:0:0:0:
237,25,113462,2,0,P|229:86|268:161,1,125,2|0,2:2|0:0,0:0:0:0:
419,336,113727,6,0,L|437:332,1,17.5,10|0,2:2|0:0,0:0:0:0:
506,374,114256,6,0,L|283:308,1,225.000008583069,10|0,2:1|0:0,0:0:0:0:
281,305,114521,2,0,B|264:333|236:336|236:336|265:345|286:325,1,100,2|0,2:2|0:0,0:0:0:0:
361,156,114786,6,0,B|409:194|394:254|394:254|367:168|280:139,1,262.500002503395,10|0,2:2|0:0,0:0:0:0:
283,142,115051,2,0,L|4:223,1,271.875004537404,10|0,2:3|0:0,0:0:0:0:
72,154,115315,6,2,B|148:128|167:234|240:207,1,187.5,10|0,2:1|0:0,0:1:0:0:
163,311,115845,6,0,P|147:292|136:269,1,50,10|0,2:2|0:0,0:0:0:0:
71,370,116109,2,0,P|59:328|63:283,1,75.0000028610231,2|0,2:3|0:0,0:0:0:0:
174,89,116374,6,0,L|167:67,1,22.4999993133545,10|0,2:1|0:0,0:0:0:0:
102,23,116904,5,10,2:2:0:0:
321,102,117168,1,10,2:3:0:0:
46,79,117433,5,10,2:1:0:0:
354,29,117698,1,2,2:2:0:0:
190,384,117962,6,2,B|147:224|282:172|282:172|225:217|249:298,1,375,10|0,2:2|0:0,0:1:0:0:
309,321,118492,6,0,L|407:288,1,75.0000028610231,10|0,2:1|0:0,0:0:0:0:
445,187,118757,2,0,L|496:204,1,50,2|0,2:2|0:0,0:0:0:0:
492,202,119021,6,0,L|420:225,1,75.0000028610231,10|0,2:2|0:0,0:0:0:0:
321,102,119286,2,0,L|223:69,1,100,10|0,2:3|0:0,0:0:0:0:
455,10,119551,6,0,L|469:5,1,15,10|0,2:1|0:0,0:0:0:0:
347,2,120080,6,0,B|363:56|385:24|401:84,1,100,10|0,2:2|0:0,0:0:0:0:
278,264,120345,2,0,P|311:186|282:265,1,262.500002503395,2|0,2:3|0:0,0:0:0:0:
223,326,120610,6,0,P|201:282|218:327,2,150.000005722046,10|0|0,2:1|0:0|0:0,0:0:0:0:
461,371,121007,1,0,0:0:0:0:
465,375,121139,6,0,L|489:302,1,75.0000028610231,10|0,2:2|0:0,0:0:0:0:
108,309,121404,2,0,L|87:246,1,50,10|0,2:3|0:0,0:0:0:0:
404,309,121668,6,0,L|424:246,1,50,10|0,2:1|0:0,0:0:0:0:
47,375,121933,2,0,L|23:302,1,75.0000028610231,2|0,2:2|0:0,0:0:0:0:
261,334,122198,6,0,L|254:358,1,22.4999993133545,10|0,2:2|0:0,0:0:0:0:
258,359,122727,5,10,2:1:0:0:
315,275,122992,1,2,2:2:0:0:
319,279,123124,1,2,2:2:0:0:
323,283,123257,5,10,2:2:0:0:
192,235,123521,1,2,2:2:0:0:
196,239,123654,1,2,2:2:0:0:
200,243,123786,5,10,2:1:0:0:
373,171,124051,1,2,2:2:0:0:
377,175,124183,1,2,2:2:0:0:
381,179,124316,5,10,2:2:0:0:
92,75,124580,1,2,2:2:0:0:
96,79,124713,1,2,2:2:0:0:
167,45,124845,5,10,2:1:0:0:
238,11,125110,1,2,2:2:0:0:
242,15,125242,1,2,2:2:0:0:
167,45,125374,5,10,2:2:0:0:
46,5,125639,1,2,2:2:0:0:
50,9,125771,1,2,2:2:0:0:
167,45,125904,5,10,2:1:0:0:
284,81,126169,1,2,2:2:0:0:
288,85,126301,1,2,2:2:0:0:
167,45,126433,5,10,2:2:0:0:
0,249,126698,1,2,2:2:0:0:
4,253,126830,1,2,2:2:0:0:
79,280,126963,5,10,2:1:0:0:
137,226,127227,1,2,2:2:0:0:
141,230,127360,1,2,2:2:0:0:
267,162,127492,5,10,2:2:0:0:
357,272,127757,1,2,2:2:0:0:
361,276,127889,1,2,2:2:0:0:
373,353,128021,5,10,2:1:0:0:
449,378,128286,1,2,2:2:0:0:
453,382,128419,1,2,2:2:0:0:
482,230,128551,5,10,2:2:0:0:
362,36,128816,1,2,2:2:0:0:
366,40,128948,1,2,2:2:0:0:
424,95,129080,6,0,L|408:141,1,37.5000014305115,10|0,2:1|0:0,0:0:0:0:
155,5,129477,2,0,L|143:41,1,37.5000014305115,2|10,2:2|2:2,0:0:0:0:
32,74,129874,6,0,L|34:91,1,18.7500007152558,2|0,2:2|0:0,0:0:0:0:
111,114,130007,6,0,L|104:130,1,18.7500007152558,2|0,2:2|0:0,0:0:0:0:
158,188,130139,6,0,L|144:199,1,18.7500007152558,10|0,2:1|0:0,0:0:0:0:
161,277,130272,6,0,L|143:279,1,18.7500007152558,2|0,2:2|0:0,0:0:0:0:
119,355,130404,6,0,L|102:348,1,18.7500007152558,2|0,2:2|0:0,0:0:0:0:
29,315,130669,6,0,L|471:212,1,450.000017166138,10|0,2:2|0:0,0:0:0:0:
414,274,131198,6,0,B|352:272|316:340|316:340|329:267|277:230,1,250,10|2,2:1|2:2,0:0:0:0:
358,197,131595,1,2,2:2:0:0:
362,201,131727,1,10,2:2:0:0:
480,135,131992,6,0,P|439:108|438:56,1,100,2|10,2:2|2:1,0:0:0:0:
292,133,132522,5,2,2:2:0:0:
296,137,132654,1,2,2:2:0:0:
300,141,132786,1,10,2:2:0:0:
270,14,133051,6,0,P|229:41|228:93,1,100,2|10,2:2|2:1,0:0:0:0:
45,334,133580,5,2,2:2:0:0:
49,338,133713,1,2,2:2:0:0:
53,342,133845,1,10,2:2:0:0:
0,267,134110,6,0,P|33:196|60:115,1,150.000005722046,2|10,2:2|2:1,0:0:0:0:
170,376,134639,5,2,2:2:0:0:
174,380,134772,1,2,2:2:0:0:
178,384,134904,1,10,2:2:0:0:
178,201,135169,6,0,P|136:112|103:11,1,200,2|10,2:2|2:1,0:0:0:0:
315,246,135698,5,2,2:2:0:0:
319,250,135831,1,2,2:2:0:0:
323,254,135963,1,10,2:2:0:0:
431,128,136228,6,0,P|406:181|394:227,1,100,2|10,2:2|2:1,0:0:0:0:
451,345,136771,5,2,2:2:0:0:
455,349,136910,1,2,2:2:0:0:
459,353,137050,1,10,2:2:0:0:
245,138,137609,6,0,B|256:189|256:189|260:192|260:192|272:245,1,112.500004291535,2|2,2:2|2:2,0:0:0:0:
246,321,138403,5,2,2:2:0:0:
250,325,138535,1,2,2:2:0:0:
254,329,138667,2,0,L|242:376,6,37.5000014305115,2|2|2|2|2|2|0,2:2|2:2|2:2|2:2|2:2|2:2|0:0,0:0:0:0:
272,245,139140,6,0,L|268:230,1,15,2|0,2:2|0:0,0:0:0:0:
191,92,139670,6,0,L|171:22,1,50,10|0,2:1|0:0,0:0:0:0:
321,7,139934,2,0,L|334:55,1,50,2|0,2:2|0:0,0:0:0:0:
163,167,140199,6,0,L|184:240,1,75.0000028610231,10|0,2:2|0:0,0:0:0:0:
359,223,140464,2,0,L|337:296,1,75.0000028610231,10|0,2:3|0:0,0:0:0:0:
224,356,140728,6,2,B|218:344|218:344|239:157|239:157|248:149|248:149|276:157|309:156|309:156|315:166|315:166|293:355|293:355|284:364|284:364|248:354|207:360,1,525.000020027161,10|0,2:1|0:0,0:1:0:0:
174,296,141258,6,0,P|156:237|179:294,1,187.5,10|0,2:2|0:0,0:0:0:0:
75,330,141522,2,0,P|64:363|78:331,1,103.125000983477,2|0,2:3|0:0,0:0:0:0:
0,283,141787,6,0,L|-5:268,1,15,10|0,2:1|0:0,0:0:0:0:
50,210,142317,6,0,P|87:173|92:130,1,75.0000028610231,10|0,2:2|0:0,0:0:0:0:
0,0,142581,2,0,P|31:57|39:91,1,100,10|0,2:3|0:0,0:0:0:0:
50,210,142846,6,0,P|76:121|150:112,1,125,10|0,2:1|0:0,0:0:0:0:
230,0,143111,6,0,B|255:68|328:86|328:86|337:124|303:145,1,206.250001966953,2|0,2:2|0:0,0:0:0:0:
225,162,143375,2,0,B|185:157|177:119|177:119|235:71|229:0,1,206.250001966953,10|0,2:2|0:0,0:0:0:0:
362,13,143640,6,0,B|308:260|308:260|333:313,1,275.000002622604,2|10,2:3|2:1,0:0:0:0:
440,24,144170,5,2,2:2:0:0:
444,28,144302,1,0,0:0:0:0:
448,32,144434,2,2,B|459:67|427:98|392:87|392:87|330:67|262:129|293:229|393:238|425:181|425:181|458:121|558:130|589:247|507:284|463:266|473:265|476:252|408:261|418:326|418:326|444:345|447:376,1,750.000028610231,10|2,2:2|2:3,0:1:0:0:
252,220,146023,6,0,L|263:183,2,37.5000014305115,10|0|0,2:1|0:0|0:0,0:0:0:0:
123,332,146420,1,0,0:0:0:0:
127,336,146552,6,0,L|81:353,1,50,10|0,2:2|0:0,0:0:0:0:
71,275,146817,2,0,L|-7:251,1,75.0000028610231,10|0,2:3|0:0,0:0:0:0:
202,364,147081,6,0,L|248:347,1,50,10|0,2:1|0:0,0:0:0:0:
71,197,147346,6,0,B|26:145|67:84|67:84|107:89|138:61,1,187.5,2|0,2:2|0:0,0:0:0:0:
176,155,147611,2,0,B|147:175|147:175|175:115,1,75.0000028610231,10|0,2:2|0:0,0:0:0:0:
19,7,147876,6,0,B|30:24|30:24|265:83,1,206.250001966953,2|0,2:3|0:0,0:0:0:0:
412,104,148140,6,0,P|390:46|376:20,1,75.0000028610231,10|0,2:1|0:0,0:0:0:0:
477,149,148405,2,0,P|454:185|393:175,1,100,2|0,2:2|0:0,0:0:0:0:
237,278,148670,6,0,B|295:264|295:264|299:266|299:266|377:247,1,125,10|0,2:2|0:0,0:0:0:0:
476,355,148934,2,0,B|437:351|412:389|412:389|426:349|402:320,1,150.000005722046,10|0,2:3|0:0,0:0:0:0:
253,118,149199,6,2,B|262:167|233:158|238:189|238:189|309:195|388:276|319:435|141:393|150:263|150:263|165:251|172:236,1,525.000020027161,10|0,2:1|0:0,0:1:0:0:
99,200,149729,6,0,P|84:165|71:142,1,50,10|0,2:2|0:0,0:0:0:0:
33,44,149993,2,0,P|80:66|109:84,1,75.0000028610231,2|0,2:3|0:0,0:0:0:0:
52,348,150258,6,0,L|47:362,1,15,10|0,2:1|0:0,0:0:0:0:
5,278,150787,5,10,2:2:0:0:
9,282,151052,1,10,2:3:0:0:
213,233,151317,5,10,2:1:0:0:
217,237,151582,1,2,2:2:0:0:
415,174,151846,6,2,B|410:189|410:189|507:289|507:289|503:299|503:299|297:227|297:227|292:189|261:171,1,450.000017166138,10|0,2:2|0:0,1:0:0:0:
329,117,152376,6,0,P|356:36|325:116,1,262.500002503395,10|0,2:1|0:0,0:0:0:0:
404,96,152640,2,0,P|412:72|424:45,1,50,2|0,2:2|0:0,0:0:0:0:
242,0,152905,6,0,P|253:34|258:59,1,50,10|0,2:2|0:0,0:0:0:0:
415,174,153170,2,0,P|400:210|383:266,1,75.0000028610231,10|0,2:3|0:0,0:0:0:0:
124,362,153435,6,0,L|121:373,1,11.2499996566773,10|0,2:1|0:0,0:0:0:0:
110,282,153699,6,0,P|112:239|136:204,1,87.500000834465,2|0,2:2|0:0,0:0:0:0:
185,311,153964,2,0,P|210:275|212:232,1,87.500000834465,10|0,2:2|0:0,0:0:0:0:
21,215,154229,6,0,B|32:201|32:201|161:206|208:117,1,225.000008583069,2|0,2:3|0:0,0:0:0:0:
213,105,154493,6,0,P|206:63|220:103,2,125,10|0|0,2:1|0:0|0:0,0:0:0:0:
143,2,154891,1,0,0:0:0:0:
147,6,155023,6,0,L|95:25,1,50,10|0,2:2|0:0,0:0:0:0:
99,110,155288,2,0,L|16:71,1,75.0000028610231,10|0,2:3|0:0,0:0:0:0:
270,168,155552,6,0,L|322:187,1,50,10|0,2:1|0:0,0:0:0:0:
318,272,155817,2,0,L|400:233,1,75.0000028610231,2|0,2:2|0:0,0:0:0:0:
489,59,156082,6,0,L|483:46,1,15,10|0,2:2|0:0,0:0:0:0:
413,82,156611,5,10,2:1:0:0:
92,34,157008,1,2,2:2:0:0:
96,38,157141,5,10,2:2:0:0:
28,79,157405,1,2,2:2:0:0:
96,38,158199,5,10,2:2:0:0:
28,79,158464,1,2,2:2:0:0:
92,34,159126,1,2,2:2:0:0:
96,38,159258,5,10,2:2:0:0:
11,157,159523,1,2,2:2:0:0:
96,38,160317,5,10,2:2:0:0:
45,229,160582,1,2,2:2:0:0:
354,313,161244,1,2,2:2:0:0:
358,317,161376,5,10,2:2:0:0:
431,287,161641,1,2,2:2:0:0:
358,317,162435,5,10,2:2:0:0:
479,351,162700,1,2,2:2:0:0:
369,238,162964,6,0,L|352:201,1,37.5000014305115,10|0,2:1|0:0,0:0:0:0:
152,326,163361,2,0,L|135:289,1,37.5000014305115,2|8,2:2|2:2,0:0:0:0:
385,111,163758,6,0,L|379:129,1,18.7500007152558,2|0,2:2|0:0,0:0:0:0:
448,63,163891,2,0,L|467:60,1,18.7500007152558,2|0,2:2|0:0,0:0:0:0:
375,33,164023,2,0,L|363:19,6,18.7500007152558,10|2|2|2|2|2|2,2:1|2:2|2:2|2:2|2:2|2:2|2:2,0:0:0:0:
189,153,164553,6,0,L|180:186,1,20,10|10,2:2|2:1,0:0:0:0:
141,339,165479,1,2,2:2:0:0:
145,343,165611,5,10,2:2:0:0:
219,317,165876,1,2,2:2:0:0:
145,343,166670,5,10,2:2:0:0:
119,269,166935,1,2,2:2:0:0:
141,339,167597,1,2,2:2:0:0:
145,343,167729,5,10,2:2:0:0:
293,291,167994,1,2,2:2:0:0:
145,343,168788,5,10,2:2:0:0:
67,121,169053,1,2,2:2:0:0:
418,0,169715,1,2,2:2:0:0:
422,4,169847,5,10,2:2:0:0:
496,32,170112,1,2,2:2:0:0:
466,103,170376,6,0,L|424:123,1,37.5000014305115,8|0,2:1|0:0,0:0:0:0:
466,103,170641,2,0,L|442:152,1,43.7500004172325,2|0,2:2|0:0,0:0:0:0:
512,256,170906,6,0,L|483:205,1,50,10|0,2:2|0:0,0:0:0:0:
512,256,171170,2,0,L|442:225,1,62.5,2|0,2:2|0:0,0:0:0:0:
320,343,171435,6,0,L|235:372,1,75.0000028610231,10|0,2:1|0:0,0:0:0:0:
383,193,171700,2,0,L|298:222,1,75.0000028610231,2|0,2:2|0:0,0:0:0:0:
198,306,171965,6,0,L|113:335,1,75.0000028610231,10|0,2:2|0:0,0:0:0:0:
261,156,172229,2,0,L|176:185,1,75.0000028610231,2|0,2:2|0:0,0:0:0:0:
76,269,172494,6,0,L|-9:298,1,75.0000028610231,10|0,2:1|0:0,0:0:0:0:
27,82,172726,5,2,2:2:0:0:
31,85,172825,2,0,B|85:97|60:123|114:135,1,100,2|0,2:2|0:0,0:0:0:0:
126,134,173023,6,0,P|137:97|152:68,1,50,10|2,2:2|2:2,0:0:0:0:
0,158,173288,2,0,P|9:181|15:205,1,50,2|2,2:2|2:2,0:0:0:0:
229,83,173553,6,0,P|186:23|223:88,1,225.000008583069,10|0,2:1|0:0,0:0:0:0:
264,12,174082,2,0,L|344:-9,1,75.0000028610231,10|0,2:1|0:0,0:0:0:0:
152,162,174612,6,0,L|185:173,1,25,10|0,2:1|0:0,0:0:0:0:
102,257,174876,1,2,2:2:0:0:
106,261,175009,2,0,P|85:226|90:196,1,62.5,2|8,2:2|2:1,0:0:0:0:
183,282,175406,2,0,P|202:246|231:235,1,62.5,2|0,2:2|0:0,0:0:0:0:
364,165,175671,6,0,P|424:122|360:159,1,225.000008583069,10|0,2:1|0:0,0:0:0:0:
463,107,176200,2,0,P|474:68|487:30,1,75.0000028610231,10|0,2:1|0:0,0:0:0:0:
312,42,176729,6,0,P|317:79|340:99,1,50,10|0,2:1|0:0,0:0:0:0:
261,190,176994,2,0,P|290:212|321:210,2,50,2|2|8,2:2|2:2|2:1,0:0:0:0:
425,367,177524,2,0,P|385:364|351:406,1,75.0000028610231,2|0,2:2|0:0,0:0:0:0:
282,300,177788,6,0,P|325:360|289:296,1,225.000008583069,10|0,2:1|0:0,0:0:0:0:
366,285,178318,2,0,B|381:251|398:264|410:227,1,75.0000028610231,10|0,2:1|0:0,0:0:0:0:
174,342,178847,6,0,L|187:293,1,50,10|0,2:1|0:0,0:0:0:0:
14,300,179112,1,2,2:2:0:0:
18,304,179244,2,0,L|31:255,1,50,2|8,2:2|2:1,0:0:0:0:
80,372,179641,2,0,L|95:319,1,50,2|0,2:2|0:0,0:0:0:0:
147,218,179906,6,0,P|87:261|152:225,1,225.000008583069,10|0,2:1|0:0,0:0:0:0:
83,171,180435,2,0,P|59:143|61:104,1,75.0000028610231,10|0,2:1|0:0,0:0:0:0:
333,214,180965,6,0,P|297:226|263:275,1,100,10|2,2:1|2:2,0:0:0:0:
187,293,181362,2,0,P|209:334|231:342,1,50,2|8,2:2|2:1,0:0:0:0:
382,384,181759,2,0,P|379:343|401:309,1,75,2|0,2:2|0:0,0:0:0:0:
405,309,182024,6,0,L|333:80,1,225.000008583069,10|0,2:1|0:0,0:0:0:0:
395,150,182553,2,0,L|469:168,1,75.0000028610231,10|0,2:1|0:0,0:0:0:0:
322,16,183083,6,0,L|249:-1,1,62.5,10|0,2:1|0:0,0:0:0:0:
415,73,183347,1,2,2:2:0:0:
419,77,183480,2,0,B|426:47|426:47|401:27,1,62.5,2|8,2:2|2:1,0:0:0:0:
227,81,183877,2,0,B|220:111|220:111|245:131,1,62.5,2|0,2:2|0:0,0:0:0:0:
255,363,184141,6,0,L|255:134,1,225.000008583069,10|0,2:1|0:0,0:0:0:0:
215,207,184671,2,0,L|203:292,1,75.0000028610231,10|0,2:1|0:0,0:0:0:0:
55,103,185200,6,0,L|91:47,1,62.5,10|0,2:1|0:0,0:0:0:0:
106,165,185465,2,0,L|64:195,2,50,2|2|8,2:2|2:2|2:1,0:0:0:0:
37,268,185994,2,0,L|-12:277,1,37.5000014305115,2|0,2:2|0:0,0:0:0:0:
107,309,186259,6,0,L|179:80,1,225.000008583069,10|2,2:1|2:2,0:0:0:0:
186,174,186789,2,0,P|196:216|233:234,1,75.0000028610231,10|0,2:1|0:0,0:0:0:0:
483,274,187318,6,0,B|459:301|465:337|465:337|448:303|411:298,1,137.500001311302,10|2,2:1|2:2,0:0:0:0:
425,221,187715,2,0,P|437:192|430:150,1,62.5,2|8,2:2|2:1,0:0:0:0:
355,148,188112,2,0,P|343:177|347:208,1,62.5,2|0,2:2|0:0,0:0:0:0:
475,93,188377,6,0,L|458:49,1,37.5000014305115,10|0,2:1|0:0,0:0:0:0:
266,166,188774,2,0,L|249:122,1,37.5000014305115,2|8,2:2|2:1,0:0:0:0:
40,339,189171,5,2,2:2:0:0:
44,343,189303,1,2,2:2:0:0:
48,347,189436,2,0,L|58:319,6,18.7500007152558,10|2|2|2|2|2|2,2:1|2:2|2:2|2:2|2:2|2:2|2:2,0:0:0:0:
82,256,189965,5,10,2:1:0:0:
16,184,190495,6,0,P|53:185|77:155,1,75,10|0,2:1|0:0,0:0:0:0:
153,138,190759,2,0,P|172:106|158:70,1,75,2|0,2:2|0:0,0:0:0:0:
16,184,191024,6,0,P|67:174|108:223,1,112.500004291535,10|0,2:2|0:0,0:0:0:0:
186,211,191289,2,0,P|220:250|198:310,1,112.500004291535,10|0,2:3|0:0,0:0:0:0:
232,380,191553,1,10,2:1:0:0:
16,184,192083,6,0,P|67:174|108:223,1,112.500004291535,10|0,2:2|0:0,0:0:0:0:
186,211,192348,2,0,P|220:250|198:310,1,112.500004291535,2|0,2:3|0:0,0:0:0:0:
232,380,192612,1,10,2:1:0:0:
12,180,193009,1,2,2:2:0:0:
16,184,193142,6,0,P|67:174|108:223,1,112.500004291535,10|0,2:2|0:0,0:0:0:0:
186,211,193406,2,0,P|220:250|198:310,1,112.500004291535,10|0,2:3|0:0,0:0:0:0:
331,366,193671,6,0,P|296:326|318:266,1,112.500004291535,10|0,2:1|0:0,0:0:0:0:
286,199,193936,2,0,P|310:140|329:54,1,150,2|0,2:2|0:0,0:0:0:0:
388,3,194201,5,10,2:2:0:0:
512,260,194730,6,0,P|472:237|445:248,1,75,10|0,2:1|0:0,0:0:0:0:
412,176,194995,2,0,P|372:198|369:228,1,75,2|0,2:2|0:0,0:0:0:0:
512,260,195259,6,0,P|469:288|393:291,1,112.500004291535,10|0,2:2|0:0,0:0:0:0:
375,365,195524,2,0,P|324:355|269:303,1,112.500004291535,10|0,2:3|0:0,0:0:0:0:
199,304,195789,1,10,2:1:0:0:
512,260,196318,6,0,P|469:288|393:291,1,112.500004291535,10|0,2:2|0:0,0:0:0:0:
375,365,196583,2,0,P|324:355|269:303,1,112.500004291535,2|0,2:3|0:0,0:0:0:0:
199,304,196848,1,10,2:1:0:0:
508,256,197245,1,0,0:0:0:0:
512,260,197377,6,0,P|469:288|393:291,1,112.500004291535,10|0,2:2|0:0,0:0:0:0:
375,365,197642,2,0,P|324:355|269:303,1,112.500004291535,10|0,2:3|0:0,0:0:0:0:
199,304,197907,6,0,P|196:254|167:183,1,112.500004291535,10|0,2:1|0:0,0:0:0:0:
240,149,198171,2,0,P|213:84|168:147,1,150,2|0,2:2|0:0,0:0:0:0:
99,165,198436,5,10,2:2:0:0:
488,64,198965,6,0,P|474:109|439:120,1,75,10|0,2:1|0:0,0:0:0:0:
385,75,199230,2,0,P|392:40|422:20,1,75,2|0,2:2|0:0,0:0:0:0:
488,64,199495,6,0,P|418:85|374:114,1,112.500004291535,10|0,2:2|0:0,0:0:0:0:
308,86,199760,2,0,P|291:157|294:209,1,112.500004291535,10|0,2:3|0:0,0:0:0:0:
236,252,200024,1,10,2:1:0:0:
488,64,200554,6,0,P|418:85|374:114,1,112.500004291535,10|0,2:2|0:0,0:0:0:0:
308,86,200818,2,0,P|291:157|294:209,1,112.500004291535,2|0,2:3|0:0,0:0:0:0:
236,252,201083,1,10,2:1:0:0:
484,60,201480,1,2,2:2:0:0:
488,64,201612,6,0,P|418:85|374:114,1,112.500004291535,10|0,2:2|0:0,0:0:0:0:
308,86,201877,2,0,P|291:157|294:209,1,112.500004291535,10|0,2:3|0:0,0:0:0:0:
236,252,202142,6,0,P|185:217|135:223,1,112.500004291535,10|0,2:1|0:0,0:0:0:0:
78,169,202407,2,0,P|70:112|137:56,1,150,2|0,2:2|0:0,0:0:0:0:
191,0,202671,5,10,2:2:0:0:
4,351,203201,6,0,P|44:340|61:311,1,75,10|0,2:1|0:0,0:0:0:0:
139,313,203465,2,0,P|138:273|111:251,1,75,2|0,2:2|0:0,0:0:0:0:
4,351,203730,6,0,P|60:358|115:390,1,112.500004291535,10|0,2:2|0:0,0:0:0:0:
187,377,203995,2,0,P|245:366|296:337,1,112.500004291535,10|0,2:3|0:0,0:0:0:0:
325,267,204260,1,10,2:1:0:0:
4,351,204789,6,0,P|60:358|115:390,1,112.500004291535,10|0,2:2|0:0,0:0:0:0:
187,377,205054,2,0,P|245:366|296:337,1,112.500004291535,2|0,2:3|0:0,0:0:0:0:
325,267,205318,1,10,2:1:0:0:
0,347,205716,1,2,2:2:0:0:
4,351,205848,6,0,P|60:358|115:390,1,112.500004291535,10|0,2:2|0:0,0:0:0:0:
187,377,206113,2,0,P|245:366|296:337,1,112.500004291535,10|0,2:3|0:0,0:0:0:0:
325,267,206377,6,0,P|306:204|362:147,1,150,10|0,2:1|0:0,0:0:0:0:
353,68,206642,2,0,P|417:83|438:160,1,150,2|0,2:2|0:0,0:0:0:0:
508,200,206907,5,10,2:2:0:0:
512,204,207436,1,10,2:1:0:0:
