osu file format v14

[General]
AudioFilename: audio.mp3
AudioLeadIn: 0
PreviewTime: 52538
Countdown: 0
SampleSet: Normal
StackLeniency: 0.7
Mode: 1
LetterboxInBreaks: 0
WidescreenStoryboard: 1

[Editor]
Bookmarks: 25360,33708,52490,69186,73360,90056,98403,115099,131795,135969,152664,169360,186056
DistanceSpacing: 0.8
BeatDivisor: 4
GridSize: 32
TimelineZoom: 1.1

[Metadata]
Title:Circus
TitleUnicode:Circus
Artist:Britney Spears
ArtistUnicode:Britney Spears
Creator:Arach
Version:Oni
Source:
Tags:britney jean spears womanizer english pop female vocals vized
BeatmapID:2763445
BeatmapSetID:1331535

[Difficulty]
HPDrainRate:6
CircleSize:5
OverallDifficulty:5
ApproachRate:5
SliderMultiplier:1.4
SliderTickRate:1

[Events]
//Background and Video events
0,0,"backg1.jpg",0,35
//Break Periods
2,561,3334
//Storyboard Layer 0 (Background)
//Storyboard Layer 1 (Fail)
//Storyboard Layer 2 (Pass)
//Storyboard Layer 3 (Foreground)
//Storyboard Layer 4 (Overlay)
//Storyboard Sound Samples

[TimingPoints]
361,521.739130434783,4,1,0,90,1,0
4795,-100,4,1,0,50,0,0
8056,-100,4,1,0,90,0,0
52534,-100,4,1,0,90,0,1
69230,-100,4,1,0,90,0,0
115143,-100,4,1,0,90,0,1
131839,-100,4,1,0,90,0,0
152708,-100,4,1,0,90,0,1
186100,-100,4,1,0,90,0,0

[HitObjects]
256,192,361,5,4,0:0:0:0:
256,192,4534,5,0,0:0:0:0:
256,192,4795,12,0,7926,0:0:0:0:
256,192,8187,5,8,0:0:0:0:
256,192,8708,1,4,0:0:0:0:
256,192,9230,1,8,0:0:0:0:
256,192,9491,1,0,0:0:0:0:
256,192,10013,1,0,0:0:0:0:
256,192,10274,1,8,0:0:0:0:
256,192,10534,1,0,0:0:0:0:
256,192,10795,1,0,0:0:0:0:
256,192,11317,1,8,0:0:0:0:
256,192,12100,1,0,0:0:0:0:
256,192,12361,1,8,0:0:0:0:
256,192,12621,1,8,0:0:0:0:
256,192,12882,1,0,0:0:0:0:
256,192,13404,1,8,0:0:0:0:
256,192,13665,1,0,0:0:0:0:
256,192,14187,1,8,0:0:0:0:
256,192,14317,1,0,0:0:0:0:
256,192,14447,1,8,0:0:0:0:
256,192,14708,1,8,0:0:0:0:
256,192,14969,1,0,0:0:0:0:
256,192,15491,1,8,0:0:0:0:
256,192,15752,1,0,0:0:0:0:
256,192,16274,1,0,0:0:0:0:
256,192,16534,1,8,0:0:0:0:
256,192,16795,1,8,0:0:0:0:
256,192,17056,1,4,0:0:0:0:
256,192,17578,1,8,0:0:0:0:
256,192,17839,1,8,0:0:0:0:
256,192,18361,1,0,0:0:0:0:
256,192,18621,1,8,0:0:0:0:
256,192,18882,1,0,0:0:0:0:
256,192,19143,1,0,0:0:0:0:
256,192,19665,1,8,0:0:0:0:
256,192,19926,1,0,0:0:0:0:
256,192,20447,1,8,0:0:0:0:
256,192,20708,1,8,0:0:0:0:
256,192,20969,1,0,0:0:0:0:
256,192,21230,1,8,0:0:0:0:
256,192,21752,1,8,0:0:0:0:
256,192,22013,1,0,0:0:0:0:
256,192,22534,1,8,0:0:0:0:
256,192,22795,1,8,0:0:0:0:
256,192,23056,1,0,0:0:0:0:
256,192,23317,1,0,0:0:0:0:
256,192,23839,1,8,0:0:0:0:
256,192,24100,1,8,0:0:0:0:
256,192,24230,1,8,0:0:0:0:
256,192,24361,1,8,0:0:0:0:
256,192,24882,1,8,0:0:0:0:
256,192,25143,1,0,0:0:0:0:
256,192,25404,1,4,0:0:0:0:
256,192,25926,1,8,0:0:0:0:
256,192,26187,1,0,0:0:0:0:
256,192,26708,1,8,0:0:0:0:
256,192,26839,1,8,0:0:0:0:
256,192,26969,1,8,0:0:0:0:
256,192,27230,1,8,0:0:0:0:
256,192,27491,1,0,0:0:0:0:
256,192,28013,1,8,0:0:0:0:
256,192,28274,1,8,0:0:0:0:
256,192,28404,1,8,0:0:0:0:
256,192,28534,1,0,0:0:0:0:
256,192,28795,1,8,0:0:0:0:
256,192,29056,1,8,0:0:0:0:
256,192,29317,1,0,0:0:0:0:
256,192,29578,1,4,0:0:0:0:
256,192,30100,1,8,0:0:0:0:
256,192,30361,1,0,0:0:0:0:
256,192,30882,1,8,0:0:0:0:
256,192,31013,1,8,0:0:0:0:
256,192,31143,1,8,0:0:0:0:
256,192,31404,1,0,0:0:0:0:
256,192,31665,1,0,0:0:0:0:
256,192,32187,1,8,0:0:0:0:
256,192,32317,1,0,0:0:0:0:
256,192,32447,1,8,0:0:0:0:
256,192,32708,1,8,0:0:0:0:
256,192,33230,1,8,0:0:0:0:
256,192,33491,1,0,0:0:0:0:
256,192,33752,1,4,0:0:0:0:
256,192,34795,1,8,0:0:0:0:
256,192,35056,1,8,0:0:0:0:
256,192,35317,1,8,0:0:0:0:
256,192,35578,1,0,0:0:0:0:
256,192,35839,1,8,0:0:0:0:
256,192,36361,1,0,0:0:0:0:
256,192,36621,1,8,0:0:0:0:
256,192,36882,1,8,0:0:0:0:
256,192,37143,1,0,0:0:0:0:
256,192,37404,1,0,0:0:0:0:
256,192,37665,1,8,0:0:0:0:
256,192,37926,1,0,0:0:0:0:
256,192,38969,1,8,0:0:0:0:
256,192,39491,1,8,0:0:0:0:
256,192,40013,1,8,0:0:0:0:
256,192,40274,1,0,0:0:0:0:
256,192,40534,1,0,0:0:0:0:
256,192,40795,1,8,0:0:0:0:
256,192,41056,1,8,0:0:0:0:
256,192,41317,1,0,0:0:0:0:
256,192,41578,1,8,0:0:0:0:
256,192,42100,1,4,0:0:0:0:
256,192,43143,1,8,0:0:0:0:
256,192,43404,1,0,0:0:0:0:
256,192,43665,1,8,0:0:0:0:
256,192,43926,1,8,0:0:0:0:
256,192,44187,1,0,0:0:0:0:
256,192,44708,1,8,0:0:0:0:
256,192,44969,1,8,0:0:0:0:
256,192,45230,1,0,0:0:0:0:
256,192,45491,1,0,0:0:0:0:
256,192,45752,1,8,0:0:0:0:
256,192,46013,1,8,0:0:0:0:
256,192,46274,1,0,0:0:0:0:
256,192,47578,1,8,0:0:0:0:
256,192,47839,1,0,0:0:0:0:
256,192,48100,1,8,0:0:0:0:
256,192,48361,1,8,0:0:0:0:
256,192,48621,1,0,0:0:0:0:
256,192,48882,1,8,0:0:0:0:
256,192,49404,1,8,0:0:0:0:
256,192,49665,1,0,0:0:0:0:
256,192,49926,1,8,0:0:0:0:
256,192,50187,1,0,0:0:0:0:
256,192,50447,1,0,0:0:0:0:
256,192,52534,1,4,0:0:0:0:
256,192,52795,1,8,0:0:0:0:
256,192,52926,1,0,0:0:0:0:
256,192,53056,1,8,0:0:0:0:
256,192,53317,1,8,0:0:0:0:
256,192,53578,1,0,0:0:0:0:
256,192,53839,1,0,0:0:0:0:
256,192,53969,1,0,0:0:0:0:
256,192,54100,1,8,0:0:0:0:
256,192,54230,1,8,0:0:0:0:
256,192,54361,1,8,0:0:0:0:
256,192,54621,1,0,0:0:0:0:
256,192,54882,1,8,0:0:0:0:
256,192,55013,1,0,0:0:0:0:
256,192,55143,1,0,0:0:0:0:
256,192,55404,1,8,0:0:0:0:
256,192,55665,1,0,0:0:0:0:
256,192,56187,1,8,0:0:0:0:
256,192,56317,1,8,0:0:0:0:
256,192,56447,1,8,0:0:0:0:
256,192,56708,1,4,0:0:0:0:
256,192,56969,1,8,0:0:0:0:
256,192,57100,1,0,0:0:0:0:
256,192,57230,1,8,0:0:0:0:
256,192,57491,1,8,0:0:0:0:
256,192,57752,1,0,0:0:0:0:
256,192,58013,1,0,0:0:0:0:
256,192,58143,1,0,0:0:0:0:
256,192,58274,1,8,0:0:0:0:
256,192,58404,1,8,0:0:0:0:
256,192,58534,1,8,0:0:0:0:
256,192,58795,1,0,0:0:0:0:
256,192,59056,1,8,0:0:0:0:
256,192,59187,1,0,0:0:0:0:
256,192,59317,1,8,0:0:0:0:
256,192,59578,1,8,0:0:0:0:
256,192,59839,1,0,0:0:0:0:
256,192,60361,1,8,0:0:0:0:
256,192,60491,1,8,0:0:0:0:
256,192,60621,1,8,0:0:0:0:
256,192,60882,1,4,0:0:0:0:
256,192,61143,1,0,0:0:0:0:
256,192,61274,1,0,0:0:0:0:
256,192,61404,1,8,0:0:0:0:
256,192,61665,1,8,0:0:0:0:
256,192,61926,1,8,0:0:0:0:
256,192,62056,1,8,0:0:0:0:
256,192,62187,1,0,0:0:0:0:
256,192,62447,1,0,0:0:0:0:
256,192,62708,1,8,0:0:0:0:
256,192,62839,1,8,0:0:0:0:
256,192,62969,1,8,0:0:0:0:
256,192,63230,1,0,0:0:0:0:
256,192,63491,1,8,0:0:0:0:
256,192,63752,1,0,0:0:0:0:
256,192,63882,1,0,0:0:0:0:
256,192,64013,1,8,0:0:0:0:
256,192,64534,1,8,0:0:0:0:
256,192,64795,1,0,0:0:0:0:
256,192,65056,1,4,0:0:0:0:
256,192,65317,1,8,0:0:0:0:
256,192,65447,1,0,0:0:0:0:
256,192,65578,1,8,0:0:0:0:
256,192,65708,1,0,0:0:0:0:
256,192,65839,1,8,0:0:0:0:
256,192,66100,1,8,0:0:0:0:
256,192,66361,1,0,0:0:0:0:
256,192,66491,1,0,0:0:0:0:
256,192,66621,1,8,0:0:0:0:
256,192,66752,1,8,0:0:0:0:
256,192,66882,1,0,0:0:0:0:
256,192,67143,1,0,0:0:0:0:
256,192,67404,1,8,0:0:0:0:
256,192,67534,1,0,0:0:0:0:
256,192,67665,1,8,0:0:0:0:
256,192,67926,1,8,0:0:0:0:
256,192,68187,1,0,0:0:0:0:
256,192,68708,1,8,0:0:0:0:
256,192,68839,1,8,0:0:0:0:
256,192,68969,1,8,0:0:0:0:
256,192,69230,1,4,0:0:0:0:
256,192,69752,1,8,0:0:0:0:
256,192,71317,1,0,0:0:0:0:
256,192,71839,1,8,0:0:0:0:
256,192,72621,1,8,0:0:0:0:
256,192,72882,1,8,0:0:0:0:
256,192,73143,1,8,0:0:0:0:
256,192,73404,1,4,0:0:0:0:
256,192,73926,1,8,0:0:0:0:
256,192,74187,1,0,0:0:0:0:
256,192,74447,1,8,0:0:0:0:
256,192,74969,1,8,0:0:0:0:
256,192,75491,1,0,0:0:0:0:
256,192,76013,1,8,0:0:0:0:
256,192,76274,1,0,0:0:0:0:
256,192,76795,1,0,0:0:0:0:
256,192,77056,1,8,0:0:0:0:
256,192,77317,1,0,0:0:0:0:
256,192,77578,1,0,0:0:0:0:
256,192,78100,1,8,0:0:0:0:
256,192,78361,1,8,0:0:0:0:
256,192,78882,1,0,0:0:0:0:
256,192,79013,1,0,0:0:0:0:
256,192,79143,1,8,0:0:0:0:
256,192,79404,1,8,0:0:0:0:
256,192,79665,1,0,0:0:0:0:
256,192,80187,1,8,0:0:0:0:
256,192,80447,1,0,0:0:0:0:
256,192,80969,1,0,0:0:0:0:
256,192,81230,1,8,0:0:0:0:
256,192,81491,1,8,0:0:0:0:
256,192,81752,1,4,0:0:0:0:
256,192,82274,1,8,0:0:0:0:
256,192,82534,1,8,0:0:0:0:
256,192,82795,1,0,0:0:0:0:
256,192,83317,1,8,0:0:0:0:
256,192,83578,1,0,0:0:0:0:
256,192,83839,1,0,0:0:0:0:
256,192,84361,1,8,0:0:0:0:
256,192,84621,1,0,0:0:0:0:
256,192,85143,1,8,0:0:0:0:
256,192,85404,1,8,0:0:0:0:
256,192,85665,1,0,0:0:0:0:
256,192,85926,1,8,0:0:0:0:
256,192,86447,1,12,0:0:0:0:
256,192,86708,1,0,0:0:0:0:
256,192,87230,1,8,0:0:0:0:
256,192,87752,1,0,0:0:0:0:
256,192,88013,1,4,0:0:0:0:
256,192,88534,1,8,0:0:0:0:
256,192,89317,1,0,0:0:0:0:
256,192,89578,1,8,0:0:0:0:
256,192,89839,1,0,0:0:0:0:
256,192,90100,1,4,0:0:0:0:
256,192,90621,1,8,0:0:0:0:
256,192,90882,1,0,0:0:0:0:
256,192,91404,1,8,0:0:0:0:
256,192,91534,1,8,0:0:0:0:
256,192,91665,1,8,0:0:0:0:
256,192,91926,1,8,0:0:0:0:
256,192,92187,1,0,0:0:0:0:
256,192,92447,1,0,0:0:0:0:
256,192,92578,1,0,0:0:0:0:
256,192,92708,1,8,0:0:0:0:
256,192,92969,1,8,0:0:0:0:
256,192,93100,1,8,0:0:0:0:
256,192,93230,1,0,0:0:0:0:
256,192,93752,1,8,0:0:0:0:
256,192,94013,1,0,0:0:0:0:
256,192,94274,1,0,0:0:0:0:
256,192,94795,1,8,0:0:0:0:
256,192,95056,1,0,0:0:0:0:
256,192,95578,1,8,0:0:0:0:
256,192,95708,1,8,0:0:0:0:
256,192,95839,1,8,0:0:0:0:
256,192,96100,1,0,0:0:0:0:
256,192,96361,1,0,0:0:0:0:
256,192,96882,1,8,0:0:0:0:
256,192,97013,1,0,0:0:0:0:
256,192,97143,1,8,0:0:0:0:
256,192,97404,1,8,0:0:0:0:
256,192,97926,1,8,0:0:0:0:
256,192,98187,1,0,0:0:0:0:
256,192,98447,1,4,0:0:0:0:
256,192,99491,1,8,0:0:0:0:
256,192,99752,1,8,0:0:0:0:
256,192,100013,1,8,0:0:0:0:
256,192,100274,1,0,0:0:0:0:
256,192,100534,1,8,0:0:0:0:
256,192,101056,1,0,0:0:0:0:
256,192,101317,1,8,0:0:0:0:
256,192,101578,1,8,0:0:0:0:
256,192,101839,1,0,0:0:0:0:
256,192,102100,1,0,0:0:0:0:
256,192,102361,1,8,0:0:0:0:
256,192,102621,1,0,0:0:0:0:
256,192,103665,1,8,0:0:0:0:
256,192,104187,1,8,0:0:0:0:
256,192,104708,1,8,0:0:0:0:
256,192,104969,1,8,0:0:0:0:
256,192,105230,1,0,0:0:0:0:
256,192,105491,1,0,0:0:0:0:
256,192,105752,1,8,0:0:0:0:
256,192,106013,1,0,0:0:0:0:
256,192,106274,1,8,0:0:0:0:
256,192,106534,1,0,0:0:0:0:
256,192,106795,1,4,0:0:0:0:
256,192,107839,1,8,0:0:0:0:
256,192,108100,1,0,0:0:0:0:
256,192,108361,1,8,0:0:0:0:
256,192,108621,1,8,0:0:0:0:
256,192,108882,1,0,0:0:0:0:
256,192,109404,1,8,0:0:0:0:
256,192,109665,1,0,0:0:0:0:
256,192,109926,1,8,0:0:0:0:
256,192,110187,1,8,0:0:0:0:
256,192,110447,1,0,0:0:0:0:
256,192,110708,1,8,0:0:0:0:
256,192,110969,1,0,0:0:0:0:
256,192,112274,1,8,0:0:0:0:
256,192,112534,1,0,0:0:0:0:
256,192,112795,1,8,0:0:0:0:
256,192,113056,1,8,0:0:0:0:
256,192,113317,1,0,0:0:0:0:
256,192,113578,1,8,0:0:0:0:
256,192,113839,1,0,0:0:0:0:
256,192,114100,1,8,0:0:0:0:
256,192,114621,1,8,0:0:0:0:
256,192,115143,1,4,0:0:0:0:
256,192,115404,1,8,0:0:0:0:
256,192,115534,1,0,0:0:0:0:
256,192,115665,1,8,0:0:0:0:
256,192,115926,1,8,0:0:0:0:
256,192,116187,1,0,0:0:0:0:
256,192,116447,1,0,0:0:0:0:
256,192,116578,1,0,0:0:0:0:
256,192,116708,1,8,0:0:0:0:
256,192,116839,1,8,0:0:0:0:
256,192,116969,1,8,0:0:0:0:
256,192,117230,1,0,0:0:0:0:
256,192,117491,1,8,0:0:0:0:
256,192,117621,1,0,0:0:0:0:
256,192,117752,1,0,0:0:0:0:
256,192,118013,1,8,0:0:0:0:
256,192,118274,1,0,0:0:0:0:
256,192,118795,1,8,0:0:0:0:
256,192,118926,1,8,0:0:0:0:
256,192,119056,1,8,0:0:0:0:
256,192,119317,1,4,0:0:0:0:
256,192,119578,1,8,0:0:0:0:
256,192,119708,1,0,0:0:0:0:
256,192,119839,1,8,0:0:0:0:
256,192,120100,1,8,0:0:0:0:
256,192,120361,1,0,0:0:0:0:
256,192,120621,1,0,0:0:0:0:
256,192,120752,1,0,0:0:0:0:
256,192,120882,1,8,0:0:0:0:
256,192,121013,1,8,0:0:0:0:
256,192,121143,1,8,0:0:0:0:
256,192,121404,1,0,0:0:0:0:
256,192,121665,1,8,0:0:0:0:
256,192,121795,1,0,0:0:0:0:
256,192,121926,1,8,0:0:0:0:
256,192,122187,1,8,0:0:0:0:
256,192,122447,1,0,0:0:0:0:
256,192,122969,1,8,0:0:0:0:
256,192,123100,1,8,0:0:0:0:
256,192,123230,1,8,0:0:0:0:
256,192,123491,1,4,0:0:0:0:
256,192,123752,1,0,0:0:0:0:
256,192,123882,1,0,0:0:0:0:
256,192,124013,1,8,0:0:0:0:
256,192,124274,1,8,0:0:0:0:
256,192,124534,1,8,0:0:0:0:
256,192,124665,1,8,0:0:0:0:
256,192,124795,1,0,0:0:0:0:
256,192,125056,1,0,0:0:0:0:
256,192,125317,1,8,0:0:0:0:
256,192,125447,1,8,0:0:0:0:
256,192,125578,1,8,0:0:0:0:
256,192,125839,1,0,0:0:0:0:
256,192,126100,1,8,0:0:0:0:
256,192,126361,1,0,0:0:0:0:
256,192,126491,1,0,0:0:0:0:
256,192,126621,1,8,0:0:0:0:
256,192,127143,1,8,0:0:0:0:
256,192,127404,1,0,0:0:0:0:
256,192,127665,1,4,0:0:0:0:
256,192,127926,1,8,0:0:0:0:
256,192,128056,1,0,0:0:0:0:
256,192,128187,1,8,0:0:0:0:
256,192,128317,1,0,0:0:0:0:
256,192,128447,1,8,0:0:0:0:
256,192,128708,1,8,0:0:0:0:
256,192,128969,1,0,0:0:0:0:
256,192,129100,1,0,0:0:0:0:
256,192,129230,1,8,0:0:0:0:
256,192,129361,1,8,0:0:0:0:
256,192,129491,1,0,0:0:0:0:
256,192,129752,1,0,0:0:0:0:
256,192,130013,1,8,0:0:0:0:
256,192,130143,1,0,0:0:0:0:
256,192,130274,1,8,0:0:0:0:
256,192,130534,1,8,0:0:0:0:
256,192,130795,1,0,0:0:0:0:
256,192,131317,1,8,0:0:0:0:
256,192,131447,1,8,0:0:0:0:
256,192,131578,1,8,0:0:0:0:
256,192,131839,1,4,0:0:0:0:
256,192,132361,1,8,0:0:0:0:
256,192,133926,1,0,0:0:0:0:
256,192,134447,1,8,0:0:0:0:
256,192,135230,1,8,0:0:0:0:
256,192,135491,1,8,0:0:0:0:
256,192,136013,1,4,0:0:0:0:
256,192,136274,1,0,0:0:0:0:
256,192,136404,1,0,0:0:0:0:
256,192,136534,1,8,0:0:0:0:
256,192,136795,1,8,0:0:0:0:
256,192,137056,1,0,0:0:0:0:
256,192,137187,1,0,0:0:0:0:
256,192,137317,1,0,0:0:0:0:
256,192,137447,1,0,0:0:0:0:
256,192,137578,1,8,0:0:0:0:
256,192,137839,1,8,0:0:0:0:
256,192,138100,1,0,0:0:0:0:
256,192,138361,1,0,0:0:0:0:
256,192,138491,1,0,0:0:0:0:
256,192,138621,1,8,0:0:0:0:
256,192,138882,1,8,0:0:0:0:
256,192,139274,1,8,0:0:0:0:
256,192,139665,1,8,0:0:0:0:
256,192,139795,1,8,0:0:0:0:
256,192,139926,1,8,0:0:0:0:
256,192,140187,1,4,0:0:0:0:
256,192,140447,1,0,0:0:0:0:
256,192,140578,1,0,0:0:0:0:
256,192,140708,1,8,0:0:0:0:
256,192,140969,1,8,0:0:0:0:
256,192,141230,1,8,0:0:0:0:
256,192,141361,1,8,0:0:0:0:
256,192,141491,1,0,0:0:0:0:
256,192,141621,1,0,0:0:0:0:
256,192,141752,1,8,0:0:0:0:
256,192,142013,1,8,0:0:0:0:
256,192,142274,1,0,0:0:0:0:
256,192,142534,1,0,0:0:0:0:
256,192,142665,1,0,0:0:0:0:
256,192,142795,1,8,0:0:0:0:
256,192,143056,1,8,0:0:0:0:
256,192,143447,1,8,0:0:0:0:
256,192,143839,1,8,0:0:0:0:
256,192,143969,1,8,0:0:0:0:
256,192,144100,1,8,0:0:0:0:
256,192,144361,1,4,0:0:0:0:
256,192,144882,1,8,0:0:0:0:
256,192,145143,1,8,0:0:0:0:
256,192,145274,1,8,0:0:0:0:
256,192,145404,1,0,0:0:0:0:
256,192,145534,1,0,0:0:0:0:
256,192,145665,1,8,0:0:0:0:
256,192,145926,1,8,0:0:0:0:
256,192,146317,1,8,0:0:0:0:
256,192,146447,1,0,0:0:0:0:
256,192,146708,1,8,0:0:0:0:
256,192,146969,1,8,0:0:0:0:
256,192,147100,1,0,0:0:0:0:
256,192,147230,1,8,0:0:0:0:
256,192,147491,1,0,0:0:0:0:
256,192,147752,1,0,0:0:0:0:
256,192,148013,1,8,0:0:0:0:
256,192,148534,1,4,0:0:0:0:
256,192,148795,1,0,0:0:0:0:
256,192,148926,1,0,0:0:0:0:
256,192,149056,1,8,0:0:0:0:
256,192,149317,1,8,0:0:0:0:
256,192,149578,1,0,0:0:0:0:
256,192,149839,1,8,0:0:0:0:
256,192,149969,1,0,0:0:0:0:
256,192,150100,1,8,0:0:0:0:
256,192,150491,1,8,0:0:0:0:
256,192,150882,1,8,0:0:0:0:
256,192,151143,1,0,0:0:0:0:
256,192,151404,1,8,0:0:0:0:
256,192,151665,1,8,0:0:0:0:
256,192,151795,1,0,0:0:0:0:
256,192,152187,1,8,0:0:0:0:
256,192,152317,1,8,0:0:0:0:
256,192,152447,1,8,0:0:0:0:
256,192,152708,1,4,0:0:0:0:
256,192,152969,1,8,0:0:0:0:
256,192,153100,1,0,0:0:0:0:
256,192,153230,1,8,0:0:0:0:
256,192,153491,1,8,0:0:0:0:
256,192,153752,1,0,0:0:0:0:
256,192,154013,1,0,0:0:0:0:
256,192,154143,1,0,0:0:0:0:
256,192,154274,1,8,0:0:0:0:
256,192,154404,1,8,0:0:0:0:
256,192,154534,1,8,0:0:0:0:
256,192,154795,1,0,0:0:0:0:
256,192,155056,1,8,0:0:0:0:
256,192,155187,1,0,0:0:0:0:
256,192,155317,1,0,0:0:0:0:
256,192,155578,1,8,0:0:0:0:
256,192,155839,1,0,0:0:0:0:
256,192,156361,1,8,0:0:0:0:
256,192,156491,1,8,0:0:0:0:
256,192,156621,1,8,0:0:0:0:
256,192,156882,1,4,0:0:0:0:
256,192,157143,1,8,0:0:0:0:
256,192,157274,1,0,0:0:0:0:
256,192,157404,1,8,0:0:0:0:
256,192,157665,1,8,0:0:0:0:
256,192,157926,1,0,0:0:0:0:
256,192,158187,1,0,0:0:0:0:
256,192,158317,1,0,0:0:0:0:
256,192,158447,1,8,0:0:0:0:
256,192,158578,1,8,0:0:0:0:
256,192,158708,1,8,0:0:0:0:
256,192,158969,1,0,0:0:0:0:
256,192,159230,1,8,0:0:0:0:
256,192,159361,1,0,0:0:0:0:
256,192,159491,1,8,0:0:0:0:
256,192,159752,1,8,0:0:0:0:
256,192,160013,1,0,0:0:0:0:
256,192,160534,1,8,0:0:0:0:
256,192,160665,1,8,0:0:0:0:
256,192,160795,1,8,0:0:0:0:
256,192,161056,1,4,0:0:0:0:
256,192,161317,1,0,0:0:0:0:
256,192,161447,1,0,0:0:0:0:
256,192,161578,1,8,0:0:0:0:
256,192,161839,1,8,0:0:0:0:
256,192,162100,1,8,0:0:0:0:
256,192,162230,1,8,0:0:0:0:
256,192,162361,1,0,0:0:0:0:
256,192,162621,1,0,0:0:0:0:
256,192,162882,1,8,0:0:0:0:
256,192,163013,1,8,0:0:0:0:
256,192,163143,1,8,0:0:0:0:
256,192,163404,1,0,0:0:0:0:
256,192,163665,1,8,0:0:0:0:
256,192,163926,1,0,0:0:0:0:
256,192,164056,1,0,0:0:0:0:
256,192,164187,1,8,0:0:0:0:
256,192,164708,1,8,0:0:0:0:
256,192,164969,1,0,0:0:0:0:
256,192,165230,1,4,0:0:0:0:
256,192,165491,1,8,0:0:0:0:
256,192,165621,1,0,0:0:0:0:
256,192,165752,1,8,0:0:0:0:
256,192,165882,1,0,0:0:0:0:
256,192,166013,1,8,0:0:0:0:
256,192,166274,1,8,0:0:0:0:
256,192,166534,1,0,0:0:0:0:
256,192,166665,1,0,0:0:0:0:
256,192,166795,1,8,0:0:0:0:
256,192,166926,1,8,0:0:0:0:
256,192,167056,1,0,0:0:0:0:
256,192,167317,1,0,0:0:0:0:
256,192,167578,1,8,0:0:0:0:
256,192,167708,1,0,0:0:0:0:
256,192,167839,1,8,0:0:0:0:
256,192,168100,1,8,0:0:0:0:
256,192,168361,1,0,0:0:0:0:
256,192,168882,1,8,0:0:0:0:
256,192,169013,1,8,0:0:0:0:
256,192,169143,1,8,0:0:0:0:
256,192,169404,1,4,0:0:0:0:
256,192,169665,1,8,0:0:0:0:
256,192,169795,1,0,0:0:0:0:
256,192,169926,1,8,0:0:0:0:
256,192,170187,1,8,0:0:0:0:
256,192,170447,1,0,0:0:0:0:
256,192,170578,1,0,0:0:0:0:
256,192,170708,1,8,0:0:0:0:
256,192,170839,1,0,0:0:0:0:
256,192,170969,1,8,0:0:0:0:
256,192,171230,1,8,0:0:0:0:
256,192,171491,1,0,0:0:0:0:
256,192,171752,1,8,0:0:0:0:
256,192,171882,1,0,0:0:0:0:
256,192,172013,1,0,0:0:0:0:
256,192,172274,1,8,0:0:0:0:
256,192,172534,1,0,0:0:0:0:
256,192,172795,1,0,0:0:0:0:
256,192,172926,1,0,0:0:0:0:
256,192,173056,1,8,0:0:0:0:
256,192,173187,1,8,0:0:0:0:
256,192,173317,1,8,0:0:0:0:
256,192,173578,1,4,0:0:0:0:
256,192,174100,1,0,0:0:0:0:
256,192,174361,1,8,0:0:0:0:
256,192,174621,1,0,0:0:0:0:
256,192,174882,1,8,0:0:0:0:
256,192,175013,1,0,0:0:0:0:
256,192,175143,1,0,0:0:0:0:
256,192,175274,1,0,0:0:0:0:
256,192,175404,1,8,0:0:0:0:
256,192,175665,1,0,0:0:0:0:
256,192,175926,1,8,0:0:0:0:
256,192,176056,1,0,0:0:0:0:
256,192,176187,1,8,0:0:0:0:
256,192,176447,1,8,0:0:0:0:
256,192,176708,1,0,0:0:0:0:
256,192,176969,1,0,0:0:0:0:
256,192,177100,1,0,0:0:0:0:
256,192,177230,1,8,0:0:0:0:
256,192,177361,1,8,0:0:0:0:
256,192,177491,1,8,0:0:0:0:
256,192,177752,1,4,0:0:0:0:
256,192,178013,1,0,0:0:0:0:
256,192,178274,1,8,0:0:0:0:
256,192,178534,1,8,0:0:0:0:
256,192,178795,1,8,0:0:0:0:
256,192,178926,1,8,0:0:0:0:
256,192,179056,1,0,0:0:0:0:
256,192,179317,1,0,0:0:0:0:
256,192,179578,1,8,0:0:0:0:
256,192,179708,1,8,0:0:0:0:
256,192,179839,1,8,0:0:0:0:
256,192,180100,1,0,0:0:0:0:
256,192,180361,1,8,0:0:0:0:
256,192,180621,1,0,0:0:0:0:
256,192,180752,1,0,0:0:0:0:
256,192,180882,1,8,0:0:0:0:
256,192,181404,1,8,0:0:0:0:
256,192,181665,1,0,0:0:0:0:
256,192,181926,1,4,0:0:0:0:
256,192,182187,1,8,0:0:0:0:
256,192,182317,1,0,0:0:0:0:
256,192,182447,1,8,0:0:0:0:
256,192,182708,1,0,0:0:0:0:
256,192,182969,1,8,0:0:0:0:
256,192,183230,1,0,0:0:0:0:
256,192,183361,1,0,0:0:0:0:
256,192,183491,1,8,0:0:0:0:
256,192,183621,1,8,0:0:0:0:
256,192,183752,1,0,0:0:0:0:
256,192,184013,1,0,0:0:0:0:
256,192,184274,1,8,0:0:0:0:
256,192,184404,1,0,0:0:0:0:
256,192,184534,1,8,0:0:0:0:
256,192,184795,1,8,0:0:0:0:
256,192,185056,1,0,0:0:0:0:
256,192,185317,1,0,0:0:0:0:
256,192,185578,1,8,0:0:0:0:
256,192,185708,1,8,0:0:0:0:
256,192,185839,1,8,0:0:0:0:
256,192,186100,1,4,0:0:0:0:
