osu file format v14

[General]
AudioFilename: audio.mp3
AudioLeadIn: 0
PreviewTime: 42701
Countdown: 0
SampleSet: Soft
StackLeniency: 0.4
Mode: 0
LetterboxInBreaks: 0
SkinPreference:Default
WidescreenStoryboard: 0

[Editor]
Bookmarks: 179182
DistanceSpacing: 0.5
BeatDivisor: 4
GridSize: 8
TimelineZoom: 1

[Metadata]
Title:...Baby One More Time
TitleUnicode:...Baby One More Time
Artist:Britney Spears
ArtistUnicode:Britney Spears
Creator:Nitroz
Version:My Loneliness is Killing Me.
Source:
Tags:English Pop Jive Hit Me Dance Aranel
BeatmapID:2229334
BeatmapSetID:1064735

[Difficulty]
HPDrainRate:5
CircleSize:4
OverallDifficulty:7
ApproachRate:8
SliderMultiplier:1.92
SliderTickRate:1

[Events]
//Background and Video events
0,0,"britney.jpg",0,0
//Break Periods
//Storyboard Layer 0 (Background)
//Storyboard Layer 1 (Fail)
//Storyboard Layer 2 (Pass)
//Storyboard Layer 3 (Foreground)
//Storyboard Layer 4 (Overlay)
//Storyboard Sound Samples

[TimingPoints]
112,645.300064530006,4,2,1,40,1,0
434,-50,4,2,1,40,0,0
1402,-100,4,2,1,40,0,0
21083,-50,4,2,1,40,0,0
24633,-100,4,2,1,40,0,0
32376,-80,4,2,1,40,0,0
42701,-88.8888888888889,4,2,1,55,0,1
58188,-76.3358778625954,4,2,1,55,0,1
63351,-100,4,2,1,55,0,0
65286,-100,4,2,1,45,0,0
65932,-100,4,2,1,40,0,0
72385,-76.3358778625954,4,2,1,40,0,0
94325,-66.6666666666667,4,2,1,55,0,1
109812,-76.3358778625954,4,2,1,55,0,1
114975,-88.8888888888889,4,2,1,55,0,0
115297,-100,4,2,1,40,0,0
125299,-125,4,2,1,40,0,0
145949,-76.3358778625954,4,2,1,55,0,1
156274,-51.0204081632653,4,2,1,55,0,1
166599,-66.6666666666667,4,2,1,50,0,0
169180,-66.6666666666667,4,2,1,55,0,1
182086,-67.5675675675676,4,2,1,55,0,1
187249,-59.1715976331361,4,2,1,55,0,0

[Colours]
Combo1 : 233,181,22
Combo2 : 219,36,123
Combo3 : 43,183,230
Combo4 : 185,18,248

[HitObjects]
256,192,434,6,0,L|256:384,2,192,2|2|2,1:0|1:0|1:0,0:0:0:0:
336,144,1402,5,4,1:2:0:0:
416,192,1725,1,2,0:0:0:0:
496,144,2047,1,10,0:0:0:0:
496,48,2370,1,2,0:0:0:0:
416,0,2693,1,2,1:2:0:0:
336,48,3015,1,2,0:3:0:0:
416,96,3338,1,8,0:0:0:0:
496,48,3661,1,0,0:0:0:0:
345,236,3983,5,0,1:0:0:0:
488,322,4306,1,4,0:3:0:0:
345,322,4629,1,8,0:0:0:0:
488,236,4951,1,0,0:0:0:0:
416,365,5274,1,4,0:3:0:0:
416,192,5597,5,2,1:0:0:0:
394,57,5919,1,10,1:0:0:0:
256,32,6242,1,2,1:1:0:0:
176,144,6565,5,0,1:0:0:0:
96,192,6887,1,2,0:0:0:0:
16,144,7210,1,10,0:0:0:0:
16,48,7532,1,2,0:0:0:0:
96,0,7855,1,2,1:2:0:0:
176,48,8178,1,2,0:3:0:0:
96,96,8500,1,8,0:0:0:0:
16,48,8823,1,0,0:0:0:0:
167,236,9146,5,0,1:0:0:0:
24,322,9469,1,4,0:3:0:0:
167,322,9792,1,8,0:0:0:0:
24,236,10114,1,2,0:0:0:0:
96,365,10437,1,4,0:3:0:0:
96,192,10759,5,2,0:1:0:0:
118,57,11082,1,2,0:1:0:0:
256,32,11404,1,2,0:1:0:0:
256,192,11727,5,4,1:1:0:0:
304,112,12050,1,8,0:3:0:0:
208,112,12372,1,10,0:0:0:0:
256,192,12695,1,2,0:0:0:0:
304,272,13018,1,2,1:2:0:0:
208,272,13340,1,2,0:3:0:0:
256,192,13663,1,8,0:0:0:0:
304,112,13985,1,2,0:0:0:0:
352,272,14308,6,0,L|160:272,1,192,2|10,1:2|0:0,0:0:0:0:
160,192,15276,2,0,L|352:192,1,192,2|2,0:0|0:3,0:0:0:0:
384,96,16244,1,10,0:0:0:0:
384,96,16567,6,0,B|256:30|256:30|128:96,1,288,2|8,0:3|0:0,0:0:0:0:
128,288,18180,1,0,1:0:0:0:
208,336,18503,1,2,2:3:0:0:
304,336,18825,1,8,2:0:0:0:
384,288,19148,1,2,0:0:0:0:
384,192,19471,5,2,1:2:0:0:
256,192,19793,1,2,0:0:0:0:
128,192,20116,1,10,0:0:0:0:
256,192,20438,1,2,0:0:0:0:
384,192,20761,1,2,1:2:0:0:
348,68,21084,2,0,P|256:44|164:68,2,192,2|10|2,1:0|1:0|1:1,0:0:0:0:
384,192,22052,5,6,1:2:0:0:
384,320,22374,1,8,0:3:0:0:
288,160,22697,1,10,0:0:0:0:
304,352,23020,1,2,0:0:0:0:
224,160,23342,1,2,1:2:0:0:
208,352,23665,1,2,0:3:0:0:
128,192,23988,1,8,0:0:0:0:
128,320,24310,1,2,0:0:0:0:
384,256,24633,6,0,B|404:208|384:160|364:112|384:68,1,192,2|10,1:2|0:0,0:0:0:0:
127,67,25601,2,0,B|147:111|127:159|107:207|127:255,1,192,2|2,0:0|0:3,0:0:0:0:
256,256,26569,5,10,0:0:0:0:
368,320,26891,2,0,P|416:336|448:304,2,96,2|0|8,0:3|1:0|0:3,0:0:0:0:
256,256,27859,1,8,0:0:0:0:
144,320,28182,2,0,P|96:336|64:304,2,96,0|0|2,0:0|1:0|2:3,0:0:0:0:
96,240,29150,1,8,2:0:0:0:
192,256,29473,1,2,0:0:0:0:
416,240,29795,5,2,1:2:0:0:
320,256,30118,1,2,0:0:0:0:
256,192,30441,1,10,0:0:0:0:
256,192,30763,1,2,0:0:0:0:
256,96,31086,1,2,1:2:0:0:
384,96,31409,5,2,1:0:0:0:
256,0,31731,1,10,1:0:0:0:
128,96,32054,1,2,1:1:0:0:
208,288,32377,6,0,B|144:304|128:368|128:368|112:304|48:288,1,240,4|10,1:2|0:0,0:0:0:0:
48,192,33344,1,0,0:0:0:0:
208,192,33667,1,2,1:2:0:0:
208,32,33990,1,2,0:3:0:0:
48,32,34312,1,10,0:0:0:0:
128,112,34635,1,2,0:0:0:0:
304,288,34958,6,0,B|368:304|384:368|384:368|400:304|464:288,1,240,2|10,1:2|0:0,0:0:0:0:
464,192,35926,1,0,0:0:0:0:
304,192,36248,1,0,1:0:0:0:
304,32,36571,1,2,0:3:0:0:
464,32,36894,1,10,0:0:0:0:
384,112,37216,1,2,0:3:0:0:
208,32,37539,6,0,L|208:272,1,240,2|10,1:2|0:0,0:0:0:0:
304,368,38507,1,0,0:0:0:0:
304,272,38830,1,2,1:2:0:0:
208,272,39152,1,2,0:3:0:0:
208,368,39475,1,10,0:0:0:0:
304,368,39797,1,2,0:0:0:0:
304,272,40120,6,0,L|304:32,1,240,2|10,1:2|0:2,0:0:0:0:
256,128,41088,1,0,0:0:0:0:
80,240,41411,5,2,1:2:0:0:
256,320,41733,1,2,1:0:0:0:
432,240,42056,1,10,1:0:0:0:
256,320,42379,1,2,1:1:0:0:
80,240,42701,5,4,1:1:0:0:
192,184,43024,1,8,0:3:0:0:
320,184,43347,1,10,0:2:0:0:
360,64,43669,1,2,0:2:0:0:
360,64,43992,2,0,B|256:36|256:36|152:64,1,216.000008239746,2|8,1:2|0:0,0:0:0:0:
256,192,44960,1,2,0:0:0:0:
352,192,45283,5,2,1:2:0:0:
160,192,45605,1,2,0:2:0:0:
256,36,45928,1,10,0:2:0:0:
80,336,46573,1,2,1:2:0:0:
432,336,47218,1,10,0:2:0:0:
256,192,47864,5,0,1:2:0:0:
192,304,48186,1,8,0:3:0:0:
64,304,48509,1,10,0:2:0:0:
0,192,48832,1,2,0:2:0:0:
32,64,49154,2,0,B|88:48|128:96|128:96|168:48|224:64,1,216.000008239746,2|8,1:2|0:0,0:0:0:0:
256,320,50122,5,2,0:0:0:0:
256,192,50445,1,2,1:2:0:0:
256,320,50768,1,2,0:2:0:0:
256,192,51090,1,10,0:2:0:0:
256,64,51413,1,2,0:2:0:0:
256,192,51736,1,2,1:2:0:0:
448,304,52058,5,2,0:3:0:0:
320,304,52381,1,10,0:2:0:0:
448,304,52703,1,2,0:3:0:0:
480,64,53026,6,0,B|424:48|384:96|384:96|344:48|288:64,1,216.000008239746,4|10,1:2|0:2,0:0:0:0:
256,192,53994,1,2,0:2:0:0:
256,320,54317,1,2,1:2:0:0:
128,96,54639,1,2,0:3:0:0:
384,96,54962,1,8,0:0:0:0:
368,296,55285,2,0,P|344:248|296:216,1,108.000004119873,2|2,0:0|1:2,0:0:0:0:
144,296,55930,2,0,P|168:248|216:216,1,108.000004119873,2|10,0:2|0:2,0:0:0:0:
256,336,56575,1,0,0:0:0:0:
112,176,56898,5,2,1:2:0:0:
176,32,57221,1,2,0:3:0:0:
336,32,57543,1,10,0:2:0:0:
400,176,57866,1,2,0:3:0:0:
400,336,58189,6,2,B|352:304|288:336|288:336|256:273|256:273|224:336|224:336|160:304|112:336,1,377.280006908203,6|2,1:2|3:0,1:0:0:0:
88,312,59318,1,2,2:0:0:0:
72,288,59479,1,2,1:2:0:0:
256,192,59802,1,2,0:2:0:0:
440,288,60124,1,8,0:2:0:0:
256,325,60770,5,2,1:2:0:0:
177,83,61092,1,2,0:2:0:0:
383,233,61415,1,8,0:2:0:0:
128,233,61738,1,2,0:2:0:0:
334,83,62060,1,2,1:2:0:0:
256,325,62383,1,2,1:0:0:0:
177,83,62706,1,10,1:0:0:0:
256,192,63351,5,4,1:0:0:0:
304,336,65287,1,8,0:0:0:0:
208,336,65609,1,2,0:0:0:0:
164,248,65932,6,0,P|256:224|348:248,1,192,6|10,1:2|0:0,0:0:0:0:
392,164,66900,2,0,P|256:124|120:164,1,288,2|10,0:0|0:0,0:0:0:0:
32,128,68191,1,2,0:3:0:0:
176,32,68513,5,0,1:0:0:0:
336,32,68836,1,8,0:3:0:0:
128,112,69159,1,8,0:0:0:0:
384,112,69481,1,0,0:0:0:0:
176,192,69804,1,0,1:0:0:0:
336,192,70127,1,2,2:3:0:0:
480,128,70449,1,8,2:0:0:0:
336,32,70772,1,2,0:0:0:0:
192,148,71095,6,0,B|172:192|172:192|192:236,1,96,2|2,1:2|0:0,0:0:0:0:
320,236,71740,2,0,B|340:192|340:192|320:148,1,96,10|2,0:0|0:0,0:0:0:0:
146,310,72385,2,0,B|187:340|232:321|232:321|255:347|255:347|277:321|277:321|322:340|364:310,1,251.520004605469,2|10,1:2|1:0,0:0:0:0:
320,192,73353,1,2,1:1:0:0:
192,192,73676,1,6,1:2:0:0:
48,128,73998,5,8,0:3:0:0:
96,16,74321,1,10,0:0:0:0:
176,112,74644,1,2,0:0:0:0:
256,16,74966,1,2,1:2:0:0:
336,112,75289,1,2,0:3:0:0:
416,16,75612,1,10,0:0:0:0:
464,128,75934,6,0,P|368:288|328:288,1,251.520004605469,2|2,0:0|0:0,0:0:0:0:
256,192,76902,1,8,0:0:0:0:
183,288,77225,2,0,P|70:246|48:128,1,251.520004605469,2|2,0:0|0:3,0:0:0:0:
128,32,78193,1,8,0:0:0:0:
0,16,78515,1,2,0:3:0:0:
144,192,78838,5,2,1:2:0:0:
192,80,79161,1,8,0:3:0:0:
320,80,79483,1,10,0:0:0:0:
368,192,79806,1,0,0:0:0:0:
512,16,80129,5,0,1:0:0:0:
384,32,80451,1,2,2:3:0:0:
464,128,80774,1,8,2:0:0:0:
440,256,81097,1,2,0:0:0:0:
304,288,81419,5,2,1:2:0:0:
336,152,81742,1,2,0:0:0:0:
208,288,82065,1,10,0:0:0:0:
176,152,82387,1,2,0:0:0:0:
72,256,82710,1,2,1:2:0:0:
256,192,83033,5,2,1:0:0:0:
256,32,83355,1,10,1:0:0:0:
256,192,83678,1,2,1:1:0:0:
448,192,84001,6,0,L|448:64,2,125.760002302734,4|8|10,1:2|0:3|0:0,0:0:0:0:
448,320,84968,1,0,0:0:0:0:
320,320,85291,5,2,1:2:0:0:
448,320,85614,1,2,0:3:0:0:
320,192,85936,5,10,0:0:0:0:
320,320,86259,1,2,0:0:0:0:
64,192,86582,6,0,L|64:64,2,125.760002302734,2|0|10,1:2|0:0|0:0,0:0:0:0:
64,320,87550,1,0,0:0:0:0:
192,320,87872,5,0,1:0:0:0:
64,320,88195,1,2,0:3:0:0:
192,192,88518,5,10,0:0:0:0:
192,320,88840,1,2,0:3:0:0:
386,135,89163,6,0,P|371:77|314:77,1,125.760002302734,2|8,1:2|0:3,0:0:0:0:
197,77,89808,2,0,P|139:78|126:135,1,125.760002302734,10|2,0:0|0:0,0:0:0:0:
126,249,90454,2,0,P|141:307|198:307,1,125.760002302734,2|2,1:2|0:3,0:0:0:0:
315,307,91099,2,0,P|373:306|386:249,1,125.760002302734,10|2,0:0|0:0,0:0:0:0:
256,192,91744,5,2,1:2:0:0:
256,112,92067,1,0,0:0:0:0:
256,272,92389,1,10,0:2:0:0:
256,32,92712,1,0,0:0:0:0:
256,192,93035,5,2,1:2:0:0:
160,192,93357,1,2,1:0:0:0:
352,192,93680,1,10,1:0:0:0:
64,192,94003,1,2,1:1:0:0:
448,192,94325,5,4,1:1:0:0:
336,80,94648,1,8,0:3:0:0:
176,80,94971,1,10,0:2:0:0:
64,192,95293,1,2,0:2:0:0:
176,336,95616,2,0,B|256:312|344:288|348:200|256:152|164:200|168:288|256:312|336:336,1,432.000016479493,2|2,1:2|0:0,0:0:0:0:
416,224,96907,5,2,1:2:0:0:
256,112,97229,1,2,0:2:0:0:
96,224,97552,1,10,0:2:0:0:
400,32,98197,2,0,L|256:32,1,144.000005493164,2|2,1:2|0:3,0:0:0:0:
112,32,98842,2,0,L|256:32,1,144.000005493164,10|2,0:2|0:3,0:0:0:0:
400,32,99488,5,0,1:2:0:0:
512,144,99810,1,8,0:3:0:0:
352,112,100133,1,10,0:2:0:0:
464,224,100456,1,2,0:2:0:0:
304,192,100778,2,0,B|304:256|304:256|304:304|256:336|208:304|208:256|208:256|208:192,1,288.000010986329,2|8,1:2|0:0,0:0:0:0:
48,224,101746,5,2,0:0:0:0:
160,112,102069,1,2,1:2:0:0:
0,144,102392,1,2,0:2:0:0:
112,32,102714,1,10,0:2:0:0:
256,96,103037,1,2,0:2:0:0:
256,224,103360,1,2,1:2:0:0:
256,352,103682,5,2,0:3:0:0:
256,224,104005,1,10,0:2:0:0:
256,96,104327,1,2,0:3:0:0:
352,16,104650,6,0,P|416:44|480:16,2,144.000005493164,4|8|10,1:2|0:3|0:2,0:0:0:0:
256,96,105618,1,2,0:2:0:0:
160,16,105941,2,0,P|96:44|32:16,2,144.000005493164,2|2|8,1:2|0:3|0:0,0:0:0:0:
381,119,106909,2,0,L|336:256,1,144.000005493164,2|2,0:0|1:2,0:2:0:0:
176,256,107554,2,0,L|128:112,1,144.000005493164,2|10,0:2|0:2,0:2:0:0:
256,48,108199,1,0,0:0:0:0:
400,208,108522,5,2,1:2:0:0:
336,352,108845,1,2,0:3:0:0:
176,352,109167,1,10,0:2:0:0:
112,208,109490,1,2,0:3:0:0:
112,48,109813,6,2,B|160:80|224:48|224:48|256:111|256:111|288:48|288:48|352:80|400:48,1,377.280006908203,4|2,1:2|3:0,1:0:0:0:
424,72,110942,1,2,2:0:0:0:
440,96,111103,1,2,1:2:0:0:
256,192,111426,1,2,0:2:0:0:
72,96,111748,1,8,0:2:0:0:
256,84,112394,5,6,1:2:0:0:
319,280,112716,1,2,0:2:0:0:
153,158,113039,1,2,0:2:0:0:
359,158,113362,1,2,0:2:0:0:
192,280,113684,1,2,0:2:0:0:
256,84,114007,1,2,0:3:0:0:
319,280,114330,1,10,0:0:0:0:
256,192,114975,5,4,1:1:0:0:
208,272,115298,1,2,0:0:0:0:
96,272,115620,1,10,0:0:0:0:
144,192,115943,1,2,0:0:0:0:
256,192,116266,5,2,1:2:0:0:
304,272,116588,1,2,0:3:0:0:
416,272,116911,1,8,0:0:0:0:
368,192,117233,1,0,0:0:0:0:
176,96,117556,5,0,1:2:0:0:
336,96,117879,1,0,0:0:0:0:
208,16,118201,1,8,0:2:0:0:
304,176,118524,1,0,0:0:0:0:
304,16,118847,1,0,1:2:0:0:
208,176,119169,5,2,1:0:0:0:
384,96,119492,1,10,1:0:0:0:
128,96,119815,1,2,1:1:0:0:
64,240,120137,6,0,L|64:336,1,96,4|2,1:2|0:0,0:0:0:0:
320,336,120783,2,0,L|320:240,1,96,10|2,0:0|0:0,0:0:0:0:
192,240,121428,2,0,L|192:336,1,96,2|2,1:2|0:3,0:0:0:0:
448,336,122073,2,0,L|448:240,1,96,8|2,0:0|0:0,0:0:0:0:
368,64,122719,5,0,1:2:0:0:
160,160,123041,1,2,0:0:0:0:
144,64,123364,1,10,0:2:0:0:
352,160,123686,1,8,0:3:0:0:
144,256,124009,5,0,1:2:0:0:
256,16,124332,1,2,0:1:0:0:
368,256,124654,1,2,0:1:0:0:
256,144,124977,1,2,0:1:0:0:
256,304,125300,5,6,3:2:0:0:
96,32,125945,2,0,P|132:96|96:160,1,153.6,2|2,3:2|0:0,0:0:0:0:
416,32,127236,2,0,P|380:96|416:160,1,153.6,0|2,3:2|0:0,0:0:0:0:
368,320,128526,6,0,P|408:328|448:320,2,76.8,2|2|0,0:0|3:2|0:0,0:0:0:0:
144,320,129817,2,0,P|104:328|64:320,2,76.8,2|2|0,0:0|3:2|0:0,0:0:0:0:
96,192,131107,5,0,3:2:0:0:
256,304,131753,1,0,3:2:0:0:
416,192,132398,1,0,3:2:0:0:
256,80,133043,1,0,3:2:0:0:
144,192,133689,6,0,L|64:192,2,76.8,0|0|2,3:2|3:2|3:2,0:0:0:0:
445,192,134979,2,2,L|365:192,1,76.8,2|0,3:2|0:0,0:0:0:0:
292,328,135625,6,0,B|256:341|256:341|220:328,1,76.8,6|2,3:2|0:0,0:0:0:0:
217,248,136270,2,0,L|293:248,1,76.8,2|2,3:2|0:0,0:0:0:0:
292,56,136915,6,0,B|256:44|256:44|220:56,1,76.8,2|2,3:2|0:0,0:0:0:0:
217,136,137560,2,0,L|293:136,1,76.8,2|2,3:2|0:0,0:0:0:0:
408,192,138206,6,0,B|382:243|382:243|344:255|344:255|318:306,1,153.6,2|2,3:2|0:0,0:0:0:0:
193,306,139174,2,0,B|167:255|167:255|129:243|129:243|104:191,1,153.6,2|2,3:2|0:0,0:0:0:0:
220,112,140142,2,2,P|256:124|292:112,2,76.8,0|2|0,3:2|3:2|3:2,0:0:0:0:
256,16,141110,5,0,0:0:0:0:
352,32,141432,1,2,3:2:0:0:
448,48,141755,1,0,3:2:0:0:
256,16,142078,5,2,3:2:0:0:
160,32,142400,1,0,3:2:0:0:
64,48,142723,1,2,3:2:0:0:
256,96,143045,1,0,3:2:0:0:
352,288,143368,5,0,3:2:0:0:
256,288,143691,1,0,0:0:0:0:
159,288,144013,1,0,3:2:0:0:
159,192,144336,1,0,3:2:0:0:
159,95,144659,1,2,3:2:0:0:
256,95,144981,1,2,0:2:0:0:
352,95,145304,1,10,1:2:0:0:
352,192,145627,1,2,0:3:0:0:
256,192,145949,6,0,B|144:256|128:128|16:192,1,251.520004605469,4|8,1:1|0:2,0:0:0:0:
128,80,146917,1,2,0:2:0:0:
80,272,147240,1,2,1:2:0:0:
192,128,147563,1,2,0:3:0:0:
144,320,147885,1,8,0:0:0:0:
256,192,148208,6,0,B|368:255|384:128|493:190,1,251.520004605469,2|2,0:0|0:2,0:0:0:0:
432,272,149176,1,8,0:2:0:0:
384,80,149498,1,2,0:2:0:0:
368,320,149821,1,2,1:2:0:0:
320,128,150144,1,2,0:3:0:0:
256,272,150466,1,10,0:2:0:0:
80,128,150789,6,0,P|176:128|176:0,1,251.520004605469,2|8,0:3|0:3,0:0:0:0:
336,0,151757,2,0,P|319:111|432:128,1,251.520004605469,10|2,0:2|1:2,0:0:0:0:
384,64,152725,1,2,0:3:0:0:
256,192,153048,1,10,0:0:0:0:
128,64,153370,1,2,0:0:0:0:
64,320,153693,6,0,L|192:320,1,125.760002302734,2|0,1:2|0:0,0:0:0:0:
448,320,154338,2,0,L|320:320,1,125.760002302734,10|0,0:2|0:0,0:0:0:0:
160,224,154984,1,2,1:2:0:0:
352,224,155306,1,2,0:3:0:0:
256,144,155629,1,10,0:2:0:0:
256,16,155951,1,2,0:3:0:0:
164,124,156274,6,0,B|256:144|256:144|348:124,1,188.640003454102,4|0,1:2|0:0,0:0:0:0:
348,260,156919,2,0,B|256:240|256:240|164:260,1,188.640003454102,10|2,0:2|0:2,0:0:0:0:
336,48,157565,2,0,B|384:64|400:112|400:112|416:64|464:48,1,188.159998277344,2|2,1:2|0:3,0:0:0:0:
176,48,158210,2,0,B|128:64|112:112|112:112|96:64|48:48,1,188.159998277344,10|2,0:0|0:0,0:0:0:0:
320,208,158855,6,0,P|192:208|320:144,1,376.319996554688,4|10,1:2|0:2,0:0:0:0:
384,352,159823,1,2,0:0:0:0:
128,352,160146,1,2,1:2:0:0:
128,192,160469,1,2,0:3:0:0:
384,192,160791,1,10,0:2:0:0:
256,0,161114,6,2,L|256:384,2,376.319996554688,2|0|0,0:3|0:0|0:0,1:0:0:0:
160,96,162727,1,2,1:2:0:0:
352,96,163050,1,2,0:3:0:0:
352,288,163372,1,10,0:1:0:0:
160,288,163695,1,0,0:0:0:0:
256,192,164018,12,14,165954,1:2:0:0:
48,336,166599,6,0,L|192:336,1,144.000005493164,4|2,1:2|0:0,0:0:0:0:
320,192,167244,1,2,0:0:0:0:
192,192,167567,1,2,0:0:0:0:
320,336,167890,2,0,B|464:336|464:336|464:192,1,288.000010986329,2|8,0:0|0:0,0:0:0:0:
464,64,168857,1,2,0:0:0:0:
256,64,169180,5,6,1:2:0:0:
192,176,169503,1,2,0:2:0:0:
128,288,169825,1,10,0:2:0:0:
384,288,170148,1,0,0:0:0:0:
320,176,170471,1,2,1:2:0:0:
256,64,170793,1,2,0:3:0:0:
256,320,171116,1,10,0:2:0:0:
256,64,171439,1,2,0:3:0:0:
48,64,171761,6,0,L|48:208,1,144.000005493164,0|8,1:2|0:3,0:0:0:0:
328,64,172407,2,0,L|184:64,1,144.000005493164,10|2,0:2|0:2,0:0:0:0:
464,208,173052,2,0,L|464:64,1,144.000005493164,2|2,1:2|0:3,0:0:0:0:
184,208,173697,2,0,L|328:208,1,144.000005493164,8|2,0:0|0:0,0:0:0:0:
256,64,174343,5,2,1:2:0:0:
256,192,174665,1,2,0:2:0:0:
112,104,174988,1,10,0:2:0:0:
256,16,175310,1,2,0:2:0:0:
400,104,175633,1,2,1:2:0:0:
344,352,175956,5,2,0:3:0:0:
256,352,176278,1,10,0:2:0:0:
168,352,176601,1,2,0:3:0:0:
256,192,176924,5,4,1:2:0:0:
344,288,177246,1,8,0:3:0:0:
168,96,177569,1,10,0:2:0:0:
344,96,177892,1,2,0:2:0:0:
168,288,178214,1,2,1:2:0:0:
256,48,178537,1,2,0:3:0:0:
256,336,178860,1,8,0:0:0:0:
188,71,179182,2,0,B|256:47|256:47|324:71,1,144.000005493164,2|2,0:0|1:2,0:0:0:0:
324,220,179828,2,0,B|256:244|256:244|188:220,1,144.000005493164,2|10,0:2|0:2,0:0:0:0:
256,360,180473,1,0,0:0:0:0:
400,176,180796,5,2,1:2:0:0:
336,32,181118,1,2,0:3:0:0:
176,32,181441,1,10,0:2:0:0:
112,176,181764,1,2,0:3:0:0:
284,272,182086,38,2,B|240:168|152:188|124:264|160:320|224:320|256:367|256:367|288:320|352:320|388:264|360:188|272:168|228:272,1,567.840010614075,4|2,1:2|1:2,1:0:0:0:
416,160,183699,1,2,0:2:0:0:
256,64,184022,1,8,0:2:0:0:
96,160,184345,1,0,0:0:0:0:
256,192,184667,12,4,187249,1:1:0:0:
